  0
SECTION
  2
HEADER
  9
$ACADVER
  1
AC1009
  9
$INSBASE
 10
0.0
 20
0.0
 30
0.0
  9
$EXTMIN
 10
-1885.7014612810869
 20
402.25041330688219
 30
-0.00000001
  9
$EXTMAX
 10
2084.1397577189132
 20
3159.9263743068818
 30
0.00000001
  9
$LIMMIN
 10
-1689.452841
 20
292.80002000000002
  9
$LIMMAX
 10
2510.5471590000011
 20
3262.8000200000001
  9
$ORTHOMODE
 70
     1
  9
$REGENMODE
 70
     1
  9
$FILLMODE
 70
     1
  9
$QTEXTMODE
 70
     0
  9
$MIRRTEXT
 70
     0
  9
$DRAGMODE
 70
     2
  9
$LTSCALE
 40
1.0
  9
$OSMODE
 70
    39
  9
$ATTMODE
 70
     1
  9
$TEXTSIZE
 40
0.0
  9
$TRACEWID
 40
0.05
  9
$TEXTSTYLE
  7
STANDARD
  9
$CLAYER
  8
LAYER01
  9
$CELTYPE
  6
CONTINUOUS
  9
$CECOLOR
 62
     7
  9
$DIMSCALE
 40
1.0
  9
$DIMASZ
 40
0.18
  9
$DIMEXO
 40
0.0625
  9
$DIMDLI
 40
0.38
  9
$DIMRND
 40
0.0
  9
$DIMDLE
 40
0.0
  9
$DIMEXE
 40
0.18
  9
$DIMTP
 40
0.0
  9
$DIMTM
 40
0.0
  9
$DIMTXT
 40
0.18
  9
$DIMCEN
 40
0.09
  9
$DIMTSZ
 40
0.0
  9
$DIMTOL
 70
     0
  9
$DIMLIM
 70
     0
  9
$DIMTIH
 70
     1
  9
$DIMTOH
 70
     1
  9
$DIMSE1
 70
     0
  9
$DIMSE2
 70
     0
  9
$DIMTAD
 70
     0
  9
$DIMZIN
 70
     0
  9
$DIMBLK
  1

  9
$DIMASO
 70
     1
  9
$DIMSHO
 70
     1
  9
$DIMPOST
  1

  9
$DIMAPOST
  1

  9
$DIMALT
 70
     0
  9
$DIMALTD
 70
     2
  9
$DIMALTF
 40
25.399999999999999
  9
$DIMLFAC
 40
1.0
  9
$DIMTOFL
 70
     0
  9
$DIMTVP
 40
0.0
  9
$DIMTIX
 70
     0
  9
$DIMSOXD
 70
     0
  9
$DIMSAH
 70
     0
  9
$DIMBLK1
  1

  9
$DIMBLK2
  1

  9
$DIMSTYLE
  2
STANDARD
  9
$DIMCLRD
 70
     0
  9
$DIMCLRE
 70
     0
  9
$DIMCLRT
 70
     0
  9
$DIMTFAC
 40
1.0
  9
$DIMGAP
 40
0.09
  9
$LUNITS
 70
     2
  9
$LUPREC
 70
     4
  9
$SKETCHINC
 40
0.1
  9
$FILLETRAD
 40
10.0
  9
$AUNITS
 70
     0
  9
$AUPREC
 70
     0
  9
$MENU
  1
acad
  9
$ELEVATION
 40
0.0
  9
$PELEVATION
 40
0.0
  9
$THICKNESS
 40
0.0
  9
$LIMCHECK
 70
     0
  9
$BLIPMODE
 70
     0
  9
$CHAMFERA
 40
0.0
  9
$CHAMFERB
 40
0.0
  9
$SKPOLY
 70
     0
  9
$TDCREATE
 40
2305814.0418231939
  9
$TDUPDATE
 40
2457394.3555087959
  9
$TDINDWG
 40
0.0452772685
  9
$TDUSRTIMER
 40
0.0452771759
  9
$USRTIMER
 70
     1
  9
$ANGBASE
 50
0.0
  9
$ANGDIR
 70
     0
  9
$PDMODE
 70
     0
  9
$PDSIZE
 40
0.0
  9
$PLINEWID
 40
0.0
  9
$COORDS
 70
     1
  9
$SPLFRAME
 70
     0
  9
$SPLINETYPE
 70
     6
  9
$SPLINESEGS
 70
    10
  9
$ATTDIA
 70
     0
  9
$ATTREQ
 70
     1
  9
$HANDLING
 70
     1
  9
$HANDSEED
  5
823
  9
$SURFTAB1
 70
     6
  9
$SURFTAB2
 70
     6
  9
$SURFTYPE
 70
     6
  9
$SURFU
 70
     6
  9
$SURFV
 70
     6
  9
$UCSNAME
  2

  9
$UCSORG
 10
0.0
 20
0.0
 30
0.0
  9
$UCSXDIR
 10
1.0
 20
0.0
 30
0.0
  9
$UCSYDIR
 10
0.0
 20
1.0
 30
0.0
  9
$PUCSNAME
  2

  9
$PUCSORG
 10
0.0
 20
0.0
 30
0.0
  9
$PUCSXDIR
 10
1.0
 20
0.0
 30
0.0
  9
$PUCSYDIR
 10
0.0
 20
1.0
 30
0.0
  9
$USERI1
 70
     0
  9
$USERI2
 70
     0
  9
$USERI3
 70
     0
  9
$USERI4
 70
     0
  9
$USERI5
 70
     0
  9
$USERR1
 40
0.0
  9
$USERR2
 40
0.0
  9
$USERR3
 40
0.0
  9
$USERR4
 40
0.0
  9
$USERR5
 40
0.0
  9
$WORLDVIEW
 70
     1
  9
$SHADEDGE
 70
     3
  9
$SHADEDIF
 70
    70
  9
$TILEMODE
 70
     1
  9
$MAXACTVP
 70
    64
  9
$PLIMCHECK
 70
     0
  9
$PEXTMIN
 10
1.0000000000000000E+020
 20
1.0000000000000000E+020
 30
1.0000000000000000E+020
  9
$PEXTMAX
 10
-1.0000000000000000E+020
 20
-1.0000000000000000E+020
 30
-1.0000000000000000E+020
  9
$PLIMMIN
 10
0.0
 20
0.0
  9
$PLIMMAX
 10
12.0
 20
9.0
  9
$UNITMODE
 70
     0
  9
$VISRETAIN
 70
     1
  9
$PLINEGEN
 70
     0
  9
$PSLTSCALE
 70
     1
  0
ENDSEC
  0
SECTION
  2
TABLES
  0
TABLE
  2
VPORT
 70
     1
  0
VPORT
  2
*ACTIVE
 70
     0
 10
0.0
 20
0.0
 11
1.0
 21
1.0
 12
-1158.315967337915
 22
336.6822401161171
 13
0.0
 23
0.0
 14
1.0
 24
1.0
 15
0.0
 25
0.0
 16
0.0
 26
0.0
 36
8354.4071133586222
 17
1470.7388161973711
 27
1441.117779883883
 37
0.0
 40
3067.6154596126739
 41
1.4396082698585411
 42
50.0
 43
0.0
 44
0.0
 50
0.0
 51
0.0
 71
     0
 72
   100
 73
     1
 74
     1
 75
     0
 76
     0
 77
     0
 78
     0
  0
ENDTAB
  0
TABLE
  2
LTYPE
 70
    12
  0
LTYPE
  2
CONTINUOUS
 70
     0
  3
Solid line
 72
    65
 73
     0
 40
0.0
  0
LTYPE
  2
GESTRICHELT
 70
     0
  3
__ __ __ __ __ __ __ __ __ __ __ __ __ __ __
 72
    65
 73
     2
 40
0.75
 49
0.5
 49
-0.25
  0
LTYPE
  2
VERDECKT
 70
     0
  3
_ _ _ _ _ _ _ _ _ _ _ _ _ _ _ _ _ _ _ _ _ _ 
 72
    65
 73
     2
 40
0.25
 49
0.125
 49
-0.125
  0
LTYPE
  2
MITTELLINIE
 70
     0
  3
____ _ ____ _ ____ _ ____ _ ____ _ ____ _ __
 72
    65
 73
     4
 40
2.0
 49
1.25
 49
-0.25
 49
0.25
 49
-0.25
  0
LTYPE
  2
PHANTOM
 70
     0
  3
_____ _ _ _____ _ _ _____ _ _ _____ _ _ ____
 72
    65
 73
     6
 40
2.5
 49
1.25
 49
-0.25
 49
0.25
 49
-0.25
 49
0.25
 49
-0.25
  0
LTYPE
  2
PUNKTIERT
 70
     0
  3
............................................
 72
    65
 73
     2
 40
0.25
 49
0.0
 49
-0.25
  0
LTYPE
  2
STRICHPUNKTIERT
 70
     0
  3
__ . __ . __ . __ . __ . __ . __ . __ . __ .
 72
    65
 73
     4
 40
1.0
 49
0.5
 49
-0.25
 49
0.0
 49
-0.25
  0
LTYPE
  2
RAND
 70
     0
  3
__ __ . __ __ . __ __ . __ __ . __ __ . __ _
 72
    65
 73
     6
 40
1.75
 49
0.5
 49
-0.25
 49
0.5
 49
-0.25
 49
0.0
 49
-0.25
  0
LTYPE
  2
TRENNLINIE
 70
     0
  3
__ . . __ . . __ . . __ . . __ . . __ . . __
 72
    65
 73
     6
 40
1.25
 49
0.5
 49
-0.25
 49
0.0
 49
-0.25
 49
0.0
 49
-0.25
  0
LTYPE
  2
ENG_PUNKTIERT
 70
     0
  3
Schließen                                   
 72
    65
 73
     2
 40
0.1
 49
0.05
 49
-0.05
  0
LTYPE
  2
CLOSE
 70
     0
  3
                                            
 72
    65
 73
     0
 40
0.0
  0
ENDTAB
  0
TABLE
  2
LAYER
 70
    16
  0
LAYER
  2
0
 70
     0
 62
     7
  6
CONTINUOUS
  0
LAYER
  2
LAYER01
 70
     0
 62
     7
  6
CONTINUOUS
  0
LAYER
  2
LAYER02
 70
     0
 62
     7
  6
CONTINUOUS
  0
LAYER
  2
LAYER03
 70
     0
 62
     7
  6
CONTINUOUS
  0
LAYER
  2
LAYER04
 70
     0
 62
     7
  6
CONTINUOUS
  0
LAYER
  2
LAYER05
 70
     0
 62
     7
  6
CONTINUOUS
  0
LAYER
  2
LAYER06
 70
     0
 62
     7
  6
CONTINUOUS
  0
LAYER
  2
LAYER07
 70
     0
 62
     7
  6
CONTINUOUS
  0
LAYER
  2
LAYER08
 70
     0
 62
     7
  6
CONTINUOUS
  0
LAYER
  2
LAYER09
 70
     0
 62
     7
  6
CONTINUOUS
  0
LAYER
  2
LAYER10
 70
     0
 62
     7
  6
CONTINUOUS
  0
LAYER
  2
KERA0
 70
     0
 62
     7
  6
CONTINUOUS
  0
LAYER
  2
KERA2
 70
     0
 62
     7
  6
CONTINUOUS
  0
LAYER
  2
KERA4
 70
     0
 62
     7
  6
CONTINUOUS
  0
LAYER
  2
KERA7
 70
     0
 62
     7
  6
CONTINUOUS
  0
LAYER
  2
KERA5
 70
     0
 62
     7
  6
CONTINUOUS
  0
ENDTAB
  0
TABLE
  2
STYLE
 70
     3
  0
STYLE
  2
STANDARD
 70
     0
 40
0.0
 41
1.0
 50
0.0
 71
     0
 42
0.0
  3
txt
  4

  0
STYLE
  2
ANNOTATIVE
 70
     0
 40
0.0
 41
1.0
 50
0.0
 71
     0
 42
0.2
  3
txt
  4

  0
STYLE
  2
SIMPLEX
 70
     0
 40
0.0
 41
1.0
 50
0.0
 71
     0
 42
0.0
  3
simplex
  4

  0
ENDTAB
  0
TABLE
  2
VIEW
 70
     0
  0
ENDTAB
  0
TABLE
  2
UCS
 70
     0
  0
ENDTAB
  0
TABLE
  2
APPID
 70
     8
  0
APPID
  2
ACAD
 70
     0
  0
APPID
  2
ACADANNOTATIVE
 70
     0
  0
APPID
  2
ACAD_MLEADERVER
 70
     0
  0
APPID
  2
ACAD_DSTYLE_DIMJAG
 70
     0
  0
APPID
  2
ACAD_DSTYLE_DIMTALN
 70
     0
  0
APPID
  2
ACAD_PSEXT
 70
     0
  0
APPID
  2
ACAD_NAV_VCDISPLAY
 70
     0
  0
APPID
  2
ACAD_EXEMPT_FROM_CAD_STANDARDS
 70
     0
  0
ENDTAB
  0
TABLE
  2
DIMSTYLE
 70
     2
  0
DIMSTYLE
  2
STANDARD
 70
     0
  3

  4

  5

  6

  7

 40
1.0
 41
0.18
 42
0.0625
 43
0.38
 44
0.18
 45
0.0
 46
0.0
 47
0.0
 48
0.0
140
0.18
141
0.09
142
0.0
143
25.399999999999999
144
1.0
145
0.0
146
1.0
147
0.09
 71
     0
 72
     0
 73
     1
 74
     1
 75
     0
 76
     0
 77
     0
 78
     0
170
     0
171
     2
172
     0
173
     0
174
     0
175
     0
176
     0
177
     0
178
     0
  0
DIMSTYLE
  2
ANNOTATIVE
 70
     0
  3

  4

  5

  6

  7

 40
1.0
 41
0.18
 42
0.0625
 43
0.38
 44
0.18
 45
0.0
 46
0.0
 47
0.0
 48
0.0
140
0.18
141
0.09
142
0.0
143
25.399999999999999
144
1.0
145
0.0
146
1.0
147
0.09
 71
     0
 72
     0
 73
     1
 74
     1
 75
     0
 76
     0
 77
     0
 78
     0
170
     0
171
     2
172
     0
173
     0
174
     0
175
     0
176
     0
177
     0
178
     0
  0
ENDTAB
  0
ENDSEC
  0
SECTION
  2
BLOCKS
  0
BLOCK
  8
0
  2
$MODEL_SPACE
 70
     0
 10
0.0
 20
0.0
 30
0.0
  3
$MODEL_SPACE
  1

  0
ENDBLK
  5
76
  8
0
  0
BLOCK
 67
     1
  8
0
  2
$PAPER_SPACE
 70
     0
 10
0.0
 20
0.0
 30
0.0
  3
$PAPER_SPACE
  1

  0
ENDBLK
  5
72
 67
     1
  8
0
  0
BLOCK
  8
0
  2
*D0
 70
     1
 10
0.0
 20
0.0
 30
0.0
  3
*D0
  1

  0
LINE
  5
95
  8
LAYER01
 62
     7
 10
414.80040000000002
 20
2470.4314140000001
 30
0.0
 11
414.80040000000002
 21
2335.2797369999998
 31
0.0
  0
LINE
  5
96
  8
LAYER01
 62
     7
 10
599.15241300000002
 20
2470.4314140000001
 30
0.0
 11
389.80040000000002
 21
2470.4314140000001
 31
0.0
  0
LINE
  5
97
  8
LAYER01
 62
     7
 10
599.15241300000002
 20
2335.2797369999998
 30
0.0
 11
389.80040000000002
 21
2335.2797369999998
 31
0.0
  0
SOLID
  5
98
  8
LAYER01
 62
     7
 10
408.1339999999999
 20
2430.4314140000001
 30
0.0
 11
414.80040000000002
 21
2470.4314140000001
 31
0.0
 12
421.46679999999992
 22
2430.4314140000001
 32
0.0
 13
421.46679999999992
 23
2430.4314140000001
 33
0.0
  0
SOLID
  5
99
  8
LAYER01
 62
     7
 10
408.1339999999999
 20
2375.2797369999998
 30
0.0
 11
414.80040000000002
 21
2335.2797369999998
 31
0.0
 12
421.46679999999992
 22
2375.2797369999998
 32
0.0
 13
421.46679999999992
 23
2375.2797369999998
 33
0.0
  0
TEXT
  5
9A
  8
LAYER01
  6
CONTINUOUS
 62
     7
 10
389.80040000000002
 20
2364.9890110000001
 30
0.0
 40
50.0
  1
135
 50
90.0
  0
POINT
  5
9B
  8
LAYER01
 62
     7
 10
619.15241300000002
 20
2470.4314140000001
 30
0.0
  0
POINT
  5
9C
  8
LAYER01
 62
     7
 10
619.15241300000002
 20
2335.2797369999998
 30
0.0
  0
POINT
  5
9D
  8
LAYER01
 62
     7
 10
414.80040000000002
 20
2335.2797369999998
 30
0.0
  0
ENDBLK
  5
9E
  8
0
  0
BLOCK
  8
0
  2
*D1
 70
     1
 10
0.0
 20
0.0
 30
0.0
  3
*D1
  1

  0
LINE
  5
A1
  8
LAYER01
 62
     7
 10
316.17485199999999
 20
2470.4314140000001
 30
0.0
 11
316.17485199999999
 21
2285.2797370000012
 31
0.0
  0
LINE
  5
A2
  8
LAYER01
 62
     7
 10
599.15241300000002
 20
2470.4314140000001
 30
0.0
 11
291.17485199999999
 21
2470.4314140000001
 31
0.0
  0
LINE
  5
A3
  8
LAYER01
 62
     7
 10
599.15241300000002
 20
2285.2797370000012
 30
0.0
 11
291.17485199999999
 21
2285.2797370000012
 31
0.0
  0
SOLID
  5
A4
  8
LAYER01
 62
     7
 10
309.50845199999998
 20
2430.4314140000001
 30
0.0
 11
316.17485199999999
 21
2470.4314140000001
 31
0.0
 12
322.841252
 22
2430.4314140000001
 32
0.0
 13
322.841252
 23
2430.4314140000001
 33
0.0
  0
SOLID
  5
A5
  8
LAYER01
 62
     7
 10
309.50845199999998
 20
2325.2797369999998
 30
0.0
 11
316.17485199999999
 21
2285.2797370000012
 31
0.0
 12
322.841252
 22
2325.2797369999998
 32
0.0
 13
322.841252
 23
2325.2797369999998
 33
0.0
  0
TEXT
  5
A6
  8
LAYER01
  6
CONTINUOUS
 62
     7
 10
291.17485199999999
 20
2339.9890110000001
 30
0.0
 40
50.0
  1
185
 50
90.0
  0
POINT
  5
A7
  8
LAYER01
 62
     7
 10
619.15241300000002
 20
2470.4314140000001
 30
0.0
  0
POINT
  5
A8
  8
LAYER01
 62
     7
 10
619.15241300000002
 20
2285.2797370000012
 30
0.0
  0
POINT
  5
A9
  8
LAYER01
 62
     7
 10
316.17485199999999
 20
2285.2797370000012
 30
0.0
  0
ENDBLK
  5
AA
  8
0
  0
BLOCK
  8
0
  2
*D2
 70
     1
 10
0.0
 20
0.0
 30
0.0
  3
*D2
  1

  0
LINE
  5
AD
  8
LAYER01
 62
     7
 10
184.12697
 20
2470.4314140000001
 30
0.0
 11
184.12697
 21
1620.4314139999999
 31
0.0
  0
LINE
  5
AE
  8
LAYER01
 62
     7
 10
-23.842486999999998
 20
2470.4314140000001
 30
0.0
 11
209.12697
 21
2470.4314140000001
 31
0.0
  0
LINE
  5
AF
  8
LAYER01
 62
     7
 10
-23.842486999999998
 20
1620.4314139999999
 30
0.0
 11
209.12697
 21
1620.4314139999999
 31
0.0
  0
SOLID
  5
B0
  8
LAYER01
 62
     7
 10
177.46056999999999
 20
2430.4314140000001
 30
0.0
 11
184.12697
 21
2470.4314140000001
 31
0.0
 12
190.79337000000001
 22
2430.4314140000001
 32
0.0
 13
190.79337000000001
 23
2430.4314140000001
 33
0.0
  0
SOLID
  5
B1
  8
LAYER01
 62
     7
 10
177.46056999999999
 20
1660.4314139999999
 30
0.0
 11
184.12697
 21
1620.4314139999999
 31
0.0
 12
190.79337000000001
 22
1660.4314139999999
 32
0.0
 13
190.79337000000001
 23
1660.4314139999999
 33
0.0
  0
TEXT
  5
B2
  8
LAYER01
  6
CONTINUOUS
 62
     7
 10
159.12697
 20
2005.5679029999999
 30
0.0
 40
50.0
  1
850
 50
90.0
  0
POINT
  5
B3
  8
LAYER01
 62
     7
 10
-43.842486999999991
 20
2470.4314140000001
 30
0.0
  0
POINT
  5
B4
  8
LAYER01
 62
     7
 10
-43.842486999999991
 20
1620.4314139999999
 30
0.0
  0
POINT
  5
B5
  8
LAYER01
 62
     7
 10
184.12697
 20
1620.4314139999999
 30
0.0
  0
ENDBLK
  5
B6
  8
0
  0
BLOCK
  8
0
  2
*D3
 70
     1
 10
0.0
 20
0.0
 30
0.0
  3
*D3
  1

  0
LINE
  5
B9
  8
LAYER01
 62
     7
 10
-207.033737
 20
1620.4314139999999
 30
0.0
 11
-207.033737
 21
2175.4314140000001
 31
0.0
  0
LINE
  5
BA
  8
LAYER01
 62
     7
 10
-274.23516799999999
 20
1620.4314139999999
 30
0.0
 11
-182.033737
 21
1620.4314139999999
 31
0.0
  0
LINE
  5
BB
  8
LAYER01
 62
     7
 10
-274.23516799999999
 20
2175.4314140000001
 30
0.0
 11
-182.033737
 21
2175.4314140000001
 31
0.0
  0
SOLID
  5
BC
  8
LAYER01
 62
     7
 10
-200.36733699999999
 20
1660.4314139999999
 30
0.0
 11
-207.033737
 21
1620.4314139999999
 31
0.0
 12
-213.70013700000001
 22
1660.4314139999999
 32
0.0
 13
-213.70013700000001
 23
1660.4314139999999
 33
0.0
  0
SOLID
  5
BD
  8
LAYER01
 62
     7
 10
-200.36733699999999
 20
2135.431414000001
 30
0.0
 11
-207.033737
 21
2175.4314140000001
 31
0.0
 12
-213.70013700000001
 22
2135.431414000001
 32
0.0
 13
-213.70013700000001
 23
2135.431414000001
 33
0.0
  0
TEXT
  5
BE
  8
LAYER01
  6
CONTINUOUS
 62
     7
 10
-232.033737
 20
1858.0679029999999
 30
0.0
 40
50.0
  1
555
 50
90.0
  0
POINT
  5
BF
  8
LAYER01
 62
     7
 10
-294.2351680000001
 20
1620.4314139999999
 30
0.0
  0
POINT
  5
C0
  8
LAYER01
 62
     7
 10
-294.2351680000001
 20
2175.4314140000001
 30
0.0
  0
POINT
  5
C1
  8
LAYER01
 62
     7
 10
-207.033737
 20
2175.4314140000001
 30
0.0
  0
ENDBLK
  5
C2
  8
0
  0
BLOCK
  8
0
  2
*D4
 70
     1
 10
0.0
 20
0.0
 30
0.0
  3
*D4
  1

  0
LINE
  5
C5
  8
LAYER01
 62
     7
 10
-62.528508000000002
 20
1620.4314139999999
 30
0.0
 11
-62.528508000000002
 21
2285.4314140000001
 31
0.0
  0
LINE
  5
C6
  8
LAYER01
 62
     7
 10
-145.038882
 20
1620.4314139999999
 30
0.0
 11
-37.528508000000002
 21
1620.4314139999999
 31
0.0
  0
LINE
  5
C7
  8
LAYER01
 62
     7
 10
-145.038882
 20
2285.4314140000001
 30
0.0
 11
-37.528508000000002
 21
2285.4314140000001
 31
0.0
  0
SOLID
  5
C8
  8
LAYER01
 62
     7
 10
-55.862107999999992
 20
1660.4314139999999
 30
0.0
 11
-62.528508000000002
 21
1620.4314139999999
 31
0.0
 12
-69.194907999999998
 22
1660.4314139999999
 32
0.0
 13
-69.194907999999998
 23
1660.4314139999999
 33
0.0
  0
SOLID
  5
C9
  8
LAYER01
 62
     7
 10
-55.862107999999992
 20
2245.4314140000001
 30
0.0
 11
-62.528508000000002
 21
2285.4314140000001
 31
0.0
 12
-69.194907999999998
 22
2245.4314140000001
 32
0.0
 13
-69.194907999999998
 23
2245.4314140000001
 33
0.0
  0
TEXT
  5
CA
  8
LAYER01
  6
CONTINUOUS
 62
     7
 10
-87.528508000000002
 20
1913.6907699999999
 30
0.0
 40
50.0
  1
665
 50
90.0
  0
POINT
  5
CB
  8
LAYER01
 62
     7
 10
-165.038882
 20
1620.4314139999999
 30
0.0
  0
POINT
  5
CC
  8
LAYER01
 62
     7
 10
-165.038882
 20
2285.4314140000001
 30
0.0
  0
POINT
  5
CD
  8
LAYER01
 62
     7
 10
-62.528508000000002
 20
2285.4314140000001
 30
0.0
  0
ENDBLK
  5
CE
  8
0
  0
BLOCK
  8
0
  2
*D5
 70
     1
 10
0.0
 20
0.0
 30
0.0
  3
*D5
  1

  0
LINE
  5
D1
  8
LAYER01
 62
     7
 10
-295.038882
 20
523.66208600000004
 30
0.0
 11
-835.03888199999994
 21
523.66208600000004
 31
0.0
  0
LINE
  5
D2
  8
LAYER01
 62
     7
 10
-295.038882
 20
643.53875900000003
 30
0.0
 11
-295.038882
 21
498.66208599999999
 31
0.0
  0
LINE
  5
D3
  8
LAYER01
 62
     7
 10
-835.03888199999994
 20
643.53875900000003
 30
0.0
 11
-835.03888199999994
 21
498.66208599999999
 31
0.0
  0
SOLID
  5
D4
  8
LAYER01
 62
     7
 10
-335.038882
 20
530.32848599999988
 30
0.0
 11
-295.038882
 21
523.66208600000004
 31
0.0
 12
-335.038882
 22
516.99568599999998
 32
0.0
 13
-335.038882
 23
516.99568599999998
 33
0.0
  0
SOLID
  5
D5
  8
LAYER01
 62
     7
 10
-795.03888199999994
 20
530.32848599999988
 30
0.0
 11
-835.03888199999994
 21
523.66208600000004
 31
0.0
 12
-795.03888199999994
 22
516.99568599999998
 32
0.0
 13
-795.03888199999994
 23
516.99568599999998
 33
0.0
  0
TEXT
  5
D6
  8
LAYER01
  6
CONTINUOUS
 62
     7
 10
-606.56476899999996
 20
548.66208600000004
 30
0.0
 40
50.0
  1
540
  0
POINT
  5
D7
  8
LAYER01
 62
     7
 10
-295.038882
 20
663.53875900000003
 30
0.0
  0
POINT
  5
D8
  8
LAYER01
 62
     7
 10
-835.03888199999994
 20
663.53875900000003
 30
0.0
  0
POINT
  5
D9
  8
LAYER01
 62
     7
 10
-835.03888199999994
 20
523.66208600000004
 30
0.0
  0
ENDBLK
  5
DA
  8
0
  0
BLOCK
  8
0
  2
AKZ_WEB-G8
 70
     0
 10
0.0
 20
0.0
 30
0.0
  3
AKZ_WEB-G8
  1

  0
TEXT
  5
DD
  8
KERA4
  6
CONTINUOUS
 62
     1
 10
-922.36314799999991
 20
1700.379195
 30
0.0
 40
50.0
  1
±OKFFB
  0
ENDBLK
  5
DE
  8
0
  0
BLOCK
  8
0
  2
AKZ_WEB-G7
 70
     0
 10
0.0
 20
0.0
 30
0.0
  3
AKZ_WEB-G7
  1

  0
LINE
  5
E1
  8
KERA4
  6
CONTINUOUS
 62
     1
 10
-978.69607599999995
 20
1620.7014140000001
 30
0.0
 11
-978.69607599999995
 21
1620.7014140000001
 31
0.0
  0
LINE
  5
E2
  8
KERA4
  6
CONTINUOUS
 62
     1
 10
-978.69607599999995
 20
1648.7014140000001
 30
0.0
 11
-966.84140599999989
 21
1660.561414
 31
0.0
  0
LINE
  5
E3
  8
KERA4
  6
CONTINUOUS
 62
     1
 10
-978.69607599999995
 20
1648.9914140000001
 30
0.0
 11
-967.12420599999996
 21
1660.561414
 31
0.0
  0
LINE
  5
E4
  8
KERA4
  6
CONTINUOUS
 62
     1
 10
-978.69607599999995
 20
1649.271414
 30
0.0
 11
-967.40710600000011
 21
1660.561414
 31
0.0
  0
LINE
  5
E5
  8
KERA4
  6
CONTINUOUS
 62
     1
 10
-978.69607599999995
 20
1649.551414
 30
0.0
 11
-967.68990599999995
 21
1660.561414
 31
0.0
  0
LINE
  5
E6
  8
KERA4
  6
CONTINUOUS
 62
     1
 10
-978.69607599999995
 20
1649.841414
 30
0.0
 11
-967.97280599999999
 21
1660.561414
 31
0.0
  0
LINE
  5
E7
  8
KERA4
  6
CONTINUOUS
 62
     1
 10
-978.69607599999995
 20
1641.071414
 30
0.0
 11
-959.2046059999999
 21
1660.561414
 31
0.0
  0
LINE
  5
E8
  8
KERA4
  6
CONTINUOUS
 62
     1
 10
-978.69607599999995
 20
1641.351414
 30
0.0
 11
-959.48750600000005
 21
1660.561414
 31
0.0
  0
LINE
  5
E9
  8
KERA4
  6
CONTINUOUS
 62
     1
 10
-978.69607599999995
 20
1641.6314139999999
 30
0.0
 11
-959.77030600000001
 21
1660.561414
 31
0.0
  0
LINE
  5
EA
  8
KERA4
  6
CONTINUOUS
 62
     1
 10
-978.69607599999995
 20
1642.7614140000001
 30
0.0
 11
-960.9017060000001
 21
1660.561414
 31
0.0
  0
LINE
  5
EB
  8
KERA4
  6
CONTINUOUS
 62
     1
 10
-978.69607599999995
 20
1643.051414
 30
0.0
 11
-961.18450600000006
 21
1660.561414
 31
0.0
  0
LINE
  5
EC
  8
KERA4
  6
CONTINUOUS
 62
     1
 10
-978.69607599999995
 20
1643.331414
 30
0.0
 11
-961.46740599999998
 21
1660.561414
 31
0.0
  0
LINE
  5
ED
  8
KERA4
  6
CONTINUOUS
 62
     1
 10
-978.69607599999995
 20
1643.611414
 30
0.0
 11
-961.75020600000005
 21
1660.561414
 31
0.0
  0
LINE
  5
EE
  8
KERA4
  6
CONTINUOUS
 62
     1
 10
-978.69607599999995
 20
1643.9014139999999
 30
0.0
 11
-962.03310600000009
 21
1660.561414
 31
0.0
  0
LINE
  5
EF
  8
KERA4
  6
CONTINUOUS
 62
     1
 10
-978.69607599999995
 20
1644.1814139999999
 30
0.0
 11
-962.31590600000004
 21
1660.561414
 31
0.0
  0
LINE
  5
F0
  8
KERA4
  6
CONTINUOUS
 62
     1
 10
-978.69607599999995
 20
1644.4614140000001
 30
0.0
 11
-962.59880599999997
 21
1660.561414
 31
0.0
  0
LINE
  5
F1
  8
KERA4
  6
CONTINUOUS
 62
     1
 10
-978.69607599999995
 20
1644.7414140000001
 30
0.0
 11
-962.88160600000003
 21
1660.561414
 31
0.0
  0
LINE
  5
F2
  8
KERA4
  6
CONTINUOUS
 62
     1
 10
-978.69607599999995
 20
1645.031414
 30
0.0
 11
-963.1644060000001
 21
1660.561414
 31
0.0
  0
LINE
  5
F3
  8
KERA4
  6
CONTINUOUS
 62
     1
 10
-978.69607599999995
 20
1645.311414
 30
0.0
 11
-963.44730600000014
 21
1660.561414
 31
0.0
  0
LINE
  5
F4
  8
KERA4
  6
CONTINUOUS
 62
     1
 10
-978.69607599999995
 20
1645.591414
 30
0.0
 11
-963.73010599999998
 21
1660.561414
 31
0.0
  0
LINE
  5
F5
  8
KERA4
  6
CONTINUOUS
 62
     1
 10
-978.69607599999995
 20
1645.8814139999999
 30
0.0
 11
-964.01300600000002
 21
1660.561414
 31
0.0
  0
LINE
  5
F6
  8
KERA4
  6
CONTINUOUS
 62
     1
 10
-978.69607599999995
 20
1646.1614139999999
 30
0.0
 11
-964.29580600000008
 21
1660.561414
 31
0.0
  0
LINE
  5
F7
  8
KERA4
  6
CONTINUOUS
 62
     1
 10
-978.69607599999995
 20
1646.4414139999999
 30
0.0
 11
-964.5787059999999
 21
1660.561414
 31
0.0
  0
LINE
  5
F8
  8
KERA4
  6
CONTINUOUS
 62
     1
 10
-978.69607599999995
 20
1641.9214139999999
 30
0.0
 11
-960.05320600000005
 21
1660.561414
 31
0.0
  0
LINE
  5
F9
  8
KERA4
  6
CONTINUOUS
 62
     1
 10
-978.69607599999995
 20
1642.2014140000001
 30
0.0
 11
-960.33600599999988
 21
1660.561414
 31
0.0
  0
LINE
  5
FA
  8
KERA4
  6
CONTINUOUS
 62
     1
 10
-978.69607599999995
 20
1642.4814140000001
 30
0.0
 11
-960.61890600000004
 21
1660.561414
 31
0.0
  0
LINE
  5
FB
  8
KERA4
  6
CONTINUOUS
 62
     1
 10
-978.69607599999995
 20
1646.7214140000001
 30
0.0
 11
-964.86150599999996
 21
1660.561414
 31
0.0
  0
LINE
  5
FC
  8
KERA4
  6
CONTINUOUS
 62
     1
 10
-978.69607599999995
 20
1647.0114140000001
 30
0.0
 11
-965.14430600000003
 21
1660.561414
 31
0.0
  0
LINE
  5
FD
  8
KERA4
  6
CONTINUOUS
 62
     1
 10
-978.69607599999995
 20
1647.291414
 30
0.0
 11
-965.42720599999996
 21
1660.561414
 31
0.0
  0
LINE
  5
FE
  8
KERA4
  6
CONTINUOUS
 62
     1
 10
-978.69607599999995
 20
1647.571414
 30
0.0
 11
-965.71000600000013
 21
1660.561414
 31
0.0
  0
LINE
  5
FF
  8
KERA4
  6
CONTINUOUS
 62
     1
 10
-978.69607599999995
 20
1647.861414
 30
0.0
 11
-965.99290600000006
 21
1660.561414
 31
0.0
  0
LINE
  5
100
  8
KERA4
  6
CONTINUOUS
 62
     1
 10
-978.69607599999995
 20
1648.1414139999999
 30
0.0
 11
-966.27570600000001
 21
1660.561414
 31
0.0
  0
LINE
  5
101
  8
KERA4
  6
CONTINUOUS
 62
     1
 10
-978.69607599999995
 20
1648.4214139999999
 30
0.0
 11
-966.55860600000005
 21
1660.561414
 31
0.0
  0
LINE
  5
102
  8
KERA4
  6
CONTINUOUS
 62
     1
 10
-978.69607599999995
 20
1650.121414
 30
0.0
 11
-968.25560600000006
 21
1660.561414
 31
0.0
  0
LINE
  5
103
  8
KERA4
  6
CONTINUOUS
 62
     1
 10
-978.69607599999995
 20
1650.4014139999999
 30
0.0
 11
-968.5385060000001
 21
1660.561414
 31
0.0
  0
LINE
  5
104
  8
KERA4
  6
CONTINUOUS
 62
     1
 10
-978.69607599999995
 20
1650.6814139999999
 30
0.0
 11
-968.82130600000005
 21
1660.561414
 31
0.0
  0
LINE
  5
105
  8
KERA4
  6
CONTINUOUS
 62
     1
 10
-978.69607599999995
 20
1650.9714140000001
 30
0.0
 11
-969.10410599999989
 21
1660.561414
 31
0.0
  0
LINE
  5
106
  8
KERA4
  6
CONTINUOUS
 62
     1
 10
-978.69607599999995
 20
1651.2514140000001
 30
0.0
 11
-969.38700600000004
 21
1660.561414
 31
0.0
  0
LINE
  5
107
  8
KERA4
  6
CONTINUOUS
 62
     1
 10
-978.69607599999995
 20
1651.531414
 30
0.0
 11
-969.66980600000011
 21
1660.561414
 31
0.0
  0
LINE
  5
108
  8
KERA4
  6
CONTINUOUS
 62
     1
 10
-978.69607599999995
 20
1651.821414
 30
0.0
 11
-969.95270600000015
 21
1660.561414
 31
0.0
  0
LINE
  5
109
  8
KERA4
  6
CONTINUOUS
 62
     1
 10
-978.69607599999995
 20
1652.101414
 30
0.0
 11
-970.23550599999999
 21
1660.561414
 31
0.0
  0
LINE
  5
10A
  8
KERA4
  6
CONTINUOUS
 62
     1
 10
-978.69607599999995
 20
1652.3814139999999
 30
0.0
 11
-970.51840600000003
 21
1660.561414
 31
0.0
  0
LINE
  5
10B
  8
KERA4
  6
CONTINUOUS
 62
     1
 10
-978.69607599999995
 20
1652.6614139999999
 30
0.0
 11
-970.80120600000009
 21
1660.561414
 31
0.0
  0
LINE
  5
10C
  8
KERA4
  6
CONTINUOUS
 62
     1
 10
-978.69607599999995
 20
1652.9514140000001
 30
0.0
 11
-971.08400600000004
 21
1660.561414
 31
0.0
  0
LINE
  5
10D
  8
KERA4
  6
CONTINUOUS
 62
     1
 10
-978.69607599999995
 20
1653.2314140000001
 30
0.0
 11
-971.36690599999997
 21
1660.561414
 31
0.0
  0
LINE
  5
10E
  8
KERA4
  6
CONTINUOUS
 62
     1
 10
-978.69607599999995
 20
1653.5114140000001
 30
0.0
 11
-971.64970600000004
 21
1660.561414
 31
0.0
  0
LINE
  5
10F
  8
KERA4
  6
CONTINUOUS
 62
     1
 10
-978.69607599999995
 20
1653.801414
 30
0.0
 11
-971.93260599999996
 21
1660.561414
 31
0.0
  0
LINE
  5
110
  8
KERA4
  6
CONTINUOUS
 62
     1
 10
-978.69607599999995
 20
1654.081414
 30
0.0
 11
-972.21540600000014
 21
1660.561414
 31
0.0
  0
LINE
  5
111
  8
KERA4
  6
CONTINUOUS
 62
     1
 10
-978.69607599999995
 20
1654.361414
 30
0.0
 11
-972.49830600000007
 21
1660.561414
 31
0.0
  0
LINE
  5
112
  8
KERA4
  6
CONTINUOUS
 62
     1
 10
-978.69607599999995
 20
1654.6414139999999
 30
0.0
 11
-972.78110600000002
 21
1660.561414
 31
0.0
  0
LINE
  5
113
  8
KERA4
  6
CONTINUOUS
 62
     1
 10
-978.69607599999995
 20
1654.9314139999999
 30
0.0
 11
-973.06390600000009
 21
1660.561414
 31
0.0
  0
LINE
  5
114
  8
KERA4
  6
CONTINUOUS
 62
     1
 10
-978.69607599999995
 20
1655.2114140000001
 30
0.0
 11
-973.3468059999999
 21
1660.561414
 31
0.0
  0
LINE
  5
115
  8
KERA4
  6
CONTINUOUS
 62
     1
 10
-978.69607599999995
 20
1655.4914140000001
 30
0.0
 11
-973.62960599999997
 21
1660.561414
 31
0.0
  0
LINE
  5
116
  8
KERA4
  6
CONTINUOUS
 62
     1
 10
-978.69607599999995
 20
1655.781414
 30
0.0
 11
-973.91250600000001
 21
1660.561414
 31
0.0
  0
LINE
  5
117
  8
KERA4
  6
CONTINUOUS
 62
     1
 10
-978.69607599999995
 20
1656.061414
 30
0.0
 11
-974.19530599999996
 21
1660.561414
 31
0.0
  0
LINE
  5
118
  8
KERA4
  6
CONTINUOUS
 62
     1
 10
-978.69607599999995
 20
1656.341414
 30
0.0
 11
-974.478206
 21
1660.561414
 31
0.0
  0
LINE
  5
119
  8
KERA4
  6
CONTINUOUS
 62
     1
 10
-978.69607599999995
 20
1656.621414
 30
0.0
 11
-974.76100600000007
 21
1660.561414
 31
0.0
  0
LINE
  5
11A
  8
KERA4
  6
CONTINUOUS
 62
     1
 10
-978.69607599999995
 20
1656.9114139999999
 30
0.0
 11
-975.04384600000014
 21
1660.561414
 31
0.0
  0
LINE
  5
11B
  8
KERA4
  6
CONTINUOUS
 62
     1
 10
-978.69607599999995
 20
1657.1914139999999
 30
0.0
 11
-975.326686
 21
1660.561414
 31
0.0
  0
LINE
  5
11C
  8
KERA4
  6
CONTINUOUS
 62
     1
 10
-978.69607599999995
 20
1657.4714140000001
 30
0.0
 11
-975.60953599999993
 21
1660.561414
 31
0.0
  0
LINE
  5
11D
  8
KERA4
  6
CONTINUOUS
 62
     1
 10
-978.69607599999995
 20
1657.7614140000001
 30
0.0
 11
-975.89237600000001
 21
1660.561414
 31
0.0
  0
LINE
  5
11E
  8
KERA4
  6
CONTINUOUS
 62
     1
 10
-978.69607599999995
 20
1637.6714139999999
 30
0.0
 11
-955.81050600000003
 21
1660.561414
 31
0.0
  0
LINE
  5
11F
  8
KERA4
  6
CONTINUOUS
 62
     1
 10
-978.69607599999995
 20
1637.9614140000001
 30
0.0
 11
-956.09340600000007
 21
1660.561414
 31
0.0
  0
LINE
  5
120
  8
KERA4
  6
CONTINUOUS
 62
     1
 10
-978.69607599999995
 20
1638.2414140000001
 30
0.0
 11
-956.37620600000002
 21
1660.561414
 31
0.0
  0
LINE
  5
121
  8
KERA4
  6
CONTINUOUS
 62
     1
 10
-978.69607599999995
 20
1638.521414
 30
0.0
 11
-956.65910599999995
 21
1660.561414
 31
0.0
  0
LINE
  5
122
  8
KERA4
  6
CONTINUOUS
 62
     1
 10
-978.69607599999995
 20
1638.811414
 30
0.0
 11
-956.9419059999999
 21
1660.561414
 31
0.0
  0
LINE
  5
123
  8
KERA4
  6
CONTINUOUS
 62
     1
 10
-978.69607599999995
 20
1639.091414
 30
0.0
 11
-957.22480600000006
 21
1660.561414
 31
0.0
  0
LINE
  5
124
  8
KERA4
  6
CONTINUOUS
 62
     1
 10
-978.69607599999995
 20
1639.371414
 30
0.0
 11
-957.50760600000001
 21
1660.561414
 31
0.0
  0
LINE
  5
125
  8
KERA4
  6
CONTINUOUS
 62
     1
 10
-978.69607599999995
 20
1639.6514139999999
 30
0.0
 11
-957.79040600000008
 21
1660.561414
 31
0.0
  0
LINE
  5
126
  8
KERA4
  6
CONTINUOUS
 62
     1
 10
-978.69607599999995
 20
1639.9414139999999
 30
0.0
 11
-958.073306
 21
1660.561414
 31
0.0
  0
LINE
  5
127
  8
KERA4
  6
CONTINUOUS
 62
     1
 10
-978.69607599999995
 20
1640.2214140000001
 30
0.0
 11
-958.35610599999995
 21
1660.561414
 31
0.0
  0
LINE
  5
128
  8
KERA4
  6
CONTINUOUS
 62
     1
 10
-978.69607599999995
 20
1640.5014140000001
 30
0.0
 11
-958.63900600000011
 21
1660.561414
 31
0.0
  0
LINE
  5
129
  8
KERA4
  6
CONTINUOUS
 62
     1
 10
-978.69607599999995
 20
1640.791414
 30
0.0
 11
-958.92180599999995
 21
1660.561414
 31
0.0
  0
LINE
  5
12A
  8
KERA4
  6
CONTINUOUS
 62
     1
 10
-978.69607599999995
 20
1632.581414
 30
0.0
 11
-950.71940600000005
 21
1660.561414
 31
0.0
  0
LINE
  5
12B
  8
KERA4
  6
CONTINUOUS
 62
     1
 10
-978.69607599999995
 20
1632.871414
 30
0.0
 11
-951.002206
 21
1660.561414
 31
0.0
  0
LINE
  5
12C
  8
KERA4
  6
CONTINUOUS
 62
     1
 10
-978.69607599999995
 20
1633.1514139999999
 30
0.0
 11
-951.28510600000004
 21
1660.561414
 31
0.0
  0
LINE
  5
12D
  8
KERA4
  6
CONTINUOUS
 62
     1
 10
-978.69607599999995
 20
1633.4314139999999
 30
0.0
 11
-951.56790600000011
 21
1660.561414
 31
0.0
  0
LINE
  5
12E
  8
KERA4
  6
CONTINUOUS
 62
     1
 10
-978.69607599999995
 20
1633.7114140000001
 30
0.0
 11
-951.85070600000006
 21
1660.561414
 31
0.0
  0
LINE
  5
12F
  8
KERA4
  6
CONTINUOUS
 62
     1
 10
-978.69607599999995
 20
1634.0014140000001
 30
0.0
 11
-952.1336060000001
 21
1660.561414
 31
0.0
  0
LINE
  5
130
  8
KERA4
  6
CONTINUOUS
 62
     1
 10
-978.69607599999995
 20
1634.281414
 30
0.0
 11
-952.41640600000005
 21
1660.561414
 31
0.0
  0
LINE
  5
131
  8
KERA4
  6
CONTINUOUS
 62
     1
 10
-978.69607599999995
 20
1634.561414
 30
0.0
 11
-952.69930599999998
 21
1660.561414
 31
0.0
  0
LINE
  5
132
  8
KERA4
  6
CONTINUOUS
 62
     1
 10
-978.69607599999995
 20
1634.851414
 30
0.0
 11
-952.98210600000004
 21
1660.561414
 31
0.0
  0
LINE
  5
133
  8
KERA4
  6
CONTINUOUS
 62
     1
 10
-978.69607599999995
 20
1635.1314139999999
 30
0.0
 11
-953.26500600000008
 21
1660.561414
 31
0.0
  0
LINE
  5
134
  8
KERA4
  6
CONTINUOUS
 62
     1
 10
-978.69607599999995
 20
1635.4114139999999
 30
0.0
 11
-953.54780600000004
 21
1660.561414
 31
0.0
  0
LINE
  5
135
  8
KERA4
  6
CONTINUOUS
 62
     1
 10
-978.69607599999995
 20
1635.6914139999999
 30
0.0
 11
-953.8306060000001
 21
1660.561414
 31
0.0
  0
LINE
  5
136
  8
KERA4
  6
CONTINUOUS
 62
     1
 10
-978.69607599999995
 20
1635.9814140000001
 30
0.0
 11
-954.11350600000003
 21
1660.561414
 31
0.0
  0
LINE
  5
137
  8
KERA4
  6
CONTINUOUS
 62
     1
 10
-978.69607599999995
 20
1636.2614140000001
 30
0.0
 11
-954.3963060000001
 21
1660.561414
 31
0.0
  0
LINE
  5
138
  8
KERA4
  6
CONTINUOUS
 62
     1
 10
-978.69607599999995
 20
1636.541414
 30
0.0
 11
-954.67920599999991
 21
1660.561414
 31
0.0
  0
LINE
  5
139
  8
KERA4
  6
CONTINUOUS
 62
     1
 10
-978.69607599999995
 20
1636.831414
 30
0.0
 11
-954.96200599999997
 21
1660.561414
 31
0.0
  0
LINE
  5
13A
  8
KERA4
  6
CONTINUOUS
 62
     1
 10
-978.69607599999995
 20
1637.111414
 30
0.0
 11
-955.24490600000001
 21
1660.561414
 31
0.0
  0
LINE
  5
13B
  8
KERA4
  6
CONTINUOUS
 62
     1
 10
-978.69607599999995
 20
1637.3914139999999
 30
0.0
 11
-955.52770600000008
 21
1660.561414
 31
0.0
  0
LINE
  5
13C
  8
KERA4
  6
CONTINUOUS
 62
     1
 10
-978.69607599999995
 20
1632.301414
 30
0.0
 11
-950.43650599999989
 21
1660.561414
 31
0.0
  0
LINE
  5
13D
  8
KERA4
  6
CONTINUOUS
 62
     1
 10
-978.69607599999995
 20
1632.021414
 30
0.0
 11
-950.15370600000006
 21
1660.561414
 31
0.0
  0
LINE
  5
13E
  8
KERA4
  6
CONTINUOUS
 62
     1
 10
-978.69607599999995
 20
1631.7314140000001
 30
0.0
 11
-949.87080600000002
 21
1660.561414
 31
0.0
  0
LINE
  5
13F
  8
KERA4
  6
CONTINUOUS
 62
     1
 10
-978.69607599999995
 20
1631.4514140000001
 30
0.0
 11
-949.58800600000006
 21
1660.561414
 31
0.0
  0
LINE
  5
140
  8
KERA4
  6
CONTINUOUS
 62
     1
 10
-978.69607599999995
 20
1631.1714139999999
 30
0.0
 11
-949.305206
 21
1660.561414
 31
0.0
  0
LINE
  5
141
  8
KERA4
  6
CONTINUOUS
 62
     1
 10
-978.69607599999995
 20
1630.8914139999999
 30
0.0
 11
-949.02230600000007
 21
1660.561414
 31
0.0
  0
LINE
  5
142
  8
KERA4
  6
CONTINUOUS
 62
     1
 10
-978.69607599999995
 20
1630.601414
 30
0.0
 11
-948.73950600000001
 21
1660.561414
 31
0.0
  0
LINE
  5
143
  8
KERA4
  6
CONTINUOUS
 62
     1
 10
-978.69607599999995
 20
1630.321414
 30
0.0
 11
-948.45660599999997
 21
1660.561414
 31
0.0
  0
LINE
  5
144
  8
KERA4
  6
CONTINUOUS
 62
     1
 10
-978.69607599999995
 20
1620.4314139999999
 30
0.0
 11
-978.69607599999995
 21
1660.561414
 31
0.0
  0
LINE
  5
145
  8
KERA4
  6
CONTINUOUS
 62
     1
 10
-978.69607599999995
 20
1620.7014140000001
 30
0.0
 11
-938.84000600000002
 21
1660.561414
 31
0.0
  0
LINE
  5
146
  8
KERA4
  6
CONTINUOUS
 62
     1
 10
-978.69607599999995
 20
1620.9914140000001
 30
0.0
 11
-939.12280600000008
 21
1660.561414
 31
0.0
  0
LINE
  5
147
  8
KERA4
  6
CONTINUOUS
 62
     1
 10
-978.69607599999995
 20
1621.271414
 30
0.0
 11
-939.4057059999999
 21
1660.561414
 31
0.0
  0
LINE
  5
148
  8
KERA4
  6
CONTINUOUS
 62
     1
 10
-978.69607599999995
 20
1621.551414
 30
0.0
 11
-939.68850599999996
 21
1660.561414
 31
0.0
  0
LINE
  5
149
  8
KERA4
  6
CONTINUOUS
 62
     1
 10
-978.69607599999995
 20
1621.831414
 30
0.0
 11
-939.97130599999991
 21
1660.561414
 31
0.0
  0
LINE
  5
14A
  8
KERA4
  6
CONTINUOUS
 62
     1
 10
-978.69607599999995
 20
1622.121414
 30
0.0
 11
-940.25420599999995
 21
1660.561414
 31
0.0
  0
LINE
  5
14B
  8
KERA4
  6
CONTINUOUS
 62
     1
 10
-978.69607599999995
 20
1622.4014139999999
 30
0.0
 11
-940.53700600000002
 21
1660.561414
 31
0.0
  0
LINE
  5
14C
  8
KERA4
  6
CONTINUOUS
 62
     1
 10
-978.69607599999995
 20
1622.6814139999999
 30
0.0
 11
-940.81990600000006
 21
1660.561414
 31
0.0
  0
LINE
  5
14D
  8
KERA4
  6
CONTINUOUS
 62
     1
 10
-978.69607599999995
 20
1622.9714140000001
 30
0.0
 11
-941.10270600000001
 21
1660.561414
 31
0.0
  0
LINE
  5
14E
  8
KERA4
  6
CONTINUOUS
 62
     1
 10
-978.69607599999995
 20
1623.2514140000001
 30
0.0
 11
-941.38560600000005
 21
1660.561414
 31
0.0
  0
LINE
  5
14F
  8
KERA4
  6
CONTINUOUS
 62
     1
 10
-978.69607599999995
 20
1623.531414
 30
0.0
 11
-941.66840599999989
 21
1660.561414
 31
0.0
  0
LINE
  5
150
  8
KERA4
  6
CONTINUOUS
 62
     1
 10
-978.69607599999995
 20
1623.811414
 30
0.0
 11
-941.95120599999996
 21
1660.561414
 31
0.0
  0
LINE
  5
151
  8
KERA4
  6
CONTINUOUS
 62
     1
 10
-978.69607599999995
 20
1624.101414
 30
0.0
 11
-942.234106
 21
1660.561414
 31
0.0
  0
LINE
  5
152
  8
KERA4
  6
CONTINUOUS
 62
     1
 10
-978.69607599999995
 20
1624.3814139999999
 30
0.0
 11
-942.51690599999995
 21
1660.561414
 31
0.0
  0
LINE
  5
153
  8
KERA4
  6
CONTINUOUS
 62
     1
 10
-978.69607599999995
 20
1624.6614139999999
 30
0.0
 11
-942.7998060000001
 21
1660.561414
 31
0.0
  0
LINE
  5
154
  8
KERA4
  6
CONTINUOUS
 62
     1
 10
-978.69607599999995
 20
1624.9514140000001
 30
0.0
 11
-943.08260600000006
 21
1660.561414
 31
0.0
  0
LINE
  5
155
  8
KERA4
  6
CONTINUOUS
 62
     1
 10
-978.69607599999995
 20
1625.2314140000001
 30
0.0
 11
-943.3655060000001
 21
1660.561414
 31
0.0
  0
LINE
  5
156
  8
KERA4
  6
CONTINUOUS
 62
     1
 10
-978.69607599999995
 20
1625.5114140000001
 30
0.0
 11
-943.64830600000005
 21
1660.561414
 31
0.0
  0
LINE
  5
157
  8
KERA4
  6
CONTINUOUS
 62
     1
 10
-978.69607599999995
 20
1625.791414
 30
0.0
 11
-943.93110599999989
 21
1660.561414
 31
0.0
  0
LINE
  5
158
  8
KERA4
  6
CONTINUOUS
 62
     1
 10
-978.69607599999995
 20
1626.081414
 30
0.0
 11
-944.21400599999993
 21
1660.561414
 31
0.0
  0
LINE
  5
159
  8
KERA4
  6
CONTINUOUS
 62
     1
 10
-978.69607599999995
 20
1626.361414
 30
0.0
 11
-944.49680599999999
 21
1660.561414
 31
0.0
  0
LINE
  5
15A
  8
KERA4
  6
CONTINUOUS
 62
     1
 10
-978.69607599999995
 20
1626.6414139999999
 30
0.0
 11
-944.77970600000003
 21
1660.561414
 31
0.0
  0
LINE
  5
15B
  8
KERA4
  6
CONTINUOUS
 62
     1
 10
-978.69607599999995
 20
1620.4314139999999
 30
0.0
 11
-978.69607599999995
 21
1660.561414
 31
0.0
  0
LINE
  5
15C
  8
KERA4
  6
CONTINUOUS
 62
     1
 10
-938.56380599999989
 20
1660.561414
 30
0.0
 11
-978.69607599999995
 21
1620.4314139999999
 31
0.0
  0
LINE
  5
15D
  8
KERA4
  6
CONTINUOUS
 62
     1
 10
-978.69607599999995
 20
1630.041414
 30
0.0
 11
-948.1738059999999
 21
1660.561414
 31
0.0
  0
LINE
  5
15E
  8
KERA4
  6
CONTINUOUS
 62
     1
 10
-978.69607599999995
 20
1629.7514140000001
 30
0.0
 11
-947.89090600000009
 21
1660.561414
 31
0.0
  0
LINE
  5
15F
  8
KERA4
  6
CONTINUOUS
 62
     1
 10
-978.69607599999995
 20
1629.4714140000001
 30
0.0
 11
-947.60810600000002
 21
1660.561414
 31
0.0
  0
LINE
  5
160
  8
KERA4
  6
CONTINUOUS
 62
     1
 10
-978.69607599999995
 20
1629.1914139999999
 30
0.0
 11
-947.32530600000007
 21
1660.561414
 31
0.0
  0
LINE
  5
161
  8
KERA4
  6
CONTINUOUS
 62
     1
 10
-978.69607599999995
 20
1626.9314139999999
 30
0.0
 11
-945.0625060000001
 21
1660.561414
 31
0.0
  0
LINE
  5
162
  8
KERA4
  6
CONTINUOUS
 62
     1
 10
-978.69607599999995
 20
1628.061414
 30
0.0
 11
-946.19390599999997
 21
1660.561414
 31
0.0
  0
LINE
  5
163
  8
KERA4
  6
CONTINUOUS
 62
     1
 10
-978.69607599999995
 20
1627.2114140000001
 30
0.0
 11
-945.34540600000003
 21
1660.561414
 31
0.0
  0
LINE
  5
164
  8
KERA4
  6
CONTINUOUS
 62
     1
 10
-978.69607599999995
 20
1628.9114139999999
 30
0.0
 11
-947.04240600000003
 21
1660.561414
 31
0.0
  0
LINE
  5
165
  8
KERA4
  6
CONTINUOUS
 62
     1
 10
-978.69607599999995
 20
1628.621414
 30
0.0
 11
-946.75960600000008
 21
1660.561414
 31
0.0
  0
LINE
  5
166
  8
KERA4
  6
CONTINUOUS
 62
     1
 10
-978.69607599999995
 20
1628.341414
 30
0.0
 11
-946.47670599999992
 21
1660.561414
 31
0.0
  0
LINE
  5
167
  8
KERA4
  6
CONTINUOUS
 62
     1
 10
-978.69607599999995
 20
1627.4914140000001
 30
0.0
 11
-945.62820600000009
 21
1660.561414
 31
0.0
  0
LINE
  5
168
  8
KERA4
  6
CONTINUOUS
 62
     1
 10
-978.69607599999995
 20
1627.771414
 30
0.0
 11
-945.91100600000004
 21
1660.561414
 31
0.0
  0
LINE
  5
169
  8
KERA4
  6
CONTINUOUS
 62
     1
 10
-1018.828306
 20
1660.561414
 30
0.0
 11
-978.69607599999995
 21
1620.4314139999999
 31
0.0
  0
INSERT
  5
16A
  8
LAYER01
  2
AKZ_WEB-G8
 10
0.0
 20
0.0
 30
0.0
  0
LINE
  5
16B
  8
KERA4
  6
CONTINUOUS
 62
     1
 10
-910.82660600000008
 20
1688.301414
 30
0.0
 11
-673.53411799999981
 21
1688.301414
 31
0.0
  0
LINE
  5
16C
  8
KERA4
  6
CONTINUOUS
 62
     1
 10
-978.69607599999995
 20
1660.561414
 30
0.0
 11
-1018.828306
 21
1660.561414
 31
0.0
  0
LINE
  5
16D
  8
KERA4
  6
CONTINUOUS
 62
     1
 10
-978.69607599999995
 20
1660.561414
 30
0.0
 11
-938.56380599999989
 21
1660.561414
 31
0.0
  0
LINE
  5
16E
  8
KERA4
  6
CONTINUOUS
 62
     1
 10
-978.69607599999995
 20
1658.041414
 30
0.0
 11
-976.17521599999998
 21
1660.561414
 31
0.0
  0
LINE
  5
16F
  8
KERA4
  6
CONTINUOUS
 62
     1
 10
-978.69607599999995
 20
1658.321414
 30
0.0
 11
-976.45805600000006
 21
1660.561414
 31
0.0
  0
LINE
  5
170
  8
KERA4
  6
CONTINUOUS
 62
     1
 10
-978.69607599999995
 20
1658.601414
 30
0.0
 11
-976.740906
 21
1660.561414
 31
0.0
  0
LINE
  5
171
  8
KERA4
  6
CONTINUOUS
 62
     1
 10
-978.69607599999995
 20
1658.8914139999999
 30
0.0
 11
-977.02374599999996
 21
1660.561414
 31
0.0
  0
LINE
  5
172
  8
KERA4
  6
CONTINUOUS
 62
     1
 10
-978.69607599999995
 20
1659.1714139999999
 30
0.0
 11
-977.30658599999992
 21
1660.561414
 31
0.0
  0
LINE
  5
173
  8
KERA4
  6
CONTINUOUS
 62
     1
 10
-978.69607599999995
 20
1659.4514140000001
 30
0.0
 11
-977.58943599999998
 21
1660.561414
 31
0.0
  0
LINE
  5
174
  8
KERA4
  6
CONTINUOUS
 62
     1
 10
-978.69607599999995
 20
1659.7414140000001
 30
0.0
 11
-977.87227599999994
 21
1660.561414
 31
0.0
  0
LINE
  5
175
  8
KERA4
  6
CONTINUOUS
 62
     1
 10
-978.69607599999995
 20
1660.021414
 30
0.0
 11
-978.15511600000013
 21
1660.561414
 31
0.0
  0
LINE
  5
176
  8
KERA4
  6
CONTINUOUS
 62
     1
 10
-978.69607599999995
 20
1660.301414
 30
0.0
 11
-978.4379560000001
 21
1660.561414
 31
0.0
  0
LINE
  5
177
  8
KERA4
  6
CONTINUOUS
 62
     1
 10
-938.56380599999989
 20
1660.561414
 30
0.0
 11
-910.82660600000008
 21
1688.301414
 31
0.0
  0
ENDBLK
  5
178
  8
0
  0
BLOCK
  8
0
  2
*D8
 70
     1
 10
0.0
 20
0.0
 30
0.0
  3
*D8
  1

  0
LINE
  5
17B
  8
LAYER01
 62
     7
 10
-965.03888200000006
 20
1347.204735
 30
0.0
 11
-165.038882
 21
1347.204735
 31
0.0
  0
LINE
  5
17C
  8
LAYER01
 62
     7
 10
-965.03888200000006
 20
1166.2607820000001
 30
0.0
 11
-965.03888200000006
 21
1372.204735
 31
0.0
  0
LINE
  5
17D
  8
LAYER01
 62
     7
 10
-165.038882
 20
1166.2607820000001
 30
0.0
 11
-165.038882
 21
1372.204735
 31
0.0
  0
SOLID
  5
17E
  8
LAYER01
 62
     7
 10
-925.03888200000006
 20
1340.538335
 30
0.0
 11
-965.03888200000006
 21
1347.204735
 31
0.0
 12
-925.03888200000006
 22
1353.8711350000001
 32
0.0
 13
-925.03888200000006
 23
1353.8711350000001
 33
0.0
  0
SOLID
  5
17F
  8
LAYER01
 62
     7
 10
-205.038882
 20
1340.538335
 30
0.0
 11
-165.038882
 21
1347.204735
 31
0.0
 12
-205.038882
 22
1353.8711350000001
 32
0.0
 13
-205.038882
 23
1353.8711350000001
 33
0.0
  0
TEXT
  5
180
  8
LAYER01
  6
CONTINUOUS
 62
     7
 10
-602.94685800000002
 20
1372.204735
 30
0.0
 40
50.0
  1
800
  0
POINT
  5
181
  8
LAYER01
 62
     7
 10
-965.03888200000006
 20
1146.2607820000001
 30
0.0
  0
POINT
  5
182
  8
LAYER01
 62
     7
 10
-165.038882
 20
1146.2607820000001
 30
0.0
  0
POINT
  5
183
  8
LAYER01
 62
     7
 10
-165.038882
 20
1347.204735
 30
0.0
  0
ENDBLK
  5
184
  8
0
  0
BLOCK
  8
0
  2
*D9
 70
     1
 10
0.0
 20
0.0
 30
0.0
  3
*D9
  1

  0
LINE
  5
187
  8
LAYER01
 62
     7
 10
-565.03888199999994
 20
1237.5800790000001
 30
0.0
 11
-965.03888200000006
 21
1237.5800790000001
 31
0.0
  0
LINE
  5
188
  8
LAYER01
 62
     7
 10
-565.03888199999994
 20
1166.2607820000001
 30
0.0
 11
-565.03888199999994
 21
1262.5800790000001
 31
0.0
  0
LINE
  5
189
  8
LAYER01
 62
     7
 10
-965.03888200000006
 20
1166.2607820000001
 30
0.0
 11
-965.03888200000006
 21
1262.5800790000001
 31
0.0
  0
SOLID
  5
18A
  8
LAYER01
 62
     7
 10
-605.03888200000006
 20
1244.2464789999999
 30
0.0
 11
-565.03888199999994
 21
1237.5800790000001
 31
0.0
 12
-605.03888200000006
 22
1230.913679
 32
0.0
 13
-605.03888200000006
 23
1230.913679
 33
0.0
  0
SOLID
  5
18B
  8
LAYER01
 62
     7
 10
-925.03888200000006
 20
1244.2464789999999
 30
0.0
 11
-965.03888200000006
 21
1237.5800790000001
 31
0.0
 12
-925.03888200000006
 22
1230.913679
 32
0.0
 13
-925.03888200000006
 23
1230.913679
 33
0.0
  0
TEXT
  5
18C
  8
LAYER01
  6
CONTINUOUS
 62
     7
 10
-802.94685799999991
 20
1262.5800790000001
 30
0.0
 40
50.0
  1
400
  0
POINT
  5
18D
  8
LAYER01
 62
     7
 10
-565.03888199999994
 20
1146.2607820000001
 30
0.0
  0
POINT
  5
18E
  8
LAYER01
 62
     7
 10
-965.03888200000006
 20
1146.2607820000001
 30
0.0
  0
POINT
  5
18F
  8
LAYER01
 62
     7
 10
-965.03888200000006
 20
1237.5800790000001
 30
0.0
  0
ENDBLK
  5
190
  8
0
  0
BLOCK
  8
0
  2
*D10
 70
     1
 10
0.0
 20
0.0
 30
0.0
  3
*D10
  1

  0
LINE
  5
193
  8
LAYER01
 62
     7
 10
-1251.5417219999999
 20
1146.2607820000001
 30
0.0
 11
-1251.5417219999999
 21
696.26078199999995
 31
0.0
  0
LINE
  5
194
  8
LAYER01
 62
     7
 10
-985.03888199999994
 20
1146.2607820000001
 30
0.0
 11
-1276.5417219999999
 21
1146.2607820000001
 31
0.0
  0
LINE
  5
195
  8
LAYER01
 62
     7
 10
-985.03888199999994
 20
696.26078199999995
 30
0.0
 11
-1276.5417219999999
 21
696.26078199999995
 31
0.0
  0
SOLID
  5
196
  8
LAYER01
 62
     7
 10
-1258.208122
 20
1106.2607820000001
 30
0.0
 11
-1251.5417219999999
 21
1146.2607820000001
 31
0.0
 12
-1244.8753220000001
 22
1106.2607820000001
 32
0.0
 13
-1244.8753220000001
 23
1106.2607820000001
 33
0.0
  0
SOLID
  5
197
  8
LAYER01
 62
     7
 10
-1258.208122
 20
736.26078199999995
 30
0.0
 11
-1251.5417219999999
 21
696.26078199999995
 31
0.0
 12
-1244.8753220000001
 22
736.26078199999995
 32
0.0
 13
-1244.8753220000001
 23
736.26078199999995
 33
0.0
  0
TEXT
  5
198
  8
LAYER01
  6
CONTINUOUS
 62
     7
 10
-1276.5417219999999
 20
879.73489499999994
 30
0.0
 40
50.0
  1
450
 50
90.0
  0
POINT
  5
199
  8
LAYER01
 62
     7
 10
-965.03888200000006
 20
1146.2607820000001
 30
0.0
  0
POINT
  5
19A
  8
LAYER01
 62
     7
 10
-965.03888200000006
 20
696.26078199999995
 30
0.0
  0
POINT
  5
19B
  8
LAYER01
 62
     7
 10
-1251.5417219999999
 20
696.26078199999995
 30
0.0
  0
ENDBLK
  5
19C
  8
0
  0
BLOCK
  8
0
  2
*D11
 70
     1
 10
0.0
 20
0.0
 30
0.0
  3
*D11
  1

  0
LINE
  5
19F
  8
LAYER01
 62
     7
 10
-1120.407342
 20
1146.2607820000001
 30
0.0
 11
-1120.407342
 21
806.2758399999999
 31
0.0
  0
LINE
  5
1A0
  8
LAYER01
 62
     7
 10
-985.03888199999994
 20
1146.2607820000001
 30
0.0
 11
-1145.407342
 21
1146.2607820000001
 31
0.0
  0
LINE
  5
1A1
  8
LAYER01
 62
     7
 10
-985.03888199999994
 20
806.2758399999999
 30
0.0
 11
-1145.407342
 21
806.2758399999999
 31
0.0
  0
SOLID
  5
1A2
  8
LAYER01
 62
     7
 10
-1127.073742
 20
1106.2607820000001
 30
0.0
 11
-1120.407342
 21
1146.2607820000001
 31
0.0
 12
-1113.7409419999999
 22
1106.2607820000001
 32
0.0
 13
-1113.7409419999999
 23
1106.2607820000001
 33
0.0
  0
SOLID
  5
1A3
  8
LAYER01
 62
     7
 10
-1127.073742
 20
846.27584000000002
 30
0.0
 11
-1120.407342
 21
806.2758399999999
 31
0.0
 12
-1113.7409419999999
 22
846.27584000000002
 32
0.0
 13
-1113.7409419999999
 23
846.27584000000002
 33
0.0
  0
TEXT
  5
1A4
  8
LAYER01
  6
CONTINUOUS
 62
     7
 10
-1145.407342
 20
934.74242400000003
 30
0.0
 40
50.0
  1
340
 50
90.0
  0
POINT
  5
1A5
  8
LAYER01
 62
     7
 10
-965.03888200000006
 20
1146.2607820000001
 30
0.0
  0
POINT
  5
1A6
  8
LAYER01
 62
     7
 10
-965.03888200000006
 20
806.2758399999999
 30
0.0
  0
POINT
  5
1A7
  8
LAYER01
 62
     7
 10
-1120.407342
 20
806.2758399999999
 30
0.0
  0
ENDBLK
  5
1A8
  8
0
  0
BLOCK
  8
0
  2
*D12
 70
     1
 10
0.0
 20
0.0
 30
0.0
  3
*D12
  1

  0
LINE
  5
1AB
  8
LAYER01
 62
     7
 10
27.747012000000002
 20
1136.2607820000001
 30
0.0
 11
27.747012000000002
 21
726.26078199999995
 31
0.0
  0
LINE
  5
1AC
  8
LAYER01
 62
     7
 10
-144.038882
 20
1136.2607820000001
 30
0.0
 11
52.747011999999991
 21
1136.2607820000001
 31
0.0
  0
LINE
  5
1AD
  8
LAYER01
 62
     7
 10
-144.038882
 20
726.26078199999995
 30
0.0
 11
52.747011999999991
 21
726.26078199999995
 31
0.0
  0
SOLID
  5
1AE
  8
LAYER01
 62
     7
 10
21.080611999999999
 20
1096.2607820000001
 30
0.0
 11
27.747012000000002
 21
1136.2607820000001
 31
0.0
 12
34.413412000000001
 22
1096.2607820000001
 32
0.0
 13
34.413412000000001
 23
1096.2607820000001
 33
0.0
  0
SOLID
  5
1AF
  8
LAYER01
 62
     7
 10
21.080611999999999
 20
766.26078199999995
 30
0.0
 11
27.747012000000002
 21
726.26078199999995
 31
0.0
 12
34.413412000000001
 22
766.26078199999995
 32
0.0
 13
34.413412000000001
 23
766.26078199999995
 33
0.0
  0
TEXT
  5
1B0
  8
LAYER01
  6
CONTINUOUS
 62
     7
 10
2.7470119999999989
 20
889.73489499999994
 30
0.0
 40
50.0
  1
408
 50
90.0
  0
POINT
  5
1B1
  8
LAYER01
 62
     7
 10
-164.038882
 20
1136.2607820000001
 30
0.0
  0
POINT
  5
1B2
  8
LAYER01
 62
     7
 10
-164.038882
 20
726.26078199999995
 30
0.0
  0
POINT
  5
1B3
  8
LAYER01
 62
     7
 10
27.747012000000002
 20
726.26078199999995
 30
0.0
  0
ENDBLK
  5
1B4
  8
0
  0
BLOCK
  8
0
  2
*D13
 70
     1
 10
0.0
 20
0.0
 30
0.0
  3
*D13
  1

  0
LINE
  5
1B7
  8
LAYER01
 62
     7
 10
-165.038882
 20
1237.5800790000001
 30
0.0
 11
-565.03888199999994
 21
1237.5800790000001
 31
0.0
  0
LINE
  5
1B8
  8
LAYER01
 62
     7
 10
-165.038882
 20
1166.2607820000001
 30
0.0
 11
-165.038882
 21
1262.5800790000001
 31
0.0
  0
LINE
  5
1B9
  8
LAYER01
 62
     7
 10
-565.03888199999994
 20
1166.2607820000001
 30
0.0
 11
-565.03888199999994
 21
1262.5800790000001
 31
0.0
  0
SOLID
  5
1BA
  8
LAYER01
 62
     7
 10
-205.038882
 20
1244.2464789999999
 30
0.0
 11
-165.038882
 21
1237.5800790000001
 31
0.0
 12
-205.038882
 22
1230.913679
 32
0.0
 13
-205.038882
 23
1230.913679
 33
0.0
  0
SOLID
  5
1BB
  8
LAYER01
 62
     7
 10
-525.03888199999994
 20
1244.2464789999999
 30
0.0
 11
-565.03888199999994
 21
1237.5800790000001
 31
0.0
 12
-525.03888199999994
 22
1230.913679
 32
0.0
 13
-525.03888199999994
 23
1230.913679
 33
0.0
  0
TEXT
  5
1BC
  8
LAYER01
  6
CONTINUOUS
 62
     7
 10
-402.94685800000002
 20
1262.5800790000001
 30
0.0
 40
50.0
  1
400
  0
POINT
  5
1BD
  8
LAYER01
 62
     7
 10
-165.038882
 20
1146.2607820000001
 30
0.0
  0
POINT
  5
1BE
  8
LAYER01
 62
     7
 10
-565.03888199999994
 20
1146.2607820000001
 30
0.0
  0
POINT
  5
1BF
  8
LAYER01
 62
     7
 10
-565.03888199999994
 20
1237.5800790000001
 30
0.0
  0
ENDBLK
  5
1C0
  8
0
  0
BLOCK
  8
0
  2
*D14
 70
     1
 10
0.0
 20
0.0
 30
0.0
  3
*D14
  1

  0
LINE
  5
1C3
  8
LAYER01
 62
     7
 10
184.12697
 20
2470.4314140000001
 30
0.0
 11
184.12697
 21
2390.4314140000001
 31
0.0
  0
LINE
  5
1C4
  8
LAYER01
 62
     7
 10
184.12697
 20
2500.4314140000001
 30
0.0
 11
184.12697
 21
2580.4314140000001
 31
0.0
  0
LINE
  5
1C5
  8
LAYER01
 62
     7
 10
-145.038882
 20
2470.4314140000001
 30
0.0
 11
209.12697
 21
2470.4314140000001
 31
0.0
  0
LINE
  5
1C6
  8
LAYER01
 62
     7
 10
-145.038882
 20
2500.4314140000001
 30
0.0
 11
209.12697
 21
2500.4314140000001
 31
0.0
  0
SOLID
  5
1C7
  8
LAYER01
 62
     7
 10
190.79337000000001
 20
2430.4314140000001
 30
0.0
 11
184.12697
 21
2470.4314140000001
 31
0.0
 12
177.46056999999999
 22
2430.4314140000001
 32
0.0
 13
177.46056999999999
 23
2430.4314140000001
 33
0.0
  0
SOLID
  5
1C8
  8
LAYER01
 62
     7
 10
190.79337000000001
 20
2540.4314140000001
 30
0.0
 11
184.12697
 21
2500.4314140000001
 31
0.0
 12
177.46056999999999
 22
2540.4314140000001
 32
0.0
 13
177.46056999999999
 23
2540.4314140000001
 33
0.0
  0
TEXT
  5
1C9
  8
LAYER01
  6
CONTINUOUS
 62
     7
 10
159.12697
 20
2605.4314140000001
 30
0.0
 40
50.0
  1
30
 50
90.0
  0
POINT
  5
1CA
  8
LAYER01
 62
     7
 10
-165.038882
 20
2470.4314140000001
 30
0.0
  0
POINT
  5
1CB
  8
LAYER01
 62
     7
 10
-165.038882
 20
2500.4314140000001
 30
0.0
  0
POINT
  5
1CC
  8
LAYER01
 62
     7
 10
184.12697
 20
2500.4314140000001
 30
0.0
  0
ENDBLK
  5
1CD
  8
0
  0
BLOCK
  8
0
  2
*D15
 70
     1
 10
0.0
 20
0.0
 30
0.0
  3
*D15
  1

  0
LINE
  5
1D0
  8
LAYER01
 62
     7
 10
-63.774242000000001
 20
2390.4314140000001
 30
0.0
 11
-63.774242000000001
 21
2470.4314140000001
 31
0.0
  0
LINE
  5
1D1
  8
LAYER01
 62
     7
 10
-130.975674
 20
2390.4314140000001
 30
0.0
 11
-38.774242000000001
 21
2390.4314140000001
 31
0.0
  0
LINE
  5
1D2
  8
LAYER01
 62
     7
 10
-130.975674
 20
2470.4314140000001
 30
0.0
 11
-38.774242000000001
 21
2470.4314140000001
 31
0.0
  0
SOLID
  5
1D3
  8
LAYER01
 62
     7
 10
-57.107841999999998
 20
2430.4314140000001
 30
0.0
 11
-63.774242000000001
 21
2390.4314140000001
 31
0.0
 12
-70.440642000000011
 22
2430.4314140000001
 32
0.0
 13
-70.440642000000011
 23
2430.4314140000001
 33
0.0
  0
SOLID
  5
1D4
  8
LAYER01
 62
     7
 10
-57.107841999999998
 20
2430.4314140000001
 30
0.0
 11
-63.774242000000001
 21
2470.4314140000001
 31
0.0
 12
-70.440642000000011
 22
2430.4314140000001
 32
0.0
 13
-70.440642000000011
 23
2430.4314140000001
 33
0.0
  0
TEXT
  5
1D5
  8
LAYER01
  6
CONTINUOUS
 62
     7
 10
-88.774242000000001
 20
2403.85574
 30
0.0
 40
50.0
  1
80
 50
90.0
  0
POINT
  5
1D6
  8
LAYER01
 62
     7
 10
-150.975674
 20
2390.4314140000001
 30
0.0
  0
POINT
  5
1D7
  8
LAYER01
 62
     7
 10
-150.975674
 20
2470.4314140000001
 30
0.0
  0
POINT
  5
1D8
  8
LAYER01
 62
     7
 10
-63.774242000000001
 20
2470.4314140000001
 30
0.0
  0
ENDBLK
  5
1D9
  8
0
  0
BLOCK
  8
0
  2
*D16
 70
     1
 10
0.0
 20
0.0
 30
0.0
  3
*D16
  1

  0
LINE
  5
1DC
  8
LAYER01
 62
     7
 10
-207.033737
 20
2175.4314140000001
 30
0.0
 11
-207.033737
 21
2095.4314140000001
 31
0.0
  0
LINE
  5
1DD
  8
LAYER01
 62
     7
 10
-207.033737
 20
2225.4314140000001
 30
0.0
 11
-207.033737
 21
2305.4314140000001
 31
0.0
  0
LINE
  5
1DE
  8
LAYER01
 62
     7
 10
-274.23516799999999
 20
2175.4314140000001
 30
0.0
 11
-182.033737
 21
2175.4314140000001
 31
0.0
  0
LINE
  5
1DF
  8
LAYER01
 62
     7
 10
-274.23516799999999
 20
2225.4314140000001
 30
0.0
 11
-182.033737
 21
2225.4314140000001
 31
0.0
  0
SOLID
  5
1E0
  8
LAYER01
 62
     7
 10
-200.36733699999999
 20
2135.431414000001
 30
0.0
 11
-207.033737
 21
2175.4314140000001
 31
0.0
 12
-213.70013700000001
 22
2135.431414000001
 32
0.0
 13
-213.70013700000001
 23
2135.431414000001
 33
0.0
  0
SOLID
  5
1E1
  8
LAYER01
 62
     7
 10
-200.36733699999999
 20
2265.4314140000001
 30
0.0
 11
-207.033737
 21
2225.4314140000001
 31
0.0
 12
-213.70013700000001
 22
2265.4314140000001
 32
0.0
 13
-213.70013700000001
 23
2265.4314140000001
 33
0.0
  0
TEXT
  5
1E2
  8
LAYER01
  6
CONTINUOUS
 62
     7
 10
-232.033737
 20
2257.3483100000012
 30
0.0
 40
50.0
  1
50
 50
90.0
  0
POINT
  5
1E3
  8
LAYER01
 62
     7
 10
-294.2351680000001
 20
2175.4314140000001
 30
0.0
  0
POINT
  5
1E4
  8
LAYER01
 62
     7
 10
-294.2351680000001
 20
2225.4314140000001
 30
0.0
  0
POINT
  5
1E5
  8
LAYER01
 62
     7
 10
-207.033737
 20
2225.4314140000001
 30
0.0
  0
ENDBLK
  5
1E6
  8
0
  0
BLOCK
  8
0
  2
*D17
 70
     1
 10
0.0
 20
0.0
 30
0.0
  3
*D17
  1

  0
LINE
  5
1E9
  8
LAYER01
 62
     7
 10
1072.99548
 20
2721.755236
 30
0.0
 11
623.383644
 21
2721.755236
 31
0.0
  0
LINE
  5
1EA
  8
LAYER01
 62
     7
 10
1072.99548
 20
2520.4314140000001
 30
0.0
 11
1072.99548
 21
2746.755236
 31
0.0
  0
LINE
  5
1EB
  8
LAYER01
 62
     7
 10
623.383644
 20
2520.4314140000001
 30
0.0
 11
623.383644
 21
2746.755236
 31
0.0
  0
SOLID
  5
1EC
  8
LAYER01
 62
     7
 10
1032.99548
 20
2728.421636
 30
0.0
 11
1072.99548
 21
2721.755236
 31
0.0
 12
1032.99548
 22
2715.0888359999999
 32
0.0
 13
1032.99548
 23
2715.0888359999999
 33
0.0
  0
SOLID
  5
1ED
  8
LAYER01
 62
     7
 10
663.383644
 20
2728.421636
 30
0.0
 11
623.383644
 21
2721.755236
 31
0.0
 12
663.383644
 22
2715.0888359999999
 32
0.0
 13
663.383644
 23
2715.0888359999999
 33
0.0
  0
TEXT
  5
1EE
  8
LAYER01
  6
CONTINUOUS
 62
     7
 10
810.31897600000013
 20
2746.755236
 30
0.0
 40
50.0
  1
450
  0
POINT
  5
1EF
  8
LAYER01
 62
     7
 10
1072.99548
 20
2500.4314140000001
 30
0.0
  0
POINT
  5
1F0
  8
LAYER01
 62
     7
 10
623.383644
 20
2500.4314140000001
 30
0.0
  0
POINT
  5
1F1
  8
LAYER01
 62
     7
 10
623.383644
 20
2721.755236
 30
0.0
  0
ENDBLK
  5
1F2
  8
0
  0
BLOCK
  8
0
  2
*D18
 70
     1
 10
0.0
 20
0.0
 30
0.0
  3
*D18
  1

  0
LINE
  5
1F5
  8
LAYER01
 62
     7
 10
987.99548000000004
 20
2645.1582330000001
 30
0.0
 11
1067.99548
 21
2645.1582330000001
 31
0.0
  0
LINE
  5
1F6
  8
LAYER01
 62
     7
 10
927.99548000000004
 20
2645.1582330000001
 30
0.0
 11
847.99547999999993
 21
2645.1582330000001
 31
0.0
  0
LINE
  5
1F7
  8
LAYER01
 62
     7
 10
987.99548000000004
 20
2520.4314140000001
 30
0.0
 11
987.99548000000004
 21
2670.1582330000001
 31
0.0
  0
LINE
  5
1F8
  8
LAYER01
 62
     7
 10
927.99548000000004
 20
2520.4314140000001
 30
0.0
 11
927.99548000000004
 21
2670.1582330000001
 31
0.0
  0
SOLID
  5
1F9
  8
LAYER01
 62
     7
 10
1027.99548
 20
2651.8246330000002
 30
0.0
 11
987.99548000000004
 21
2645.1582330000001
 31
0.0
 12
1027.99548
 22
2638.491833
 32
0.0
 13
1027.99548
 23
2638.491833
 33
0.0
  0
SOLID
  5
1FA
  8
LAYER01
 62
     7
 10
887.99548000000004
 20
2651.8246330000002
 30
0.0
 11
927.99548000000004
 21
2645.1582330000001
 31
0.0
 12
887.99548000000004
 22
2638.491833
 32
0.0
 13
887.99548000000004
 23
2638.491833
 33
0.0
  0
TEXT
  5
1FB
  8
LAYER01
  6
CONTINUOUS
 62
     7
 10
997.99807899999985
 20
2670.1582330000001
 30
0.0
 40
50.0
  1
60
  0
POINT
  5
1FC
  8
LAYER01
 62
     7
 10
987.99548000000004
 20
2500.4314140000001
 30
0.0
  0
POINT
  5
1FD
  8
LAYER01
 62
     7
 10
927.99548000000004
 20
2500.4314140000001
 30
0.0
  0
POINT
  5
1FE
  8
LAYER01
 62
     7
 10
927.99548000000004
 20
2645.1582330000001
 30
0.0
  0
ENDBLK
  5
1FF
  8
0
  0
BLOCK
  8
0
  2
*D19
 70
     1
 10
0.0
 20
0.0
 30
0.0
  3
*D19
  1

  0
LINE
  5
202
  8
LAYER01
 62
     7
 10
1072.99548
 20
2559.1470730000001
 30
0.0
 11
987.99548000000004
 21
2559.1470730000001
 31
0.0
  0
LINE
  5
203
  8
LAYER01
 62
     7
 10
1072.99548
 20
2519.6734660000002
 30
0.0
 11
1072.99548
 21
2584.1470730000001
 31
0.0
  0
LINE
  5
204
  8
LAYER01
 62
     7
 10
987.99548000000004
 20
2519.6734660000002
 30
0.0
 11
987.99548000000004
 21
2584.1470730000001
 31
0.0
  0
SOLID
  5
205
  8
LAYER01
 62
     7
 10
1032.99548
 20
2565.8134730000002
 30
0.0
 11
1072.99548
 21
2559.1470730000001
 31
0.0
 12
1032.99548
 22
2552.480673
 32
0.0
 13
1032.99548
 23
2552.480673
 33
0.0
  0
SOLID
  5
206
  8
LAYER01
 62
     7
 10
1027.99548
 20
2565.8134730000002
 30
0.0
 11
987.99548000000004
 21
2559.1470730000001
 31
0.0
 12
1027.99548
 22
2552.480673
 32
0.0
 13
1027.99548
 23
2552.480673
 33
0.0
  0
TEXT
  5
207
  8
LAYER01
  6
CONTINUOUS
 62
     7
 10
1005.248423
 20
2584.1470730000001
 30
0.0
 40
50.0
  1
85
  0
POINT
  5
208
  8
LAYER01
 62
     7
 10
1072.99548
 20
2499.6734660000002
 30
0.0
  0
POINT
  5
209
  8
LAYER01
 62
     7
 10
987.99548000000004
 20
2499.6734660000002
 30
0.0
  0
POINT
  5
20A
  8
LAYER01
 62
     7
 10
987.99548000000004
 20
2559.1470730000001
 30
0.0
  0
ENDBLK
  5
20B
  8
0
  0
BLOCK
  8
0
  2
*D20
 70
     1
 10
0.0
 20
0.0
 30
0.0
  3
*D20
  1

  0
LINE
  5
20E
  8
LAYER01
 62
     7
 10
1209.2713120000001
 20
2500.4883759999998
 30
0.0
 11
1209.2713120000001
 21
2580.4883759999998
 31
0.0
  0
LINE
  5
20F
  8
LAYER01
 62
     7
 10
1209.2713120000001
 20
2470.4314140000001
 30
0.0
 11
1209.2713120000001
 21
2390.4314140000001
 31
0.0
  0
LINE
  5
210
  8
LAYER01
 62
     7
 10
1092.99548
 20
2500.4883759999998
 30
0.0
 11
1234.2713120000001
 21
2500.4883759999998
 31
0.0
  0
LINE
  5
211
  8
LAYER01
 62
     7
 10
1092.99548
 20
2470.4314140000001
 30
0.0
 11
1234.2713120000001
 21
2470.4314140000001
 31
0.0
  0
SOLID
  5
212
  8
LAYER01
 62
     7
 10
1202.604912
 20
2540.4883760000012
 30
0.0
 11
1209.2713120000001
 21
2500.4883759999998
 31
0.0
 12
1215.9377119999999
 22
2540.4883760000012
 32
0.0
 13
1215.9377119999999
 23
2540.4883760000012
 33
0.0
  0
SOLID
  5
213
  8
LAYER01
 62
     7
 10
1202.604912
 20
2430.4314140000001
 30
0.0
 11
1209.2713120000001
 21
2470.4314140000001
 31
0.0
 12
1215.9377119999999
 22
2430.4314140000001
 32
0.0
 13
1215.9377119999999
 23
2430.4314140000001
 33
0.0
  0
TEXT
  5
214
  8
LAYER01
  6
CONTINUOUS
 62
     7
 10
1184.2713120000001
 20
2605.4883759999998
 30
0.0
 40
50.0
  1
30
 50
90.0
  0
POINT
  5
215
  8
LAYER01
 62
     7
 10
1072.99548
 20
2500.4883759999998
 30
0.0
  0
POINT
  5
216
  8
LAYER01
 62
     7
 10
1072.99548
 20
2470.4314140000001
 30
0.0
  0
POINT
  5
217
  8
LAYER01
 62
     7
 10
1209.2713120000001
 20
2470.4314140000001
 30
0.0
  0
ENDBLK
  5
218
  8
0
  0
BLOCK
  8
0
  2
*D21
 70
     1
 10
0.0
 20
0.0
 30
0.0
  3
*D21
  1

  0
LINE
  5
21B
  8
LAYER01
 62
     7
 10
876.27941999999996
 20
2242.4890719999999
 30
0.0
 11
956.27941999999985
 21
2242.4890719999999
 31
0.0
  0
LINE
  5
21C
  8
LAYER01
 62
     7
 10
829.99548000000004
 20
2242.4890719999999
 30
0.0
 11
749.99547999999993
 21
2242.4890719999999
 31
0.0
  0
LINE
  5
21D
  8
LAYER01
 62
     7
 10
876.27941999999996
 20
2265.2797369999998
 30
0.0
 11
876.27941999999996
 21
2217.4890719999999
 31
0.0
  0
LINE
  5
21E
  8
LAYER01
 62
     7
 10
829.99548000000004
 20
2265.2797369999998
 30
0.0
 11
829.99548000000004
 21
2217.4890719999999
 31
0.0
  0
SOLID
  5
21F
  8
LAYER01
 62
     7
 10
916.27941999999996
 20
2249.1554719999999
 30
0.0
 11
876.27941999999996
 21
2242.4890719999999
 31
0.0
 12
916.27941999999996
 22
2235.8226719999998
 32
0.0
 13
916.27941999999996
 23
2235.8226719999998
 33
0.0
  0
SOLID
  5
220
  8
LAYER01
 62
     7
 10
789.99547999999993
 20
2249.1554719999999
 30
0.0
 11
829.99548000000004
 21
2242.4890719999999
 31
0.0
 12
789.99547999999993
 22
2235.8226719999998
 32
0.0
 13
789.99547999999993
 23
2235.8226719999998
 33
0.0
  0
TEXT
  5
221
  8
LAYER01
  6
CONTINUOUS
 62
     7
 10
702.2780459999999
 20
2267.4890719999999
 30
0.0
 40
50.0
  1
%%C46
  0
POINT
  5
222
  8
LAYER01
 62
     7
 10
876.27941999999996
 20
2285.2797370000012
 30
0.0
  0
POINT
  5
223
  8
LAYER01
 62
     7
 10
829.99548000000004
 20
2285.2797370000012
 30
0.0
  0
POINT
  5
224
  8
LAYER01
 62
     7
 10
829.99548000000004
 20
2242.4890719999999
 30
0.0
  0
ENDBLK
  5
225
  8
0
  0
BLOCK
  8
0
  2
*D22
 70
     1
 10
0.0
 20
0.0
 30
0.0
  3
*D22
  1

  0
LINE
  5
228
  8
LAYER01
 62
     7
 10
852.99548000000004
 20
2059.7688469999998
 30
0.0
 11
1072.99548
 21
2059.7688469999998
 31
0.0
  0
LINE
  5
229
  8
LAYER01
 62
     7
 10
852.99548000000004
 20
2256.2095509999999
 30
0.0
 11
852.99548000000004
 21
2034.7688470000001
 31
0.0
  0
LINE
  5
22A
  8
LAYER01
 62
     7
 10
1072.99548
 20
2256.2095509999999
 30
0.0
 11
1072.99548
 21
2034.7688470000001
 31
0.0
  0
SOLID
  5
22B
  8
LAYER01
 62
     7
 10
892.99548000000004
 20
2053.1024470000002
 30
0.0
 11
852.99548000000004
 21
2059.7688469999998
 31
0.0
 12
892.99548000000004
 22
2066.4352469999999
 32
0.0
 13
892.99548000000004
 23
2066.4352469999999
 33
0.0
  0
SOLID
  5
22C
  8
LAYER01
 62
     7
 10
1032.99548
 20
2053.1024470000002
 30
0.0
 11
1072.99548
 21
2059.7688469999998
 31
0.0
 12
1032.99548
 22
2066.4352469999999
 32
0.0
 13
1032.99548
 23
2066.4352469999999
 33
0.0
  0
TEXT
  5
22D
  8
LAYER01
  6
CONTINUOUS
 62
     7
 10
925.12489399999993
 20
2084.7688469999998
 30
0.0
 40
50.0
  1
220
  0
POINT
  5
22E
  8
LAYER01
 62
     7
 10
852.99548000000004
 20
2276.2095509999999
 30
0.0
  0
POINT
  5
22F
  8
LAYER01
 62
     7
 10
1072.99548
 20
2276.2095509999999
 30
0.0
  0
POINT
  5
230
  8
LAYER01
 62
     7
 10
1072.99548
 20
2059.7688469999998
 30
0.0
  0
ENDBLK
  5
231
  8
0
  0
BLOCK
  8
0
  2
AKZ_WEB-G24
 70
     0
 10
0.0
 20
0.0
 30
0.0
  3
AKZ_WEB-G24
  1

  0
LINE
  5
234
  8
LAYER01
  6
CONTINUOUS
 62
     7
 10
1005.49548
 20
2445.664499
 30
0.0
 11
1005.49548
 21
2457.5605350000001
 31
0.0
  0
LINE
  5
235
  8
LAYER01
  6
CONTINUOUS
 62
     7
 10
1072.99548
 20
2445.664499
 30
0.0
 11
1072.99548
 21
2500.4883759999998
 31
0.0
  0
LINE
  5
236
  8
LAYER01
  6
CONTINUOUS
 62
     7
 10
1059.3662529999999
 20
2467.07366
 30
0.0
 11
1060.995062
 21
2500.4883759999998
 31
0.0
  0
ARC
  5
237
  8
LAYER01
  6
CONTINUOUS
 62
     7
 10
1049.3781120000001
 20
2467.5605350000001
 30
0.0
 40
10.0
 50
270.0
 51
357.20931000000002
  0
LINE
  5
238
  8
LAYER01
  6
CONTINUOUS
 62
     7
 10
1072.99548
 20
2500.4883759999998
 30
0.0
 11
1060.995062
 21
2500.4883759999998
 31
0.0
  0
LINE
  5
239
  8
LAYER01
  6
CONTINUOUS
 62
     7
 10
1072.99548
 20
2445.664499
 30
0.0
 11
953.06344899999999
 21
2445.664499
 31
0.0
  0
LINE
  5
23A
  8
LAYER01
  6
CONTINUOUS
 62
     7
 10
1049.3781120000001
 20
2457.5605350000001
 30
0.0
 11
935.05419300000005
 21
2457.5605350000001
 31
0.0
  0
ENDBLK
  5
23B
  8
0
  0
BLOCK
  8
0
  2
*D24
 70
     1
 10
0.0
 20
0.0
 30
0.0
  3
*D24
  1

  0
LINE
  5
23E
  8
LAYER01
 62
     7
 10
912.98966999999993
 20
2138.933348
 30
0.0
 11
793.00128899999993
 21
2138.933348
 31
0.0
  0
LINE
  5
23F
  8
LAYER01
 62
     7
 10
912.98966999999993
 20
2265.2797369999998
 30
0.0
 11
912.98966999999993
 21
2113.933348
 31
0.0
  0
LINE
  5
240
  8
LAYER01
 62
     7
 10
793.00128899999993
 20
2265.2797369999998
 30
0.0
 11
793.00128899999993
 21
2113.933348
 31
0.0
  0
SOLID
  5
241
  8
LAYER01
 62
     7
 10
872.98966999999993
 20
2145.5997480000001
 30
0.0
 11
912.98966999999993
 21
2138.933348
 31
0.0
 12
872.98966999999993
 22
2132.266948
 32
0.0
 13
872.98966999999993
 23
2132.266948
 33
0.0
  0
SOLID
  5
242
  8
LAYER01
 62
     7
 10
833.00128899999993
 20
2145.5997480000001
 30
0.0
 11
793.00128899999993
 21
2138.933348
 31
0.0
 12
833.00128899999993
 22
2132.266948
 32
0.0
 13
833.00128899999993
 23
2132.266948
 33
0.0
  0
TEXT
  5
243
  8
LAYER01
  6
CONTINUOUS
 62
     7
 10
801.00365899999997
 20
2163.933348
 30
0.0
 40
50.0
  1
%%C120
  0
POINT
  5
244
  8
LAYER01
 62
     7
 10
912.98966999999993
 20
2285.2797370000012
 30
0.0
  0
POINT
  5
245
  8
LAYER01
 62
     7
 10
793.00128899999993
 20
2285.2797370000012
 30
0.0
  0
POINT
  5
246
  8
LAYER01
 62
     7
 10
793.00128899999993
 20
2138.933348
 30
0.0
  0
ENDBLK
  5
247
  8
0
  0
BLOCK
  8
0
  2
AKZ_WEB-G26
 70
     0
 10
0.0
 20
0.0
 30
0.0
  3
AKZ_WEB-G26
  1

  0
LINE
  5
24A
  8
LAYER01
  6
CONTINUOUS
 62
     7
 10
823.24641199999985
 20
2285.2797370000012
 30
0.0
 11
829.99548000000004
 21
2292.0288049999999
 31
0.0
  0
LINE
  5
24B
  8
LAYER01
  6
CONTINUOUS
 62
     7
 10
814.40757699999983
 20
2285.2797370000012
 30
0.0
 11
829.99548000000004
 21
2300.8676390000001
 31
0.0
  0
LINE
  5
24C
  8
LAYER01
  6
CONTINUOUS
 62
     7
 10
805.56874199999993
 20
2285.2797370000012
 30
0.0
 11
829.99548000000004
 21
2309.7064740000001
 31
0.0
  0
LINE
  5
24D
  8
LAYER01
  6
CONTINUOUS
 62
     7
 10
796.72990700000003
 20
2285.2797370000012
 30
0.0
 11
829.99548000000004
 21
2318.5453090000001
 31
0.0
  0
LINE
  5
24E
  8
LAYER01
  6
CONTINUOUS
 62
     7
 10
793.00128899999993
 20
2290.3899529999999
 30
0.0
 11
828.78364099999999
 21
2326.1723050000001
 31
0.0
  0
LINE
  5
24F
  8
LAYER01
  6
CONTINUOUS
 62
     7
 10
793.00128899999993
 20
2299.2287879999999
 30
0.0
 11
824.91097100000002
 21
2331.1384699999999
 31
0.0
  0
LINE
  5
250
  8
LAYER01
  6
CONTINUOUS
 62
     7
 10
793.00128899999993
 20
2308.0676229999999
 30
0.0
 11
820.35828500000002
 21
2335.424618
 31
0.0
  0
LINE
  5
251
  8
LAYER01
  6
CONTINUOUS
 62
     7
 10
793.00128899999993
 20
2316.906457
 30
0.0
 11
812.55855399999984
 21
2336.4637229999998
 31
0.0
  0
LINE
  5
252
  8
LAYER01
  6
CONTINUOUS
 62
     7
 10
793.00128899999993
 20
2325.7452920000001
 30
0.0
 11
805.02715599999999
 21
2337.7711589999999
 31
0.0
  0
LINE
  5
253
  8
LAYER01
  6
CONTINUOUS
 62
     7
 10
788.00968999999998
 20
2329.5925280000001
 30
0.0
 11
797.74287600000002
 21
2339.3257140000001
 31
0.0
  0
LINE
  5
254
  8
LAYER01
  6
CONTINUOUS
 62
     7
 10
781.32647899999995
 20
2331.7481520000001
 30
0.0
 11
790.68812300000002
 21
2341.1097960000002
 31
0.0
  0
LINE
  5
255
  8
LAYER01
  6
CONTINUOUS
 62
     7
 10
774.81435899999985
 20
2334.0748659999999
 30
0.0
 11
783.848162
 21
2343.1086690000002
 31
0.0
  0
LINE
  5
256
  8
LAYER01
  6
CONTINUOUS
 62
     7
 10
768.46596900000009
 20
2336.5653109999998
 30
0.0
 11
777.21055000000001
 21
2345.3098920000002
 31
0.0
  0
LINE
  5
257
  8
LAYER01
  6
CONTINUOUS
 62
     7
 10
762.27489600000001
 20
2339.2130729999999
 30
0.0
 11
770.76471900000001
 21
2347.7028959999998
 31
0.0
  0
LINE
  5
258
  8
LAYER01
  6
CONTINUOUS
 62
     7
 10
756.23554200000001
 20
2342.0125539999999
 30
0.0
 11
764.50164800000005
 21
2350.2786590000001
 31
0.0
  0
LINE
  5
259
  8
LAYER01
  6
CONTINUOUS
 62
     7
 10
750.34301700000003
 20
2344.9588629999998
 30
0.0
 11
758.41361399999994
 21
2353.0294600000002
 31
0.0
  0
LINE
  5
25A
  8
LAYER01
  6
CONTINUOUS
 62
     7
 10
744.59305599999993
 20
2348.0477369999999
 30
0.0
 11
752.49400100000003
 21
2355.9486820000011
 31
0.0
  0
LINE
  5
25B
  8
LAYER01
  6
CONTINUOUS
 62
     7
 10
738.98194799999987
 20
2351.2754639999998
 30
0.0
 11
746.73714100000007
 21
2359.0306569999998
 31
0.0
  0
LINE
  5
25C
  8
LAYER01
  6
CONTINUOUS
 62
     7
 10
733.50647900000001
 20
2354.6388299999999
 30
0.0
 11
741.13819499999988
 21
2362.2705460000002
 31
0.0
  0
LINE
  5
25D
  8
LAYER01
  6
CONTINUOUS
 62
     7
 10
728.16388099999995
 20
2358.1350670000002
 30
0.0
 11
735.69305199999985
 21
2365.6642379999998
 31
0.0
  0
LINE
  5
25E
  8
LAYER01
  6
CONTINUOUS
 62
     7
 10
722.95179800000005
 20
2361.7618179999999
 30
0.0
 11
730.39825399999995
 21
2369.2082740000001
 31
0.0
  0
LINE
  5
25F
  8
LAYER01
  6
CONTINUOUS
 62
     7
 10
717.86824799999988
 20
2365.517104
 30
0.0
 11
725.25092999999993
 21
2372.8997850000001
 31
0.0
  0
LINE
  5
260
  8
LAYER01
  6
CONTINUOUS
 62
     7
 10
712.91160600000001
 20
2369.399296
 30
0.0
 11
720.24874899999998
 21
2376.7364389999998
 31
0.0
  0
LINE
  5
261
  8
LAYER01
  6
CONTINUOUS
 62
     7
 10
708.08057299999996
 20
2373.4070980000001
 30
0.0
 11
715.38988099999995
 21
2380.7164050000001
 31
0.0
  0
LINE
  5
262
  8
LAYER01
  6
CONTINUOUS
 62
     7
 10
703.37416900000005
 20
2377.5395279999998
 30
0.0
 11
710.67296399999998
 21
2384.8383229999999
 31
0.0
  0
LINE
  5
263
  8
LAYER01
  6
CONTINUOUS
 62
     7
 10
698.79171500000007
 20
2381.7959089999999
 30
0.0
 11
706.09708699999999
 21
2389.1012820000001
 31
0.0
  0
LINE
  5
264
  8
LAYER01
  6
CONTINUOUS
 62
     7
 10
694.33282699999995
 20
2386.1758559999998
 30
0.0
 11
701.66177500000003
 21
2393.5048040000001
 31
0.0
  0
LINE
  5
265
  8
LAYER01
  6
CONTINUOUS
 62
     7
 10
689.99741299999994
 20
2390.6792770000002
 30
0.0
 11
697.36697900000001
 21
2398.048843
 31
0.0
  0
LINE
  5
266
  8
LAYER01
  6
CONTINUOUS
 62
     7
 10
685.78567099999998
 20
2395.3063689999999
 30
0.0
 11
693.213078
 21
2402.733776
 31
0.0
  0
LINE
  5
267
  8
LAYER01
  6
CONTINUOUS
 62
     7
 10
681.69808899999987
 20
2400.0576219999998
 30
0.0
 11
689.20088399999986
 21
2407.5604170000001
 31
0.0
  0
LINE
  5
268
  8
LAYER01
  6
CONTINUOUS
 62
     7
 10
677.73545300000001
 20
2404.9338210000001
 30
0.0
 11
685.33165299999996
 21
2412.530021
 31
0.0
  0
LINE
  5
269
  8
LAYER01
  6
CONTINUOUS
 62
     7
 10
673.89885800000002
 20
2409.9360609999999
 30
0.0
 11
681.60710900000004
 21
2417.644311
 31
0.0
  0
LINE
  5
26A
  8
LAYER01
  6
CONTINUOUS
 62
     7
 10
670.18971799999986
 20
2415.0657550000001
 30
0.0
 11
678.02946499999996
 21
2422.905503
 31
0.0
  0
LINE
  5
26B
  8
LAYER01
  6
CONTINUOUS
 62
     7
 10
666.60978399999988
 20
2420.3246559999998
 30
0.0
 11
674.60146799999995
 21
2428.3163399999999
 31
0.0
  0
LINE
  5
26C
  8
LAYER01
  6
CONTINUOUS
 62
     7
 10
663.16116899999997
 20
2425.7148769999999
 30
0.0
 11
671.32643600000006
 21
2433.8801429999999
 31
0.0
  0
LINE
  5
26D
  8
LAYER01
  6
CONTINUOUS
 62
     7
 10
627.87770699999999
 20
2390.4314140000001
 30
0.0
 11
636.48961799999995
 21
2399.0433250000001
 31
0.0
  0
LINE
  5
26E
  8
LAYER01
  6
CONTINUOUS
 62
     7
 10
659.84637499999985
 20
2431.2389170000001
 30
0.0
 11
668.20832699999994
 21
2439.6008689999999
 31
0.0
  0
LINE
  5
26F
  8
LAYER01
  6
CONTINUOUS
 62
     7
 10
623.383644
 20
2394.7761860000001
 30
0.0
 11
636.51761099999999
 21
2407.9101529999998
 31
0.0
  0
LINE
  5
270
  8
LAYER01
  6
CONTINUOUS
 62
     7
 10
656.66832399999987
 20
2436.8996999999999
 30
0.0
 11
665.25180699999999
 21
2445.4831840000002
 31
0.0
  0
LINE
  5
271
  8
LAYER01
  6
CONTINUOUS
 62
     7
 10
623.383644
 20
2403.6150200000002
 30
0.0
 11
636.54560300000003
 21
2416.7769800000001
 31
0.0
  0
LINE
  5
272
  8
LAYER01
  6
CONTINUOUS
 62
     7
 10
653.630404
 20
2442.7006160000001
 30
0.0
 11
662.46234700000002
 21
2451.5325590000002
 31
0.0
  0
LINE
  5
273
  8
LAYER01
  6
CONTINUOUS
 62
     7
 10
623.383644
 20
2412.4538550000011
 30
0.0
 11
636.57359599999995
 21
2425.6438069999999
 31
0.0
  0
LINE
  5
274
  8
LAYER01
  6
CONTINUOUS
 62
     7
 10
650.73652000000004
 20
2448.6455660000001
 30
0.0
 11
659.84633700000006
 21
2457.7553830000002
 31
0.0
  0
LINE
  5
275
  8
LAYER01
  6
CONTINUOUS
 62
     7
 10
623.383644
 20
2421.2926900000002
 30
0.0
 11
636.60158799999988
 21
2434.5106350000001
 31
0.0
  0
LINE
  5
276
  8
LAYER01
  6
CONTINUOUS
 62
     7
 10
647.99115199999994
 20
2454.7390329999998
 30
0.0
 11
657.41123300000004
 21
2464.159114
 31
0.0
  0
LINE
  5
277
  8
LAYER01
  6
CONTINUOUS
 62
     7
 10
623.383644
 20
2430.1315249999998
 30
0.0
 11
636.62958099999992
 21
2443.3774619999999
 31
0.0
  0
LINE
  5
278
  8
LAYER01
  6
CONTINUOUS
 62
     7
 10
642.51707099999987
 20
2458.103787
 30
0.0
 11
654.41336100000001
 21
2470.0000770000001
 31
0.0
  0
LINE
  5
279
  8
LAYER01
  6
CONTINUOUS
 62
     7
 10
623.383644
 20
2438.9703589999999
 30
0.0
 11
636.65757399999995
 21
2452.2442890000011
 31
0.0
  0
LINE
  5
27A
  8
LAYER01
  6
CONTINUOUS
 62
     7
 10
623.383644
 20
2447.8091939999999
 30
0.0
 11
645.85418600000003
 21
2470.2797369999998
 31
0.0
  0
LINE
  5
27B
  8
LAYER01
  6
CONTINUOUS
 62
     7
 10
623.383644
 20
2456.648029
 30
0.0
 11
637.01535100000001
 21
2470.2797369999998
 31
0.0
  0
LINE
  5
27C
  8
LAYER01
  6
CONTINUOUS
 62
     7
 10
623.38812299999995
 20
2465.4913430000001
 30
0.0
 11
628.17203700000005
 21
2470.2752569999998
 31
0.0
  0
ENDBLK
  5
27D
  8
0
  0
BLOCK
  8
0
  2
*D26
 70
     1
 10
0.0
 20
0.0
 30
0.0
  3
*D26
  1

  0
LINE
  5
280
  8
LAYER01
 62
     7
 10
522.85963200000003
 20
2390.4314140000001
 30
0.0
 11
522.85963200000003
 21
2470.4314140000001
 31
0.0
  0
LINE
  5
281
  8
LAYER01
 62
     7
 10
603.38364399999989
 20
2390.4314140000001
 30
0.0
 11
497.85963199999998
 21
2390.4314140000001
 31
0.0
  0
LINE
  5
282
  8
LAYER01
 62
     7
 10
603.38364399999989
 20
2470.4314140000001
 30
0.0
 11
497.85963199999998
 21
2470.4314140000001
 31
0.0
  0
SOLID
  5
283
  8
LAYER01
 62
     7
 10
529.52603199999987
 20
2430.4314140000001
 30
0.0
 11
522.85963200000003
 21
2390.4314140000001
 31
0.0
 12
516.19323199999997
 22
2430.4314140000001
 32
0.0
 13
516.19323199999997
 23
2430.4314140000001
 33
0.0
  0
SOLID
  5
284
  8
LAYER01
 62
     7
 10
529.52603199999987
 20
2430.4314140000001
 30
0.0
 11
522.85963200000003
 21
2470.4314140000001
 31
0.0
 12
516.19323199999997
 22
2430.4314140000001
 32
0.0
 13
516.19323199999997
 23
2430.4314140000001
 33
0.0
  0
TEXT
  5
285
  8
LAYER01
  6
CONTINUOUS
 62
     7
 10
497.85963199999998
 20
2405.187038
 30
0.0
 40
50.0
  1
80
 50
90.0
  0
POINT
  5
286
  8
LAYER01
 62
     7
 10
623.383644
 20
2390.4314140000001
 30
0.0
  0
POINT
  5
287
  8
LAYER01
 62
     7
 10
623.383644
 20
2470.4314140000001
 30
0.0
  0
POINT
  5
288
  8
LAYER01
 62
     7
 10
522.85963200000003
 20
2470.4314140000001
 30
0.0
  0
ENDBLK
  5
289
  8
0
  0
BLOCK
  8
0
  2
_DOTSMALL
 70
     0
 10
0.0
 20
0.0
 30
0.0
  3
_DOTSMALL
  1

  0
POLYLINE
  5
343
  8
0
  6
BYBLOCK
 62
     0
 66
     1
 10
0.0
 20
0.0
 30
0.0
 70
     1
 40
0.5
 41
0.5
  0
VERTEX
  5
63A
  8
0
  6
BYBLOCK
 62
     0
 10
-0.0625
 20
0.0
 30
0.0
 42
1.0
  0
VERTEX
  5
63B
  8
0
  6
BYBLOCK
 62
     0
 10
0.0625
 20
0.0
 30
0.0
 42
1.0
  0
SEQEND
  5
63C
  8
0
  6
BYBLOCK
 62
     0
  0
ENDBLK
  5
344
  8
0
  0
BLOCK
  8
0
  2
DEFAULT2-G7
 70
     0
 10
0.0
 20
0.0
 30
0.0
  3
DEFAULT2-G7
  1

  0
TEXT
  5
347
  8
LAYER01
  6
VERDECKT
 62
     1
 10
3286.9151940000002
 20
511.13932199999999
 30
0.0
 40
14.0
  1
A. Sprenger GmbH
  7
SIMPLEX
  0
TEXT
  5
348
  8
LAYER01
  6
VERDECKT
 62
     1
 10
3286.9151940000002
 20
487.13932199999988
 30
0.0
 40
14.0
  1
Berner Str. 10
  7
SIMPLEX
  0
TEXT
  5
349
  8
LAYER01
  6
VERDECKT
 62
     1
 10
3286.9151940000002
 20
463.13932199999988
 30
0.0
 40
14.0
  1
60437 Frankfurt
  7
SIMPLEX
  0
TEXT
  5
34A
  8
LAYER01
  6
VERDECKT
 62
     1
 10
3286.9151940000002
 20
439.13932199999999
 30
0.0
 40
14.0
  1
Tel.: 069 - 507 27 41
  7
SIMPLEX
  0
TEXT
  5
34B
  8
LAYER01
  6
VERDECKT
 62
     1
 10
3286.9151940000002
 20
415.13932199999999
 30
0.0
 40
14.0
  1
Fax: 069 - 507 72 91
  7
SIMPLEX
  0
TEXT
  5
34C
  8
LAYER01
  6
VERDECKT
 62
     1
 10
3286.9151940000002
 20
391.13932199999999
 30
0.0
 40
14.0
  1
info@varicor.org
  7
SIMPLEX
  0
ENDBLK
  5
34D
  8
0
  0
BLOCK
  8
0
  2
DEFAULT2-G6
 70
     0
 10
0.0
 20
0.0
 30
0.0
  3
DEFAULT2-G6
  1

  0
TEXT
  5
350
  8
LAYER01
  6
CONTINUOUS
 62
     1
 10
4758.0610299999989
 20
182.02706000000001
 30
0.0
 40
14.0
  1
Blatt
  7
SIMPLEX
  0
LINE
  5
351
  8
LAYER01
  6
CONTINUOUS
 62
     1
 10
3267.0610300000012
 20
280.02706000000001
 30
0.0
 11
4107.0610299999989
 21
280.02706000000001
 31
0.0
  0
LINE
  5
352
  8
LAYER01
  6
CONTINUOUS
 62
     1
 10
3267.0610300000012
 20
245.02706000000001
 30
0.0
 11
4107.0610299999989
 21
245.02706000000001
 31
0.0
  0
LINE
  5
353
  8
LAYER01
  6
CONTINUOUS
 62
     1
 10
3267.0610300000012
 20
210.02706000000001
 30
0.0
 11
4849.0610299999998
 21
210.02706000000001
 31
0.0
  0
LINE
  5
354
  8
LAYER01
  6
CONTINUOUS
 62
     1
 10
3267.0610300000012
 20
105.02706000000001
 30
0.0
 11
4849.0610299999998
 21
105.02706000000001
 31
0.0
  0
LINE
  5
355
  8
LAYER01
  6
CONTINUOUS
 62
     1
 10
3267.0610300000012
 20
385.02706000000001
 30
0.0
 11
4849.0610299999998
 21
385.02706000000001
 31
0.0
  0
POLYLINE
  5
356
  8
LAYER01
  6
CONTINUOUS
 62
     1
 66
     1
 10
0.0
 20
0.0
 30
0.0
 70
     1
  0
VERTEX
  5
63D
  8
LAYER01
  6
CONTINUOUS
 62
     1
 10
3267.0610300000012
 20
63.027059999999999
 30
0.0
  0
VERTEX
  5
63E
  8
LAYER01
  6
CONTINUOUS
 62
     1
 10
3267.0610300000012
 20
532.02705999999989
 30
0.0
  0
VERTEX
  5
63F
  8
LAYER01
  6
CONTINUOUS
 62
     1
 10
4849.0610299999998
 20
532.02705999999989
 30
0.0
  0
VERTEX
  5
640
  8
LAYER01
  6
CONTINUOUS
 62
     1
 10
4849.0610299999998
 20
63.027059999999999
 30
0.0
  0
SEQEND
  5
641
  8
LAYER01
  6
CONTINUOUS
 62
     1
  0
LINE
  5
357
  8
LAYER01
  6
CONTINUOUS
 62
     1
 10
3267.0610300000012
 20
350.02706000000001
 30
0.0
 11
4107.0610299999989
 21
350.02706000000001
 31
0.0
  0
LINE
  5
358
  8
LAYER01
  6
CONTINUOUS
 62
     1
 10
3267.0610300000012
 20
315.02706000000001
 30
0.0
 11
4107.0610299999989
 21
315.02706000000001
 31
0.0
  0
LINE
  5
359
  8
LAYER01
  6
CONTINUOUS
 62
     1
 10
3722.0610299999998
 20
532.02705999999989
 30
0.0
 11
3722.0610299999998
 21
63.027059999999999
 31
0.0
  0
INSERT
  5
35A
  8
LAYER01
  2
DEFAULT2-G7
 10
0.0
 20
0.0
 30
0.0
  0
LINE
  5
35B
  8
LAYER01
  6
CONTINUOUS
 62
     1
 10
3267.0610300000012
 20
140.02706000000001
 30
0.0
 11
3722.0610299999998
 21
140.02706000000001
 31
0.0
  0
LINE
  5
35C
  8
LAYER01
  6
CONTINUOUS
 62
     1
 10
3267.0610300000012
 20
175.02706000000001
 30
0.0
 11
3722.0610299999998
 21
175.02706000000001
 31
0.0
  0
LINE
  5
35D
  8
LAYER01
  6
CONTINUOUS
 62
     1
 10
3330.0610299999998
 20
385.02706000000001
 30
0.0
 11
3330.0610299999998
 21
63.027059999999999
 31
0.0
  0
TEXT
  5
35E
  8
LAYER01
  6
CONTINUOUS
 62
     1
 10
3278.8200019999999
 20
77.027059999999992
 30
0.0
 40
13.300000000000001
  1
Zust
  7
SIMPLEX
  0
LINE
  5
35F
  8
LAYER01
  6
CONTINUOUS
 62
     1
 10
3550.959492
 20
63.027059999999999
 30
0.0
 11
3550.959492
 21
385.02706000000001
 31
0.0
  0
LINE
  5
360
  8
LAYER01
  6
CONTINUOUS
 62
     1
 10
3659.0610299999998
 20
385.02706000000001
 30
0.0
 11
3659.0610299999998
 21
63.027059999999999
 31
0.0
  0
TEXT
  5
361
  8
LAYER01
  6
CONTINUOUS
 62
     1
 10
3391.8409890000012
 20
77.027059999999992
 30
0.0
 40
13.300000000000001
  1
Änderung
  7
SIMPLEX
  0
TEXT
  5
362
  8
LAYER01
  6
CONTINUOUS
 62
     1
 10
3570.6568330000009
 20
77.027059999999992
 30
0.0
 40
13.300000000000001
  1
Datum
  7
SIMPLEX
  0
TEXT
  5
363
  8
LAYER01
  6
CONTINUOUS
 62
     1
 10
3664.3304950000002
 20
77.027059999999992
 30
0.0
 40
13.300000000000001
  1
Name
  7
SIMPLEX
  0
LINE
  5
364
  8
LAYER01
  6
CONTINUOUS
 62
     1
 10
4849.0610299999998
 20
476.02705999999989
 30
0.0
 11
4107.0610299999989
 21
476.02705999999989
 31
0.0
  0
LINE
  5
365
  8
LAYER01
  6
CONTINUOUS
 62
     1
 10
3813.0610299999998
 20
245.02706000000001
 30
0.0
 11
3813.0610299999998
 21
385.02706000000001
 31
0.0
  0
TEXT
  5
366
  8
LAYER01
  6
CONTINUOUS
 62
     1
 10
3736.0610299999998
 20
322.02706000000001
 30
0.0
 40
14.0
  1
Bearb.
  7
SIMPLEX
  0
TEXT
  5
367
  8
LAYER01
  6
CONTINUOUS
 62
     1
 10
3736.0610299999998
 20
252.02706000000001
 30
0.0
 40
14.0
  1
Norm
  7
SIMPLEX
  0
TEXT
  5
368
  8
LAYER01
  6
CONTINUOUS
 62
     1
 10
3736.0610299999998
 20
287.02706000000001
 30
0.0
 40
14.0
  1
Gepr.
  7
SIMPLEX
  0
TEXT
  5
369
  8
LAYER01
  6
CONTINUOUS
 62
     1
 10
3848.0610299999998
 20
357.02706000000001
 30
0.0
 40
14.0
  1
Datum
  7
SIMPLEX
  0
TEXT
  5
36A
  8
LAYER01
  6
CONTINUOUS
 62
     1
 10
3988.0610299999998
 20
357.02706000000001
 30
0.0
 40
14.0
  1
Name
  7
SIMPLEX
  0
TEXT
  5
36B
  8
LAYER01
  6
CONTINUOUS
 62
     1
 10
4814.0610299999998
 20
112.02706000000001
 30
0.0
 40
14.0
  1
Bl.
  7
SIMPLEX
  0
LINE
  5
36C
  8
LAYER01
  6
CONTINUOUS
 62
     1
 10
4107.0610299999989
 20
63.027059999999999
 30
0.0
 11
4107.0610299999989
 21
532.02705999999989
 31
0.0
  0
LINE
  5
36D
  8
LAYER01
  6
CONTINUOUS
 62
     1
 10
3946.0610299999998
 20
210.02706000000001
 30
0.0
 11
3946.0610299999998
 21
532.02705999999989
 31
0.0
  0
LINE
  5
36E
  8
LAYER01
  6
CONTINUOUS
 62
     1
 10
4548.0610299999998
 20
532.02705999999989
 30
0.0
 11
4548.0610299999998
 21
476.02705999999989
 31
0.0
  0
TEXT
  5
36F
  8
LAYER01
  6
CONTINUOUS
 62
     1
 10
4122.3126299999994
 20
496.28505699999999
 30
0.0
 40
14.0
  1
Maßstab
  7
SIMPLEX
  0
LINE
  5
370
  8
LAYER01
  6
CONTINUOUS
 62
     1
 10
4744.0610299999998
 20
210.02706000000001
 30
0.0
 11
4744.0610299999998
 21
105.02706000000001
 31
0.0
  0
LINE
  5
371
  8
LAYER01
  6
CONTINUOUS
 62
     1
 10
4744.0610299999998
 20
140.02706000000001
 30
0.0
 11
4849.0610299999998
 21
140.02706000000001
 31
0.0
  0
ENDBLK
  5
372
  8
0
  0
BLOCK
  8
0
 62
     7
  2
WMF0
 70
     0
 10
0.0
 20
0.0
 30
0.0
  3
WMF0
  1

  0
POLYLINE
  5
375
  8
LAYER01
 62
     7
 66
     1
 10
0.0
 20
0.0
 30
0.0
 70
     1
  0
VERTEX
  5
376
  8
LAYER01
 62
     7
 10
2458.2645046842372
 20
7351.0038575557664
 30
0.0
  0
VERTEX
  5
377
  8
LAYER01
 62
     7
 10
2628.7570429123371
 20
7351.0038575557664
 30
0.0
  0
VERTEX
  5
378
  8
LAYER01
 62
     7
 10
2842.8639513848352
 20
6863.3158993684092
 30
0.0
  0
VERTEX
  5
379
  8
LAYER01
 62
     7
 10
3056.9708598573329
 20
7351.0038575557664
 30
0.0
  0
VERTEX
  5
37A
  8
LAYER01
 62
     7
 10
3235.3932835844148
 20
7351.0038575557664
 30
0.0
  0
VERTEX
  5
37B
  8
LAYER01
 62
     7
 10
2842.8639513848352
 20
6478.7164526678107
 30
0.0
  0
VERTEX
  5
37C
  8
LAYER01
 62
     7
 10
2458.2645046842372
 20
7351.0038575557664
 30
0.0
  0
VERTEX
  5
37D
  8
LAYER01
 62
     7
 10
2458.2645046842372
 20
7351.0038575557664
 30
0.0
  0
SEQEND
  5
37E
  8
LAYER01
 62
     7
  0
POLYLINE
  5
37F
  8
LAYER01
 62
     7
 66
     1
 10
0.0
 20
0.0
 30
0.0
 70
     1
  0
VERTEX
  5
380
  8
LAYER01
 62
     7
 10
3041.1110888593698
 20
6756.2624451321599
 30
0.0
  0
VERTEX
  5
381
  8
LAYER01
 62
     7
 10
3100.5852301017312
 20
6895.0354413643354
 30
0.0
  0
VERTEX
  5
382
  8
LAYER01
 62
     7
 10
3358.3065088186272
 20
6895.0354413643354
 30
0.0
  0
VERTEX
  5
383
  8
LAYER01
 62
     7
 10
3227.4633980854328
 20
7180.5113193276648
 30
0.0
  0
VERTEX
  5
384
  8
LAYER01
 62
     7
 10
3302.7973103257568
 20
7362.8986858042381
 30
0.0
  0
VERTEX
  5
385
  8
LAYER01
 62
     7
 10
3655.67721503043
 20
6617.4894488999853
 30
0.0
  0
VERTEX
  5
386
  8
LAYER01
 62
     7
 10
3655.67721503043
 20
7351.0038575557664
 30
0.0
  0
VERTEX
  5
387
  8
LAYER01
 62
     7
 10
4127.5054022198219
 20
7351.0038575557664
 30
0.0
  0
VERTEX
  5
388
  8
LAYER01
 62
     7
 10
4127.5054022198219
 20
7351.0038575557664
 30
0.0
  0
VERTEX
  5
389
  8
LAYER01
 62
     7
 10
4171.1197724642197
 20
7343.0739720567844
 30
0.0
  0
VERTEX
  5
38A
  8
LAYER01
 62
     7
 10
4210.7691999591279
 20
7327.2142010588213
 30
0.0
  0
VERTEX
  5
38B
  8
LAYER01
 62
     7
 10
4246.4536847045438
 20
7299.4596018123866
 30
0.0
  0
VERTEX
  5
38C
  8
LAYER01
 62
     7
 10
4278.1732267004691
 20
7271.705002565951
 30
0.0
  0
VERTEX
  5
38D
  8
LAYER01
 62
     7
 10
4305.9278259469047
 20
7236.0205178205342
 30
0.0
  0
VERTEX
  5
38E
  8
LAYER01
 62
     7
 10
4325.7525396943593
 20
7196.3710903256278
 30
0.0
  0
VERTEX
  5
38F
  8
LAYER01
 62
     7
 10
4341.6123106923224
 20
7148.7917773317413
 30
0.0
  0
VERTEX
  5
390
  8
LAYER01
 62
     7
 10
4345.577253441812
 20
7105.1774070873416
 30
0.0
  0
VERTEX
  5
391
  8
LAYER01
 62
     7
 10
4345.577253441812
 20
7105.1774070873416
 30
0.0
  0
VERTEX
  5
392
  8
LAYER01
 62
     7
 10
4345.577253441812
 20
7057.5980940934542
 30
0.0
  0
VERTEX
  5
393
  8
LAYER01
 62
     7
 10
4337.6473679428309
 20
7017.948666598546
 30
0.0
  0
VERTEX
  5
394
  8
LAYER01
 62
     7
 10
4321.7875969448678
 20
6978.2992391036396
 30
0.0
  0
VERTEX
  5
395
  8
LAYER01
 62
     7
 10
4301.9628831974142
 20
6942.6147543582238
 30
0.0
  0
VERTEX
  5
396
  8
LAYER01
 62
     7
 10
4274.2082839509794
 20
6910.8952123622976
 30
0.0
  0
VERTEX
  5
397
  8
LAYER01
 62
     7
 10
4242.4887419550541
 20
6883.1406131158628
 30
0.0
  0
VERTEX
  5
398
  8
LAYER01
 62
     7
 10
4206.8042572096374
 20
6863.3158993684092
 30
0.0
  0
VERTEX
  5
399
  8
LAYER01
 62
     7
 10
4163.1898869652387
 20
6847.4561283704461
 30
0.0
  0
VERTEX
  5
39A
  8
LAYER01
 62
     7
 10
4416.9462229326446
 20
6510.4359946637369
 30
0.0
  0
VERTEX
  5
39B
  8
LAYER01
 62
     7
 10
4416.9462229326446
 20
7351.0038575557664
 30
0.0
  0
VERTEX
  5
39C
  8
LAYER01
 62
     7
 10
4583.4738184112539
 20
7351.0038575557664
 30
0.0
  0
VERTEX
  5
39D
  8
LAYER01
 62
     7
 10
4583.4738184112539
 20
6502.506109164754
 30
0.0
  0
VERTEX
  5
39E
  8
LAYER01
 62
     7
 10
4226.628970957091
 20
6502.506109164754
 30
0.0
  0
VERTEX
  5
39F
  8
LAYER01
 62
     7
 10
3881.6789517513998
 20
6942.6147543582238
 30
0.0
  0
VERTEX
  5
3A0
  8
LAYER01
 62
     7
 10
4056.1364327289898
 20
6942.6147543582238
 30
0.0
  0
VERTEX
  5
3A1
  8
LAYER01
 62
     7
 10
4056.1364327289898
 20
6942.6147543582238
 30
0.0
  0
VERTEX
  5
3A2
  8
LAYER01
 62
     7
 10
4079.926089225934
 20
6946.5796971077143
 30
0.0
  0
VERTEX
  5
3A3
  8
LAYER01
 62
     7
 10
4103.7157457228786
 20
6954.5095826066963
 30
0.0
  0
VERTEX
  5
3A4
  8
LAYER01
 62
     7
 10
4123.5404594703332
 20
6966.404410855168
 30
0.0
  0
VERTEX
  5
3A5
  8
LAYER01
 62
     7
 10
4143.3651732177859
 20
6982.264181853131
 30
0.0
  0
VERTEX
  5
3A6
  8
LAYER01
 62
     7
 10
4155.2600014662594
 20
7002.0888956005829
 30
0.0
  0
VERTEX
  5
3A7
  8
LAYER01
 62
     7
 10
4167.1548297147301
 20
7025.878552097528
 30
0.0
  0
VERTEX
  5
3A8
  8
LAYER01
 62
     7
 10
4175.0847152137121
 20
7049.6682085944722
 30
0.0
  0
VERTEX
  5
3A9
  8
LAYER01
 62
     7
 10
4175.0847152137121
 20
7077.4228078409069
 30
0.0
  0
VERTEX
  5
3AA
  8
LAYER01
 62
     7
 10
4175.0847152137121
 20
7077.4228078409069
 30
0.0
  0
VERTEX
  5
3AB
  8
LAYER01
 62
     7
 10
4175.0847152137121
 20
7101.212464337852
 30
0.0
  0
VERTEX
  5
3AC
  8
LAYER01
 62
     7
 10
4167.1548297147301
 20
7125.0021208347962
 30
0.0
  0
VERTEX
  5
3AD
  8
LAYER01
 62
     7
 10
4159.224944215749
 20
7148.7917773317413
 30
0.0
  0
VERTEX
  5
3AE
  8
LAYER01
 62
     7
 10
4143.3651732177859
 20
7168.6164910791931
 30
0.0
  0
VERTEX
  5
3AF
  8
LAYER01
 62
     7
 10
4127.5054022198219
 20
7184.4762620771562
 30
0.0
  0
VERTEX
  5
3B0
  8
LAYER01
 62
     7
 10
4103.7157457228786
 20
7196.3710903256278
 30
0.0
  0
VERTEX
  5
3B1
  8
LAYER01
 62
     7
 10
4079.926089225934
 20
7204.3009758246098
 30
0.0
  0
VERTEX
  5
3B2
  8
LAYER01
 62
     7
 10
4056.1364327289898
 20
7208.2659185741013
 30
0.0
  0
VERTEX
  5
3B3
  8
LAYER01
 62
     7
 10
3834.099638757511
 20
7208.2659185741013
 30
0.0
  0
VERTEX
  5
3B4
  8
LAYER01
 62
     7
 10
3834.099638757511
 20
6502.506109164754
 30
0.0
  0
VERTEX
  5
3B5
  8
LAYER01
 62
     7
 10
3548.6237607941812
 20
6502.506109164754
 30
0.0
  0
VERTEX
  5
3B6
  8
LAYER01
 62
     7
 10
3429.6754783094589
 20
6756.2624451321599
 30
0.0
  0
VERTEX
  5
3B7
  8
LAYER01
 62
     7
 10
3041.1110888593698
 20
6756.2624451321599
 30
0.0
  0
VERTEX
  5
3B8
  8
LAYER01
 62
     7
 10
3041.1110888593698
 20
6756.2624451321599
 30
0.0
  0
SEQEND
  5
3B9
  8
LAYER01
 62
     7
  0
POLYLINE
  5
3BA
  8
LAYER01
 62
     7
 66
     1
 10
0.0
 20
0.0
 30
0.0
 70
     1
  0
VERTEX
  5
3BB
  8
LAYER01
 62
     7
 10
5352.6727118124509
 20
7295.4946590628961
 30
0.0
  0
VERTEX
  5
3BC
  8
LAYER01
 62
     7
 10
5245.6192575762007
 20
7160.6866055802111
 30
0.0
  0
VERTEX
  5
3BD
  8
LAYER01
 62
     7
 10
5245.6192575762007
 20
7160.6866055802111
 30
0.0
  0
VERTEX
  5
3BE
  8
LAYER01
 62
     7
 10
5209.9347728307857
 20
7184.4762620771562
 30
0.0
  0
VERTEX
  5
3BF
  8
LAYER01
 62
     7
 10
5174.250288085369
 20
7204.3009758246098
 30
0.0
  0
VERTEX
  5
3C0
  8
LAYER01
 62
     7
 10
5134.6008605904626
 20
7216.1958040730824
 30
0.0
  0
VERTEX
  5
3C1
  8
LAYER01
 62
     7
 10
5090.9864903460648
 20
7216.1958040730824
 30
0.0
  0
VERTEX
  5
3C2
  8
LAYER01
 62
     7
 10
5090.9864903460648
 20
7216.1958040730824
 30
0.0
  0
VERTEX
  5
3C3
  8
LAYER01
 62
     7
 10
5063.2318910996291
 20
7216.1958040730824
 30
0.0
  0
VERTEX
  5
3C4
  8
LAYER01
 62
     7
 10
5035.4772918531944
 20
7212.2308613235909
 30
0.0
  0
VERTEX
  5
3C5
  8
LAYER01
 62
     7
 10
5007.7226926067588
 20
7204.3009758246098
 30
0.0
  0
VERTEX
  5
3C6
  8
LAYER01
 62
     7
 10
4979.9680933603249
 20
7192.4061475761382
 30
0.0
  0
VERTEX
  5
3C7
  8
LAYER01
 62
     7
 10
4956.1784368633807
 20
7180.5113193276648
 30
0.0
  0
VERTEX
  5
3C8
  8
LAYER01
 62
     7
 10
4936.3537231159271
 20
7164.6515483297017
 30
0.0
  0
VERTEX
  5
3C9
  8
LAYER01
 62
     7
 10
4912.5640666189829
 20
7148.7917773317413
 30
0.0
  0
VERTEX
  5
3CA
  8
LAYER01
 62
     7
 10
4896.7042956210198
 20
7128.9670635842867
 30
0.0
  0
VERTEX
  5
3CB
  8
LAYER01
 62
     7
 10
4876.8795818735662
 20
7105.1774070873416
 30
0.0
  0
VERTEX
  5
3CC
  8
LAYER01
 62
     7
 10
4864.9847536250936
 20
7081.3877505903993
 30
0.0
  0
VERTEX
  5
3CD
  8
LAYER01
 62
     7
 10
4849.1249826271314
 20
7057.5980940934542
 30
0.0
  0
VERTEX
  5
3CE
  8
LAYER01
 62
     7
 10
4837.2301543786589
 20
7033.8084375965091
 30
0.0
  0
VERTEX
  5
3CF
  8
LAYER01
 62
     7
 10
4829.3002688796769
 20
7006.0538383500743
 30
0.0
  0
VERTEX
  5
3D0
  8
LAYER01
 62
     7
 10
4825.3353261301872
 20
6978.2992391036396
 30
0.0
  0
VERTEX
  5
3D1
  8
LAYER01
 62
     7
 10
4821.3703833806958
 20
6950.5446398572049
 30
0.0
  0
VERTEX
  5
3D2
  8
LAYER01
 62
     7
 10
4817.4054406312061
 20
6918.8250978612787
 30
0.0
  0
VERTEX
  5
3D3
  8
LAYER01
 62
     7
 10
4817.4054406312061
 20
6918.8250978612787
 30
0.0
  0
VERTEX
  5
3D4
  8
LAYER01
 62
     7
 10
4821.3703833806958
 20
6891.0704986148439
 30
0.0
  0
VERTEX
  5
3D5
  8
LAYER01
 62
     7
 10
4825.3353261301872
 20
6863.3158993684092
 30
0.0
  0
VERTEX
  5
3D6
  8
LAYER01
 62
     7
 10
4829.3002688796769
 20
6835.5613001219754
 30
0.0
  0
VERTEX
  5
3D7
  8
LAYER01
 62
     7
 10
4841.1950971281503
 20
6811.7716436250303
 30
0.0
  0
VERTEX
  5
3D8
  8
LAYER01
 62
     7
 10
4849.1249826271314
 20
6787.9819871280861
 30
0.0
  0
VERTEX
  5
3D9
  8
LAYER01
 62
     7
 10
4864.9847536250936
 20
6764.1923306311428
 30
0.0
  0
VERTEX
  5
3DA
  8
LAYER01
 62
     7
 10
4880.8445246230567
 20
6740.4026741341977
 30
0.0
  0
VERTEX
  5
3DB
  8
LAYER01
 62
     7
 10
4896.7042956210198
 20
6720.5779603867441
 30
0.0
  0
VERTEX
  5
3DC
  8
LAYER01
 62
     7
 10
4916.5290093684744
 20
6700.7532466392904
 30
0.0
  0
VERTEX
  5
3DD
  8
LAYER01
 62
     7
 10
4936.3537231159271
 20
6684.8934756413273
 30
0.0
  0
VERTEX
  5
3DE
  8
LAYER01
 62
     7
 10
4960.1433796128722
 20
6672.9986473928557
 30
0.0
  0
VERTEX
  5
3DF
  8
LAYER01
 62
     7
 10
4983.9330361098146
 20
6661.103819144384
 30
0.0
  0
VERTEX
  5
3E0
  8
LAYER01
 62
     7
 10
5011.6876353562502
 20
6649.2089908959106
 30
0.0
  0
VERTEX
  5
3E1
  8
LAYER01
 62
     7
 10
5035.4772918531944
 20
6641.2791053969304
 30
0.0
  0
VERTEX
  5
3E2
  8
LAYER01
 62
     7
 10
5063.2318910996291
 20
6637.3141626474389
 30
0.0
  0
VERTEX
  5
3E3
  8
LAYER01
 62
     7
 10
5094.9514330955553
 20
6637.3141626474389
 30
0.0
  0
VERTEX
  5
3E4
  8
LAYER01
 62
     7
 10
5094.9514330955553
 20
6637.3141626474389
 30
0.0
  0
VERTEX
  5
3E5
  8
LAYER01
 62
     7
 10
5138.5658033399532
 20
6641.2791053969304
 30
0.0
  0
VERTEX
  5
3E6
  8
LAYER01
 62
     7
 10
5174.250288085369
 20
6649.2089908959106
 30
0.0
  0
VERTEX
  5
3E7
  8
LAYER01
 62
     7
 10
5209.9347728307857
 20
6669.0337046433651
 30
0.0
  0
VERTEX
  5
3E8
  8
LAYER01
 62
     7
 10
5245.6192575762007
 20
6692.8233611403102
 30
0.0
  0
VERTEX
  5
3E9
  8
LAYER01
 62
     7
 10
5348.7077690629603
 20
6554.0503649081338
 30
0.0
  0
VERTEX
  5
3EA
  8
LAYER01
 62
     7
 10
5348.7077690629603
 20
6554.0503649081338
 30
0.0
  0
VERTEX
  5
3EB
  8
LAYER01
 62
     7
 10
5289.2336278206003
 20
6518.365880162718
 30
0.0
  0
VERTEX
  5
3EC
  8
LAYER01
 62
     7
 10
5257.5140858246741
 20
6506.4710519142463
 30
0.0
  0
VERTEX
  5
3ED
  8
LAYER01
 62
     7
 10
5229.7594865782394
 20
6494.5762236657738
 30
0.0
  0
VERTEX
  5
3EE
  8
LAYER01
 62
     7
 10
5198.0399445823132
 20
6486.6463381667918
 30
0.0
  0
VERTEX
  5
3EF
  8
LAYER01
 62
     7
 10
5166.3204025863879
 20
6482.6813954173012
 30
0.0
  0
VERTEX
  5
3F0
  8
LAYER01
 62
     7
 10
5094.9514330955553
 20
6478.7164526678107
 30
0.0
  0
VERTEX
  5
3F1
  8
LAYER01
 62
     7
 10
5094.9514330955553
 20
6478.7164526678107
 30
0.0
  0
VERTEX
  5
3F2
  8
LAYER01
 62
     7
 10
5047.372120101667
 20
6482.6813954173012
 30
0.0
  0
VERTEX
  5
3F3
  8
LAYER01
 62
     7
 10
5003.7577498572691
 20
6490.6112809162832
 30
0.0
  0
VERTEX
  5
3F4
  8
LAYER01
 62
     7
 10
4960.1433796128722
 20
6498.5411664152653
 30
0.0
  0
VERTEX
  5
3F5
  8
LAYER01
 62
     7
 10
4920.493952117964
 20
6514.4009374132283
 30
0.0
  0
VERTEX
  5
3F6
  8
LAYER01
 62
     7
 10
4880.8445246230567
 20
6534.2256511606811
 30
0.0
  0
VERTEX
  5
3F7
  8
LAYER01
 62
     7
 10
4845.16003987764
 20
6554.0503649081338
 30
0.0
  0
VERTEX
  5
3F8
  8
LAYER01
 62
     7
 10
4809.4755551322241
 20
6581.8049641545704
 30
0.0
  0
VERTEX
  5
3F9
  8
LAYER01
 62
     7
 10
4777.7560131362989
 20
6609.5595634010042
 30
0.0
  0
VERTEX
  5
3FA
  8
LAYER01
 62
     7
 10
4746.0364711403727
 20
6641.2791053969304
 30
0.0
  0
VERTEX
  5
3FB
  8
LAYER01
 62
     7
 10
4722.2468146434294
 20
6676.9635901423471
 30
0.0
  0
VERTEX
  5
3FC
  8
LAYER01
 62
     7
 10
4698.4571581464843
 20
6712.648074887763
 30
0.0
  0
VERTEX
  5
3FD
  8
LAYER01
 62
     7
 10
4678.6324443990306
 20
6752.2975023826693
 30
0.0
  0
VERTEX
  5
3FE
  8
LAYER01
 62
     7
 10
4666.737616150559
 20
6791.9469298775757
 30
0.0
  0
VERTEX
  5
3FF
  8
LAYER01
 62
     7
 10
4654.8427879020874
 20
6835.5613001219754
 30
0.0
  0
VERTEX
  5
400
  8
LAYER01
 62
     7
 10
4646.9129024031054
 20
6879.1756703663723
 30
0.0
  0
VERTEX
  5
401
  8
LAYER01
 62
     7
 10
4642.9479596536139
 20
6926.7549833602607
 30
0.0
  0
VERTEX
  5
402
  8
LAYER01
 62
     7
 10
4642.9479596536139
 20
6926.7549833602607
 30
0.0
  0
VERTEX
  5
403
  8
LAYER01
 62
     7
 10
4646.9129024031054
 20
6970.3693536046594
 30
0.0
  0
VERTEX
  5
404
  8
LAYER01
 62
     7
 10
4654.8427879020874
 20
7017.948666598546
 30
0.0
  0
VERTEX
  5
405
  8
LAYER01
 62
     7
 10
4662.7726734010676
 20
7057.5980940934542
 30
0.0
  0
VERTEX
  5
406
  8
LAYER01
 62
     7
 10
4678.6324443990306
 20
7101.212464337852
 30
0.0
  0
VERTEX
  5
407
  8
LAYER01
 62
     7
 10
4698.4571581464843
 20
7140.8618918327593
 30
0.0
  0
VERTEX
  5
408
  8
LAYER01
 62
     7
 10
4718.2818718939379
 20
7176.5463765781742
 30
0.0
  0
VERTEX
  5
409
  8
LAYER01
 62
     7
 10
4746.0364711403727
 20
7212.2308613235909
 30
0.0
  0
VERTEX
  5
40A
  8
LAYER01
 62
     7
 10
4773.7910703868083
 20
7243.950403319518
 30
0.0
  0
VERTEX
  5
40B
  8
LAYER01
 62
     7
 10
4805.5106123827327
 20
7271.705002565951
 30
0.0
  0
VERTEX
  5
40C
  8
LAYER01
 62
     7
 10
4841.1950971281503
 20
7299.4596018123866
 30
0.0
  0
VERTEX
  5
40D
  8
LAYER01
 62
     7
 10
4876.8795818735662
 20
7319.2843155598412
 30
0.0
  0
VERTEX
  5
40E
  8
LAYER01
 62
     7
 10
4916.5290093684744
 20
7339.1090293072939
 30
0.0
  0
VERTEX
  5
40F
  8
LAYER01
 62
     7
 10
4956.1784368633807
 20
7354.968800305257
 30
0.0
  0
VERTEX
  5
410
  8
LAYER01
 62
     7
 10
4999.7928071077786
 20
7366.8636285537286
 30
0.0
  0
VERTEX
  5
411
  8
LAYER01
 62
     7
 10
5047.372120101667
 20
7370.8285713032201
 30
0.0
  0
VERTEX
  5
412
  8
LAYER01
 62
     7
 10
5090.9864903460648
 20
7374.7935140527097
 30
0.0
  0
VERTEX
  5
413
  8
LAYER01
 62
     7
 10
5090.9864903460648
 20
7374.7935140527097
 30
0.0
  0
VERTEX
  5
414
  8
LAYER01
 62
     7
 10
5162.3554598368983
 20
7370.8285713032201
 30
0.0
  0
VERTEX
  5
415
  8
LAYER01
 62
     7
 10
5198.0399445823132
 20
7366.8636285537286
 30
0.0
  0
VERTEX
  5
416
  8
LAYER01
 62
     7
 10
5229.7594865782394
 20
7358.9337430547466
 30
0.0
  0
VERTEX
  5
417
  8
LAYER01
 62
     7
 10
5257.5140858246741
 20
7347.038914806275
 30
0.0
  0
VERTEX
  5
418
  8
LAYER01
 62
     7
 10
5289.2336278206003
 20
7335.1440865578043
 30
0.0
  0
VERTEX
  5
419
  8
LAYER01
 62
     7
 10
5320.9531698165256
 20
7315.3193728103497
 30
0.0
  0
VERTEX
  5
41A
  8
LAYER01
 62
     7
 10
5352.6727118124509
 20
7295.4946590628961
 30
0.0
  0
VERTEX
  5
41B
  8
LAYER01
 62
     7
 10
5352.6727118124509
 20
7295.4946590628961
 30
0.0
  0
SEQEND
  5
41C
  8
LAYER01
 62
     7
  0
POLYLINE
  5
41D
  8
LAYER01
 62
     7
 66
     1
 10
0.0
 20
0.0
 30
0.0
 70
     1
  0
VERTEX
  5
41E
  8
LAYER01
 62
     7
 10
5737.2721585130494
 20
7370.8285713032201
 30
0.0
  0
VERTEX
  5
41F
  8
LAYER01
 62
     7
 10
5737.2721585130494
 20
7370.8285713032201
 30
0.0
  0
VERTEX
  5
420
  8
LAYER01
 62
     7
 10
5693.6577882686524
 20
7366.8636285537286
 30
0.0
  0
VERTEX
  5
421
  8
LAYER01
 62
     7
 10
5646.0784752747632
 20
7362.8986858042381
 30
0.0
  0
VERTEX
  5
422
  8
LAYER01
 62
     7
 10
5606.429047779855
 20
7351.0038575557664
 30
0.0
  0
VERTEX
  5
423
  8
LAYER01
 62
     7
 10
5562.814677535458
 20
7335.1440865578043
 30
0.0
  0
VERTEX
  5
424
  8
LAYER01
 62
     7
 10
5523.1652500405517
 20
7319.2843155598412
 30
0.0
  0
VERTEX
  5
425
  8
LAYER01
 62
     7
 10
5487.4807652951349
 20
7295.4946590628961
 30
0.0
  0
VERTEX
  5
426
  8
LAYER01
 62
     7
 10
5451.7962805497182
 20
7271.705002565951
 30
0.0
  0
VERTEX
  5
427
  8
LAYER01
 62
     7
 10
5420.0767385537929
 20
7239.9854605700266
 30
0.0
  0
VERTEX
  5
428
  8
LAYER01
 62
     7
 10
5392.3221393073582
 20
7208.2659185741013
 30
0.0
  0
VERTEX
  5
429
  8
LAYER01
 62
     7
 10
5364.5675400609243
 20
7176.5463765781742
 30
0.0
  0
VERTEX
  5
42A
  8
LAYER01
 62
     7
 10
5340.7778835639801
 20
7140.8618918327593
 30
0.0
  0
VERTEX
  5
42B
  8
LAYER01
 62
     7
 10
5320.9531698165256
 20
7101.212464337852
 30
0.0
  0
VERTEX
  5
42C
  8
LAYER01
 62
     7
 10
5309.0583415680539
 20
7057.5980940934542
 30
0.0
  0
VERTEX
  5
42D
  8
LAYER01
 62
     7
 10
5297.1635133195814
 20
7017.948666598546
 30
0.0
  0
VERTEX
  5
42E
  8
LAYER01
 62
     7
 10
5289.2336278206003
 20
6970.3693536046594
 30
0.0
  0
VERTEX
  5
42F
  8
LAYER01
 62
     7
 10
5285.2686850711088
 20
6926.7549833602607
 30
0.0
  0
VERTEX
  5
430
  8
LAYER01
 62
     7
 10
5285.2686850711088
 20
6926.7549833602607
 30
0.0
  0
VERTEX
  5
431
  8
LAYER01
 62
     7
 10
5289.2336278206003
 20
6879.1756703663723
 30
0.0
  0
VERTEX
  5
432
  8
LAYER01
 62
     7
 10
5293.1985705700909
 20
6835.5613001219754
 30
0.0
  0
VERTEX
  5
433
  8
LAYER01
 62
     7
 10
5305.0933988185634
 20
6791.9469298775757
 30
0.0
  0
VERTEX
  5
434
  8
LAYER01
 62
     7
 10
5320.9531698165256
 20
6752.2975023826693
 30
0.0
  0
VERTEX
  5
435
  8
LAYER01
 62
     7
 10
5336.8129408144878
 20
6712.648074887763
 30
0.0
  0
VERTEX
  5
436
  8
LAYER01
 62
     7
 10
5360.602597311432
 20
6676.9635901423471
 30
0.0
  0
VERTEX
  5
437
  8
LAYER01
 62
     7
 10
5384.3922538083762
 20
6641.2791053969304
 30
0.0
  0
VERTEX
  5
438
  8
LAYER01
 62
     7
 10
5412.1468530548118
 20
6609.5595634010042
 30
0.0
  0
VERTEX
  5
439
  8
LAYER01
 62
     7
 10
5443.8663950507362
 20
6577.8400214050789
 30
0.0
  0
VERTEX
  5
43A
  8
LAYER01
 62
     7
 10
5479.5508797961529
 20
6554.0503649081338
 30
0.0
  0
VERTEX
  5
43B
  8
LAYER01
 62
     7
 10
5515.2353645415697
 20
6530.2607084111914
 30
0.0
  0
VERTEX
  5
43C
  8
LAYER01
 62
     7
 10
5554.8847920364769
 20
6510.4359946637369
 30
0.0
  0
VERTEX
  5
43D
  8
LAYER01
 62
     7
 10
5594.5342195313842
 20
6494.5762236657738
 30
0.0
  0
VERTEX
  5
43E
  8
LAYER01
 62
     7
 10
5638.1485897757821
 20
6486.6463381667918
 30
0.0
  0
VERTEX
  5
43F
  8
LAYER01
 62
     7
 10
5681.762960020179
 20
6478.7164526678107
 30
0.0
  0
VERTEX
  5
440
  8
LAYER01
 62
     7
 10
5725.3773302645768
 20
6474.7515099183202
 30
0.0
  0
VERTEX
  5
441
  8
LAYER01
 62
     7
 10
5725.3773302645768
 20
6474.7515099183202
 30
0.0
  0
VERTEX
  5
442
  8
LAYER01
 62
     7
 10
5772.9566432584652
 20
6478.7164526678107
 30
0.0
  0
VERTEX
  5
443
  8
LAYER01
 62
     7
 10
5816.571013502863
 20
6486.6463381667918
 30
0.0
  0
VERTEX
  5
444
  8
LAYER01
 62
     7
 10
5860.1853837472609
 20
6498.5411664152653
 30
0.0
  0
VERTEX
  5
445
  8
LAYER01
 62
     7
 10
5899.8348112421681
 20
6514.4009374132283
 30
0.0
  0
VERTEX
  5
446
  8
LAYER01
 62
     7
 10
5939.4842387370763
 20
6534.2256511606811
 30
0.0
  0
VERTEX
  5
447
  8
LAYER01
 62
     7
 10
5975.1687234824913
 20
6558.0153076576253
 30
0.0
  0
VERTEX
  5
448
  8
LAYER01
 62
     7
 10
6010.853208227908
 20
6581.8049641545704
 30
0.0
  0
VERTEX
  5
449
  8
LAYER01
 62
     7
 10
6042.5727502238333
 20
6613.5245061504938
 30
0.0
  0
VERTEX
  5
44A
  8
LAYER01
 62
     7
 10
6070.327349470268
 20
6645.2440481464209
 30
0.0
  0
VERTEX
  5
44B
  8
LAYER01
 62
     7
 10
6094.1170059672131
 20
6680.9285328918368
 30
0.0
  0
VERTEX
  5
44C
  8
LAYER01
 62
     7
 10
6113.9417197146659
 20
6716.6130176372544
 30
0.0
  0
VERTEX
  5
44D
  8
LAYER01
 62
     7
 10
6133.7664334621204
 20
6756.2624451321599
 30
0.0
  0
VERTEX
  5
44E
  8
LAYER01
 62
     7
 10
6149.6262044600826
 20
6799.8768153765577
 30
0.0
  0
VERTEX
  5
44F
  8
LAYER01
 62
     7
 10
6157.5560899590637
 20
6843.4911856209546
 30
0.0
  0
VERTEX
  5
450
  8
LAYER01
 62
     7
 10
6161.5210327085542
 20
6887.1055558653534
 30
0.0
  0
VERTEX
  5
451
  8
LAYER01
 62
     7
 10
6165.4859754580457
 20
6934.6848688592418
 30
0.0
  0
VERTEX
  5
452
  8
LAYER01
 62
     7
 10
6165.4859754580457
 20
6934.6848688592418
 30
0.0
  0
VERTEX
  5
453
  8
LAYER01
 62
     7
 10
6161.5210327085542
 20
6978.2992391036396
 30
0.0
  0
VERTEX
  5
454
  8
LAYER01
 62
     7
 10
6153.5911472095731
 20
7021.9136093480374
 30
0.0
  0
VERTEX
  5
455
  8
LAYER01
 62
     7
 10
6141.6963189611024
 20
7061.5630368429447
 30
0.0
  0
VERTEX
  5
456
  8
LAYER01
 62
     7
 10
6129.8014907126289
 20
7101.212464337852
 30
0.0
  0
VERTEX
  5
457
  8
LAYER01
 62
     7
 10
6109.9767769651762
 20
7136.8969490832678
 30
0.0
  0
VERTEX
  5
458
  8
LAYER01
 62
     7
 10
6090.1520632177217
 20
7172.5814338286846
 30
0.0
  0
VERTEX
  5
459
  8
LAYER01
 62
     7
 10
6066.3624067207766
 20
7208.2659185741013
 30
0.0
  0
VERTEX
  5
45A
  8
LAYER01
 62
     7
 10
6038.6078074743427
 20
7236.0205178205342
 30
0.0
  0
VERTEX
  5
45B
  8
LAYER01
 62
     7
 10
6006.8882654784175
 20
7263.7751170669708
 30
0.0
  0
VERTEX
  5
45C
  8
LAYER01
 62
     7
 10
5975.1687234824913
 20
7291.5297163134046
 30
0.0
  0
VERTEX
  5
45D
  8
LAYER01
 62
     7
 10
5939.4842387370763
 20
7311.3544300608592
 30
0.0
  0
VERTEX
  5
45E
  8
LAYER01
 62
     7
 10
5903.7997539916587
 20
7331.1791438083128
 30
0.0
  0
VERTEX
  5
45F
  8
LAYER01
 62
     7
 10
5864.1503264967514
 20
7347.038914806275
 30
0.0
  0
VERTEX
  5
460
  8
LAYER01
 62
     7
 10
5824.5008990018441
 20
7358.9337430547466
 30
0.0
  0
VERTEX
  5
461
  8
LAYER01
 62
     7
 10
5780.8865287574472
 20
7366.8636285537286
 30
0.0
  0
VERTEX
  5
462
  8
LAYER01
 62
     7
 10
5737.2721585130494
 20
7370.8285713032201
 30
0.0
  0
VERTEX
  5
463
  8
LAYER01
 62
     7
 10
5737.2721585130494
 20
7370.8285713032201
 30
0.0
  0
SEQEND
  5
464
  8
LAYER01
 62
     7
  0
POLYLINE
  5
465
  8
LAYER01
 62
     7
 66
     1
 10
0.0
 20
0.0
 30
0.0
 70
     1
  0
VERTEX
  5
466
  8
LAYER01
 62
     7
 10
5725.3773302645768
 20
6637.3141626474389
 30
0.0
  0
VERTEX
  5
467
  8
LAYER01
 62
     7
 10
5725.3773302645768
 20
6637.3141626474389
 30
0.0
  0
VERTEX
  5
468
  8
LAYER01
 62
     7
 10
5697.6227310181421
 20
6641.2791053969304
 30
0.0
  0
VERTEX
  5
469
  8
LAYER01
 62
     7
 10
5669.8681317717073
 20
6645.2440481464209
 30
0.0
  0
VERTEX
  5
46A
  8
LAYER01
 62
     7
 10
5642.1135325252717
 20
6649.2089908959106
 30
0.0
  0
VERTEX
  5
46B
  8
LAYER01
 62
     7
 10
5614.3589332788379
 20
6661.103819144384
 30
0.0
  0
VERTEX
  5
46C
  8
LAYER01
 62
     7
 10
5590.5692767818919
 20
6672.9986473928557
 30
0.0
  0
VERTEX
  5
46D
  8
LAYER01
 62
     7
 10
5566.7796202849486
 20
6688.8584183908179
 30
0.0
  0
VERTEX
  5
46E
  8
LAYER01
 62
     7
 10
5546.9549065374968
 20
6704.718189388781
 30
0.0
  0
VERTEX
  5
46F
  8
LAYER01
 62
     7
 10
5527.1301927900431
 20
6724.5429031362346
 30
0.0
  0
VERTEX
  5
470
  8
LAYER01
 62
     7
 10
5507.3054790425886
 20
6744.3676168836892
 30
0.0
  0
VERTEX
  5
471
  8
LAYER01
 62
     7
 10
5491.4457080446264
 20
6764.1923306311428
 30
0.0
  0
VERTEX
  5
472
  8
LAYER01
 62
     7
 10
5479.5508797961529
 20
6787.9819871280861
 30
0.0
  0
VERTEX
  5
473
  8
LAYER01
 62
     7
 10
5467.6560515476813
 20
6815.7365863745208
 30
0.0
  0
VERTEX
  5
474
  8
LAYER01
 62
     7
 10
5455.7612232992096
 20
6839.5262428714641
 30
0.0
  0
VERTEX
  5
475
  8
LAYER01
 62
     7
 10
5451.7962805497182
 20
6867.2808421178988
 30
0.0
  0
VERTEX
  5
476
  8
LAYER01
 62
     7
 10
5443.8663950507362
 20
6895.0354413643354
 30
0.0
  0
VERTEX
  5
477
  8
LAYER01
 62
     7
 10
5443.8663950507362
 20
6926.7549833602607
 30
0.0
  0
VERTEX
  5
478
  8
LAYER01
 62
     7
 10
5443.8663950507362
 20
6926.7549833602607
 30
0.0
  0
VERTEX
  5
479
  8
LAYER01
 62
     7
 10
5447.8313378002267
 20
6954.5095826066963
 30
0.0
  0
VERTEX
  5
47A
  8
LAYER01
 62
     7
 10
5451.7962805497182
 20
6982.264181853131
 30
0.0
  0
VERTEX
  5
47B
  8
LAYER01
 62
     7
 10
5459.7261660486993
 20
7010.0187810995658
 30
0.0
  0
VERTEX
  5
47C
  8
LAYER01
 62
     7
 10
5467.6560515476813
 20
7037.7733803459996
 30
0.0
  0
VERTEX
  5
47D
  8
LAYER01
 62
     7
 10
5479.5508797961529
 20
7061.5630368429447
 30
0.0
  0
VERTEX
  5
47E
  8
LAYER01
 62
     7
 10
5495.410650794116
 20
7085.3526933398889
 30
0.0
  0
VERTEX
  5
47F
  8
LAYER01
 62
     7
 10
5511.27042179208
 20
7105.1774070873416
 30
0.0
  0
VERTEX
  5
480
  8
LAYER01
 62
     7
 10
5531.0951355395327
 20
7125.0021208347962
 30
0.0
  0
VERTEX
  5
481
  8
LAYER01
 62
     7
 10
5550.9198492869864
 20
7144.826834582248
 30
0.0
  0
VERTEX
  5
482
  8
LAYER01
 62
     7
 10
5570.74456303444
 20
7160.6866055802111
 30
0.0
  0
VERTEX
  5
483
  8
LAYER01
 62
     7
 10
5594.5342195313842
 20
7176.5463765781742
 30
0.0
  0
VERTEX
  5
484
  8
LAYER01
 62
     7
 10
5622.288818777819
 20
7188.4412048266468
 30
0.0
  0
VERTEX
  5
485
  8
LAYER01
 62
     7
 10
5646.0784752747632
 20
7196.3710903256278
 30
0.0
  0
VERTEX
  5
486
  8
LAYER01
 62
     7
 10
5673.8330745211979
 20
7204.3009758246098
 30
0.0
  0
VERTEX
  5
487
  8
LAYER01
 62
     7
 10
5701.5876737676326
 20
7208.2659185741013
 30
0.0
  0
VERTEX
  5
488
  8
LAYER01
 62
     7
 10
5733.3072157635588
 20
7208.2659185741013
 30
0.0
  0
VERTEX
  5
489
  8
LAYER01
 62
     7
 10
5733.3072157635588
 20
7208.2659185741013
 30
0.0
  0
VERTEX
  5
48A
  8
LAYER01
 62
     7
 10
5761.0618150099936
 20
7204.3009758246098
 30
0.0
  0
VERTEX
  5
48B
  8
LAYER01
 62
     7
 10
5788.8164142564283
 20
7200.3360330751193
 30
0.0
  0
VERTEX
  5
48C
  8
LAYER01
 62
     7
 10
5812.6060707533716
 20
7192.4061475761382
 30
0.0
  0
VERTEX
  5
48D
  8
LAYER01
 62
     7
 10
5840.3606699998072
 20
7184.4762620771562
 30
0.0
  0
VERTEX
  5
48E
  8
LAYER01
 62
     7
 10
5860.1853837472609
 20
7172.5814338286846
 30
0.0
  0
VERTEX
  5
48F
  8
LAYER01
 62
     7
 10
5883.975040244205
 20
7156.7216628307224
 30
0.0
  0
VERTEX
  5
490
  8
LAYER01
 62
     7
 10
5903.7997539916587
 20
7140.8618918327593
 30
0.0
  0
VERTEX
  5
491
  8
LAYER01
 62
     7
 10
5923.6244677391132
 20
7125.0021208347962
 30
0.0
  0
VERTEX
  5
492
  8
LAYER01
 62
     7
 10
5939.4842387370763
 20
7105.1774070873416
 30
0.0
  0
VERTEX
  5
493
  8
LAYER01
 62
     7
 10
5955.3440097350367
 20
7081.3877505903993
 30
0.0
  0
VERTEX
  5
494
  8
LAYER01
 62
     7
 10
5971.2037807329998
 20
7061.5630368429447
 30
0.0
  0
VERTEX
  5
495
  8
LAYER01
 62
     7
 10
5983.0986089814742
 20
7037.7733803459996
 30
0.0
  0
VERTEX
  5
496
  8
LAYER01
 62
     7
 10
5991.0284944804544
 20
7010.0187810995658
 30
0.0
  0
VERTEX
  5
497
  8
LAYER01
 62
     7
 10
5998.9583799794354
 20
6986.2291246026198
 30
0.0
  0
VERTEX
  5
498
  8
LAYER01
 62
     7
 10
6002.923322728926
 20
6958.4745253561859
 30
0.0
  0
VERTEX
  5
499
  8
LAYER01
 62
     7
 10
6002.923322728926
 20
6930.7199261097512
 30
0.0
  0
VERTEX
  5
49A
  8
LAYER01
 62
     7
 10
6002.923322728926
 20
6930.7199261097512
 30
0.0
  0
VERTEX
  5
49B
  8
LAYER01
 62
     7
 10
6002.923322728926
 20
6899.0003841138259
 30
0.0
  0
VERTEX
  5
49C
  8
LAYER01
 62
     7
 10
5998.9583799794354
 20
6871.2457848673903
 30
0.0
  0
VERTEX
  5
49D
  8
LAYER01
 62
     7
 10
5994.9934372299449
 20
6843.4911856209546
 30
0.0
  0
VERTEX
  5
49E
  8
LAYER01
 62
     7
 10
5983.0986089814742
 20
6819.7015291240123
 30
0.0
  0
VERTEX
  5
49F
  8
LAYER01
 62
     7
 10
5975.1687234824913
 20
6791.9469298775757
 30
0.0
  0
VERTEX
  5
4A0
  8
LAYER01
 62
     7
 10
5959.3089524845291
 20
6768.1572733806324
 30
0.0
  0
VERTEX
  5
4A1
  8
LAYER01
 62
     7
 10
5943.449181486566
 20
6744.3676168836892
 30
0.0
  0
VERTEX
  5
4A2
  8
LAYER01
 62
     7
 10
5923.6244677391132
 20
6724.5429031362346
 30
0.0
  0
VERTEX
  5
4A3
  8
LAYER01
 62
     7
 10
5903.7997539916587
 20
6704.718189388781
 30
0.0
  0
VERTEX
  5
4A4
  8
LAYER01
 62
     7
 10
5883.975040244205
 20
6688.8584183908179
 30
0.0
  0
VERTEX
  5
4A5
  8
LAYER01
 62
     7
 10
5860.1853837472609
 20
6672.9986473928557
 30
0.0
  0
VERTEX
  5
4A6
  8
LAYER01
 62
     7
 10
5836.3957272503167
 20
6661.103819144384
 30
0.0
  0
VERTEX
  5
4A7
  8
LAYER01
 62
     7
 10
5808.641128003881
 20
6653.173933645402
 30
0.0
  0
VERTEX
  5
4A8
  8
LAYER01
 62
     7
 10
5780.8865287574472
 20
6645.2440481464209
 30
0.0
  0
VERTEX
  5
4A9
  8
LAYER01
 62
     7
 10
5753.1319295110115
 20
6641.2791053969304
 30
0.0
  0
VERTEX
  5
4AA
  8
LAYER01
 62
     7
 10
5725.3773302645768
 20
6637.3141626474389
 30
0.0
  0
VERTEX
  5
4AB
  8
LAYER01
 62
     7
 10
5725.3773302645768
 20
6637.3141626474389
 30
0.0
  0
SEQEND
  5
4AC
  8
LAYER01
 62
     7
  0
POLYLINE
  5
4AD
  8
LAYER01
 62
     7
 66
     1
 10
0.0
 20
0.0
 30
0.0
 70
     1
  0
VERTEX
  5
4AE
  8
LAYER01
 62
     7
 10
6042.5727502238333
 20
7351.0038575557664
 30
0.0
  0
VERTEX
  5
4AF
  8
LAYER01
 62
     7
 10
6462.8566816698476
 20
7351.0038575557664
 30
0.0
  0
VERTEX
  5
4B0
  8
LAYER01
 62
     7
 10
6462.8566816698476
 20
7351.0038575557664
 30
0.0
  0
VERTEX
  5
4B1
  8
LAYER01
 62
     7
 10
6510.4359946637369
 20
7343.0739720567844
 30
0.0
  0
VERTEX
  5
4B2
  8
LAYER01
 62
     7
 10
6554.0503649081338
 20
7323.2492583093299
 30
0.0
  0
VERTEX
  5
4B3
  8
LAYER01
 62
     7
 10
6589.7348496535496
 20
7299.4596018123866
 30
0.0
  0
VERTEX
  5
4B4
  8
LAYER01
 62
     7
 10
6621.4543916494758
 20
7267.7400598164604
 30
0.0
  0
VERTEX
  5
4B5
  8
LAYER01
 62
     7
 10
6649.2089908959106
 20
7236.0205178205342
 30
0.0
  0
VERTEX
  5
4B6
  8
LAYER01
 62
     7
 10
6669.0337046433651
 20
7196.3710903256278
 30
0.0
  0
VERTEX
  5
4B7
  8
LAYER01
 62
     7
 10
6680.9285328918368
 20
7148.7917773317413
 30
0.0
  0
VERTEX
  5
4B8
  8
LAYER01
 62
     7
 10
6684.8934756413273
 20
7105.1774070873416
 30
0.0
  0
VERTEX
  5
4B9
  8
LAYER01
 62
     7
 10
6684.8934756413273
 20
7105.1774070873416
 30
0.0
  0
VERTEX
  5
4BA
  8
LAYER01
 62
     7
 10
6680.9285328918368
 20
7057.5980940934542
 30
0.0
  0
VERTEX
  5
4BB
  8
LAYER01
 62
     7
 10
6672.9986473928557
 20
7017.948666598546
 30
0.0
  0
VERTEX
  5
4BC
  8
LAYER01
 62
     7
 10
6657.1388763948926
 20
6978.2992391036396
 30
0.0
  0
VERTEX
  5
4BD
  8
LAYER01
 62
     7
 10
6637.3141626474389
 20
6942.6147543582238
 30
0.0
  0
VERTEX
  5
4BE
  8
LAYER01
 62
     7
 10
6609.5595634010042
 20
6910.8952123622976
 30
0.0
  0
VERTEX
  5
4BF
  8
LAYER01
 62
     7
 10
6581.8049641545704
 20
6887.1055558653534
 30
0.0
  0
VERTEX
  5
4C0
  8
LAYER01
 62
     7
 10
6542.1555366596622
 20
6863.3158993684092
 30
0.0
  0
VERTEX
  5
4C1
  8
LAYER01
 62
     7
 10
6502.506109164754
 20
6847.4561283704461
 30
0.0
  0
VERTEX
  5
4C2
  8
LAYER01
 62
     7
 10
6760.2273878816522
 20
6502.506109164754
 30
0.0
  0
VERTEX
  5
4C3
  8
LAYER01
 62
     7
 10
6561.9802504071158
 20
6502.506109164754
 30
0.0
  0
VERTEX
  5
4C4
  8
LAYER01
 62
     7
 10
6217.0302312014246
 20
6942.6147543582238
 30
0.0
  0
VERTEX
  5
4C5
  8
LAYER01
 62
     7
 10
6411.3124259264687
 20
6942.6147543582238
 30
0.0
  0
VERTEX
  5
4C6
  8
LAYER01
 62
     7
 10
6411.3124259264687
 20
6942.6147543582238
 30
0.0
  0
VERTEX
  5
4C7
  8
LAYER01
 62
     7
 10
6435.102082423412
 20
6950.5446398572049
 30
0.0
  0
VERTEX
  5
4C8
  8
LAYER01
 62
     7
 10
6454.9267961708656
 20
6958.4745253561859
 30
0.0
  0
VERTEX
  5
4C9
  8
LAYER01
 62
     7
 10
6470.7865671688287
 20
6974.334296354149
 30
0.0
  0
VERTEX
  5
4CA
  8
LAYER01
 62
     7
 10
6486.6463381667918
 20
6990.1940673521131
 30
0.0
  0
VERTEX
  5
4CB
  8
LAYER01
 62
     7
 10
6498.5411664152653
 20
7010.0187810995658
 30
0.0
  0
VERTEX
  5
4CC
  8
LAYER01
 62
     7
 10
6510.4359946637369
 20
7029.8434948470176
 30
0.0
  0
VERTEX
  5
4CD
  8
LAYER01
 62
     7
 10
6514.4009374132283
 20
7053.6331513439627
 30
0.0
  0
VERTEX
  5
4CE
  8
LAYER01
 62
     7
 10
6514.4009374132283
 20
7077.4228078409069
 30
0.0
  0
VERTEX
  5
4CF
  8
LAYER01
 62
     7
 10
6514.4009374132283
 20
7077.4228078409069
 30
0.0
  0
VERTEX
  5
4D0
  8
LAYER01
 62
     7
 10
6514.4009374132283
 20
7101.212464337852
 30
0.0
  0
VERTEX
  5
4D1
  8
LAYER01
 62
     7
 10
6506.4710519142463
 20
7121.0371780853047
 30
0.0
  0
VERTEX
  5
4D2
  8
LAYER01
 62
     7
 10
6498.5411664152653
 20
7140.8618918327593
 30
0.0
  0
VERTEX
  5
4D3
  8
LAYER01
 62
     7
 10
6486.6463381667918
 20
7160.6866055802111
 30
0.0
  0
VERTEX
  5
4D4
  8
LAYER01
 62
     7
 10
6470.7865671688287
 20
7176.5463765781742
 30
0.0
  0
VERTEX
  5
4D5
  8
LAYER01
 62
     7
 10
6454.9267961708656
 20
7188.4412048266468
 30
0.0
  0
VERTEX
  5
4D6
  8
LAYER01
 62
     7
 10
6431.1371396739214
 20
7200.3360330751193
 30
0.0
  0
VERTEX
  5
4D7
  8
LAYER01
 62
     7
 10
6411.3124259264687
 20
7208.2659185741013
 30
0.0
  0
VERTEX
  5
4D8
  8
LAYER01
 62
     7
 10
6185.3106892054993
 20
7208.2659185741013
 30
0.0
  0
VERTEX
  5
4D9
  8
LAYER01
 62
     7
 10
6042.5727502238333
 20
7351.0038575557664
 30
0.0
  0
VERTEX
  5
4DA
  8
LAYER01
 62
     7
 10
6042.5727502238333
 20
7351.0038575557664
 30
0.0
  0
SEQEND
  5
4DB
  8
LAYER01
 62
     7
  0
POLYLINE
  5
4DC
  8
LAYER01
 62
     7
 66
     1
 10
0.0
 20
0.0
 30
0.0
 70
     1
  0
VERTEX
  5
4DD
  8
LAYER01
 62
     7
 10
6867.2808421178988
 20
7140.8618918327593
 30
0.0
  0
VERTEX
  5
4DE
  8
LAYER01
 62
     7
 10
6867.2808421178988
 20
7140.8618918327593
 30
0.0
  0
VERTEX
  5
4DF
  8
LAYER01
 62
     7
 10
6887.1055558653534
 20
7144.826834582248
 30
0.0
  0
VERTEX
  5
4E0
  8
LAYER01
 62
     7
 10
6906.930269612807
 20
7148.7917773317413
 30
0.0
  0
VERTEX
  5
4E1
  8
LAYER01
 62
     7
 10
6926.7549833602607
 20
7160.6866055802111
 30
0.0
  0
VERTEX
  5
4E2
  8
LAYER01
 62
     7
 10
6942.6147543582238
 20
7172.5814338286846
 30
0.0
  0
VERTEX
  5
4E3
  8
LAYER01
 62
     7
 10
6954.5095826066963
 20
7188.4412048266468
 30
0.0
  0
VERTEX
  5
4E4
  8
LAYER01
 62
     7
 10
6962.4394681056774
 20
7204.3009758246098
 30
0.0
  0
VERTEX
  5
4E5
  8
LAYER01
 62
     7
 10
6970.3693536046594
 20
7224.1256895720644
 30
0.0
  0
VERTEX
  5
4E6
  8
LAYER01
 62
     7
 10
6970.3693536046594
 20
7247.9153460690077
 30
0.0
  0
VERTEX
  5
4E7
  8
LAYER01
 62
     7
 10
6970.3693536046594
 20
7247.9153460690077
 30
0.0
  0
VERTEX
  5
4E8
  8
LAYER01
 62
     7
 10
6970.3693536046594
 20
7267.7400598164604
 30
0.0
  0
VERTEX
  5
4E9
  8
LAYER01
 62
     7
 10
6962.4394681056774
 20
7287.5647735639141
 30
0.0
  0
VERTEX
  5
4EA
  8
LAYER01
 62
     7
 10
6954.5095826066963
 20
7303.4245445618772
 30
0.0
  0
VERTEX
  5
4EB
  8
LAYER01
 62
     7
 10
6942.6147543582238
 20
7319.2843155598412
 30
0.0
  0
VERTEX
  5
4EC
  8
LAYER01
 62
     7
 10
6926.7549833602607
 20
7331.1791438083128
 30
0.0
  0
VERTEX
  5
4ED
  8
LAYER01
 62
     7
 10
6906.930269612807
 20
7343.0739720567844
 30
0.0
  0
VERTEX
  5
4EE
  8
LAYER01
 62
     7
 10
6887.1055558653534
 20
7347.038914806275
 30
0.0
  0
VERTEX
  5
4EF
  8
LAYER01
 62
     7
 10
6867.2808421178988
 20
7351.0038575557664
 30
0.0
  0
VERTEX
  5
4F0
  8
LAYER01
 62
     7
 10
6867.2808421178988
 20
7351.0038575557664
 30
0.0
  0
VERTEX
  5
4F1
  8
LAYER01
 62
     7
 10
6847.4561283704461
 20
7347.038914806275
 30
0.0
  0
VERTEX
  5
4F2
  8
LAYER01
 62
     7
 10
6827.6314146229934
 20
7343.0739720567844
 30
0.0
  0
VERTEX
  5
4F3
  8
LAYER01
 62
     7
 10
6807.8067008755397
 20
7331.1791438083128
 30
0.0
  0
VERTEX
  5
4F4
  8
LAYER01
 62
     7
 10
6791.9469298775757
 20
7319.2843155598412
 30
0.0
  0
VERTEX
  5
4F5
  8
LAYER01
 62
     7
 10
6780.0521016291041
 20
7303.4245445618772
 30
0.0
  0
VERTEX
  5
4F6
  8
LAYER01
 62
     7
 10
6772.122216130123
 20
7287.5647735639141
 30
0.0
  0
VERTEX
  5
4F7
  8
LAYER01
 62
     7
 10
6764.1923306311428
 20
7267.7400598164604
 30
0.0
  0
VERTEX
  5
4F8
  8
LAYER01
 62
     7
 10
6764.1923306311428
 20
7247.9153460690077
 30
0.0
  0
VERTEX
  5
4F9
  8
LAYER01
 62
     7
 10
6764.1923306311428
 20
7247.9153460690077
 30
0.0
  0
VERTEX
  5
4FA
  8
LAYER01
 62
     7
 10
6764.1923306311428
 20
7224.1256895720644
 30
0.0
  0
VERTEX
  5
4FB
  8
LAYER01
 62
     7
 10
6772.122216130123
 20
7204.3009758246098
 30
0.0
  0
VERTEX
  5
4FC
  8
LAYER01
 62
     7
 10
6780.0521016291041
 20
7188.4412048266468
 30
0.0
  0
VERTEX
  5
4FD
  8
LAYER01
 62
     7
 10
6791.9469298775757
 20
7172.5814338286846
 30
0.0
  0
VERTEX
  5
4FE
  8
LAYER01
 62
     7
 10
6807.8067008755397
 20
7160.6866055802111
 30
0.0
  0
VERTEX
  5
4FF
  8
LAYER01
 62
     7
 10
6827.6314146229934
 20
7148.7917773317413
 30
0.0
  0
VERTEX
  5
500
  8
LAYER01
 62
     7
 10
6847.4561283704461
 20
7144.826834582248
 30
0.0
  0
VERTEX
  5
501
  8
LAYER01
 62
     7
 10
6867.2808421178988
 20
7140.8618918327593
 30
0.0
  0
VERTEX
  5
502
  8
LAYER01
 62
     7
 10
6867.2808421178988
 20
7140.8618918327593
 30
0.0
  0
SEQEND
  5
503
  8
LAYER01
 62
     7
  0
POLYLINE
  5
504
  8
LAYER01
 62
     7
 66
     1
 10
0.0
 20
0.0
 30
0.0
 70
     1
  0
VERTEX
  5
505
  8
LAYER01
 62
     7
 10
6867.2808421178988
 20
7335.1440865578043
 30
0.0
  0
VERTEX
  5
506
  8
LAYER01
 62
     7
 10
6867.2808421178988
 20
7335.1440865578043
 30
0.0
  0
VERTEX
  5
507
  8
LAYER01
 62
     7
 10
6883.1406131158628
 20
7331.1791438083128
 30
0.0
  0
VERTEX
  5
508
  8
LAYER01
 62
     7
 10
6899.0003841138259
 20
7327.2142010588213
 30
0.0
  0
VERTEX
  5
509
  8
LAYER01
 62
     7
 10
6914.8601551117881
 20
7319.2843155598412
 30
0.0
  0
VERTEX
  5
50A
  8
LAYER01
 62
     7
 10
6926.7549833602607
 20
7307.3894873113677
 30
0.0
  0
VERTEX
  5
50B
  8
LAYER01
 62
     7
 10
6938.6498116087323
 20
7295.4946590628961
 30
0.0
  0
VERTEX
  5
50C
  8
LAYER01
 62
     7
 10
6946.5796971077143
 20
7279.634888064933
 30
0.0
  0
VERTEX
  5
50D
  8
LAYER01
 62
     7
 10
6954.5095826066963
 20
7263.7751170669708
 30
0.0
  0
VERTEX
  5
50E
  8
LAYER01
 62
     7
 10
6954.5095826066963
 20
7247.9153460690077
 30
0.0
  0
VERTEX
  5
50F
  8
LAYER01
 62
     7
 10
6954.5095826066963
 20
7247.9153460690077
 30
0.0
  0
VERTEX
  5
510
  8
LAYER01
 62
     7
 10
6954.5095826066963
 20
7228.0906323215549
 30
0.0
  0
VERTEX
  5
511
  8
LAYER01
 62
     7
 10
6946.5796971077143
 20
7212.2308613235909
 30
0.0
  0
VERTEX
  5
512
  8
LAYER01
 62
     7
 10
6938.6498116087323
 20
7196.3710903256278
 30
0.0
  0
VERTEX
  5
513
  8
LAYER01
 62
     7
 10
6926.7549833602607
 20
7184.4762620771562
 30
0.0
  0
VERTEX
  5
514
  8
LAYER01
 62
     7
 10
6914.8601551117881
 20
7172.5814338286846
 30
0.0
  0
VERTEX
  5
515
  8
LAYER01
 62
     7
 10
6899.0003841138259
 20
7164.6515483297017
 30
0.0
  0
VERTEX
  5
516
  8
LAYER01
 62
     7
 10
6883.1406131158628
 20
7160.6866055802111
 30
0.0
  0
VERTEX
  5
517
  8
LAYER01
 62
     7
 10
6867.2808421178988
 20
7160.6866055802111
 30
0.0
  0
VERTEX
  5
518
  8
LAYER01
 62
     7
 10
6867.2808421178988
 20
7160.6866055802111
 30
0.0
  0
VERTEX
  5
519
  8
LAYER01
 62
     7
 10
6851.4210711199376
 20
7160.6866055802111
 30
0.0
  0
VERTEX
  5
51A
  8
LAYER01
 62
     7
 10
6831.5963573724839
 20
7164.6515483297017
 30
0.0
  0
VERTEX
  5
51B
  8
LAYER01
 62
     7
 10
6819.7015291240123
 20
7172.5814338286846
 30
0.0
  0
VERTEX
  5
51C
  8
LAYER01
 62
     7
 10
6803.8417581260492
 20
7184.4762620771562
 30
0.0
  0
VERTEX
  5
51D
  8
LAYER01
 62
     7
 10
6795.9118726270672
 20
7196.3710903256278
 30
0.0
  0
VERTEX
  5
51E
  8
LAYER01
 62
     7
 10
6787.9819871280861
 20
7212.2308613235909
 30
0.0
  0
VERTEX
  5
51F
  8
LAYER01
 62
     7
 10
6780.0521016291041
 20
7228.0906323215549
 30
0.0
  0
VERTEX
  5
520
  8
LAYER01
 62
     7
 10
6780.0521016291041
 20
7247.9153460690077
 30
0.0
  0
VERTEX
  5
521
  8
LAYER01
 62
     7
 10
6780.0521016291041
 20
7247.9153460690077
 30
0.0
  0
VERTEX
  5
522
  8
LAYER01
 62
     7
 10
6780.0521016291041
 20
7263.7751170669708
 30
0.0
  0
VERTEX
  5
523
  8
LAYER01
 62
     7
 10
6787.9819871280861
 20
7279.634888064933
 30
0.0
  0
VERTEX
  5
524
  8
LAYER01
 62
     7
 10
6795.9118726270672
 20
7295.4946590628961
 30
0.0
  0
VERTEX
  5
525
  8
LAYER01
 62
     7
 10
6803.8417581260492
 20
7307.3894873113677
 30
0.0
  0
VERTEX
  5
526
  8
LAYER01
 62
     7
 10
6819.7015291240123
 20
7319.2843155598412
 30
0.0
  0
VERTEX
  5
527
  8
LAYER01
 62
     7
 10
6831.5963573724839
 20
7327.2142010588213
 30
0.0
  0
VERTEX
  5
528
  8
LAYER01
 62
     7
 10
6851.4210711199376
 20
7331.1791438083128
 30
0.0
  0
VERTEX
  5
529
  8
LAYER01
 62
     7
 10
6867.2808421178988
 20
7335.1440865578043
 30
0.0
  0
VERTEX
  5
52A
  8
LAYER01
 62
     7
 10
6867.2808421178988
 20
7335.1440865578043
 30
0.0
  0
SEQEND
  5
52B
  8
LAYER01
 62
     7
  0
POLYLINE
  5
52C
  8
LAYER01
 62
     7
 66
     1
 10
0.0
 20
0.0
 30
0.0
 70
     1
  0
VERTEX
  5
52D
  8
LAYER01
 62
     7
 10
6883.1406131158628
 20
7239.9854605700266
 30
0.0
  0
VERTEX
  5
52E
  8
LAYER01
 62
     7
 10
6883.1406131158628
 20
7239.9854605700266
 30
0.0
  0
VERTEX
  5
52F
  8
LAYER01
 62
     7
 10
6895.0354413643354
 20
7243.950403319518
 30
0.0
  0
VERTEX
  5
530
  8
LAYER01
 62
     7
 10
6906.930269612807
 20
7247.9153460690077
 30
0.0
  0
VERTEX
  5
531
  8
LAYER01
 62
     7
 10
6914.8601551117881
 20
7259.8101743174793
 30
0.0
  0
VERTEX
  5
532
  8
LAYER01
 62
     7
 10
6914.8601551117881
 20
7271.705002565951
 30
0.0
  0
VERTEX
  5
533
  8
LAYER01
 62
     7
 10
6914.8601551117881
 20
7271.705002565951
 30
0.0
  0
VERTEX
  5
534
  8
LAYER01
 62
     7
 10
6914.8601551117881
 20
7287.5647735639141
 30
0.0
  0
VERTEX
  5
535
  8
LAYER01
 62
     7
 10
6902.9653268633156
 20
7299.4596018123866
 30
0.0
  0
VERTEX
  5
536
  8
LAYER01
 62
     7
 10
6891.0704986148439
 20
7303.4245445618772
 30
0.0
  0
VERTEX
  5
537
  8
LAYER01
 62
     7
 10
6875.2107276168808
 20
7303.4245445618772
 30
0.0
  0
VERTEX
  5
538
  8
LAYER01
 62
     7
 10
6827.6314146229934
 20
7303.4245445618772
 30
0.0
  0
VERTEX
  5
539
  8
LAYER01
 62
     7
 10
6827.6314146229934
 20
7188.4412048266468
 30
0.0
  0
VERTEX
  5
53A
  8
LAYER01
 62
     7
 10
6843.4911856209546
 20
7188.4412048266468
 30
0.0
  0
VERTEX
  5
53B
  8
LAYER01
 62
     7
 10
6843.4911856209546
 20
7239.9854605700266
 30
0.0
  0
VERTEX
  5
53C
  8
LAYER01
 62
     7
 10
6867.2808421178988
 20
7239.9854605700266
 30
0.0
  0
VERTEX
  5
53D
  8
LAYER01
 62
     7
 10
6895.0354413643354
 20
7188.4412048266468
 30
0.0
  0
VERTEX
  5
53E
  8
LAYER01
 62
     7
 10
6914.8601551117881
 20
7188.4412048266468
 30
0.0
  0
VERTEX
  5
53F
  8
LAYER01
 62
     7
 10
6883.1406131158628
 20
7239.9854605700266
 30
0.0
  0
VERTEX
  5
540
  8
LAYER01
 62
     7
 10
6883.1406131158628
 20
7239.9854605700266
 30
0.0
  0
SEQEND
  5
541
  8
LAYER01
 62
     7
  0
POLYLINE
  5
542
  8
LAYER01
 62
     7
 66
     1
 10
0.0
 20
0.0
 30
0.0
 70
     1
  0
VERTEX
  5
543
  8
LAYER01
 62
     7
 10
6871.2457848673903
 20
7287.5647735639141
 30
0.0
  0
VERTEX
  5
544
  8
LAYER01
 62
     7
 10
6871.2457848673903
 20
7287.5647735639141
 30
0.0
  0
VERTEX
  5
545
  8
LAYER01
 62
     7
 10
6891.0704986148439
 20
7283.5998308144244
 30
0.0
  0
VERTEX
  5
546
  8
LAYER01
 62
     7
 10
6899.0003841138259
 20
7279.634888064933
 30
0.0
  0
VERTEX
  5
547
  8
LAYER01
 62
     7
 10
6899.0003841138259
 20
7271.705002565951
 30
0.0
  0
VERTEX
  5
548
  8
LAYER01
 62
     7
 10
6899.0003841138259
 20
7271.705002565951
 30
0.0
  0
VERTEX
  5
549
  8
LAYER01
 62
     7
 10
6895.0354413643354
 20
7263.7751170669708
 30
0.0
  0
VERTEX
  5
54A
  8
LAYER01
 62
     7
 10
6887.1055558653534
 20
7259.8101743174793
 30
0.0
  0
VERTEX
  5
54B
  8
LAYER01
 62
     7
 10
6863.3158993684092
 20
7255.8452315679879
 30
0.0
  0
VERTEX
  5
54C
  8
LAYER01
 62
     7
 10
6843.4911856209546
 20
7255.8452315679879
 30
0.0
  0
VERTEX
  5
54D
  8
LAYER01
 62
     7
 10
6843.4911856209546
 20
7287.5647735639141
 30
0.0
  0
VERTEX
  5
54E
  8
LAYER01
 62
     7
 10
6871.2457848673903
 20
7287.5647735639141
 30
0.0
  0
VERTEX
  5
54F
  8
LAYER01
 62
     7
 10
6871.2457848673903
 20
7287.5647735639141
 30
0.0
  0
SEQEND
  5
550
  8
LAYER01
 62
     7
  0
ENDBLK
  5
551
  8
0
 62
     7
  0
BLOCK
  8
0
  2
TRIGO-G1
 70
     0
 10
0.0
 20
0.0
 30
0.0
  3
TRIGO-G1
  1

  0
POLYLINE
  5
5AB
  8
LAYER01
  6
CONTINUOUS
 62
     7
 66
     1
 10
0.0
 20
0.0
 30
0.0
 70
     1
  0
VERTEX
  5
642
  8
LAYER01
  6
CONTINUOUS
 62
     7
 10
5333.4588920000006
 20
1798.015065
 30
0.0
  0
VERTEX
  5
643
  8
LAYER01
  6
CONTINUOUS
 62
     7
 10
5376.0820270000004
 20
1798.015065
 30
0.0
  0
VERTEX
  5
644
  8
LAYER01
  6
CONTINUOUS
 62
     7
 10
5429.6087539999999
 20
1676.0930760000001
 30
0.0
  0
VERTEX
  5
645
  8
LAYER01
  6
CONTINUOUS
 62
     7
 10
5483.1354810000003
 20
1798.015065
 30
0.0
  0
VERTEX
  5
646
  8
LAYER01
  6
CONTINUOUS
 62
     7
 10
5527.7410869999994
 20
1798.015065
 30
0.0
  0
VERTEX
  5
647
  8
LAYER01
  6
CONTINUOUS
 62
     7
 10
5429.6087539999999
 20
1579.9432139999999
 30
0.0
  0
VERTEX
  5
648
  8
LAYER01
  6
CONTINUOUS
 62
     7
 10
5333.4588920000006
 20
1798.015065
 30
0.0
  0
VERTEX
  5
649
  8
LAYER01
  6
CONTINUOUS
 62
     7
 10
5333.4588920000006
 20
1798.015065
 30
0.0
  0
SEQEND
  5
64A
  8
LAYER01
  6
CONTINUOUS
 62
     7
  0
POLYLINE
  5
5AC
  8
LAYER01
  6
CONTINUOUS
 62
     7
 66
     1
 10
0.0
 20
0.0
 30
0.0
 70
     1
  0
VERTEX
  5
64B
  8
LAYER01
  6
CONTINUOUS
 62
     7
 10
5479.1705380000003
 20
1649.329712
 30
0.0
  0
VERTEX
  5
64C
  8
LAYER01
  6
CONTINUOUS
 62
     7
 10
5494.0390740000003
 20
1684.0229609999999
 30
0.0
  0
VERTEX
  5
64D
  8
LAYER01
  6
CONTINUOUS
 62
     7
 10
5558.4693930000012
 20
1684.0229609999999
 30
0.0
  0
VERTEX
  5
64E
  8
LAYER01
  6
CONTINUOUS
 62
     7
 10
5525.7586160000001
 20
1755.3919310000001
 30
0.0
  0
VERTEX
  5
64F
  8
LAYER01
  6
CONTINUOUS
 62
     7
 10
5544.5920939999996
 20
1800.9887719999999
 30
0.0
  0
VERTEX
  5
650
  8
LAYER01
  6
CONTINUOUS
 62
     7
 10
5632.812069999999
 20
1614.636463
 30
0.0
  0
VERTEX
  5
651
  8
LAYER01
  6
CONTINUOUS
 62
     7
 10
5632.812069999999
 20
1798.015065
 30
0.0
  0
VERTEX
  5
652
  8
LAYER01
  6
CONTINUOUS
 62
     7
 10
5750.7691169999998
 20
1798.015065
 30
0.0
  0
VERTEX
  5
653
  8
LAYER01
  6
CONTINUOUS
 62
     7
 10
5750.7691169999998
 20
1798.015065
 30
0.0
  0
VERTEX
  5
654
  8
LAYER01
  6
CONTINUOUS
 62
     7
 10
5761.6727090000004
 20
1796.032594
 30
0.0
  0
VERTEX
  5
655
  8
LAYER01
  6
CONTINUOUS
 62
     7
 10
5771.5850659999996
 20
1792.0676510000001
 30
0.0
  0
VERTEX
  5
656
  8
LAYER01
  6
CONTINUOUS
 62
     7
 10
5780.506187
 20
1785.129001
 30
0.0
  0
VERTEX
  5
657
  8
LAYER01
  6
CONTINUOUS
 62
     7
 10
5788.4360729999989
 20
1778.190351
 30
0.0
  0
VERTEX
  5
658
  8
LAYER01
  6
CONTINUOUS
 62
     7
 10
5795.3747219999996
 20
1769.2692300000001
 30
0.0
  0
VERTEX
  5
659
  8
LAYER01
  6
CONTINUOUS
 62
     7
 10
5800.3309009999994
 20
1759.356873
 30
0.0
  0
VERTEX
  5
65A
  8
LAYER01
  6
CONTINUOUS
 62
     7
 10
5804.2958440000011
 20
1747.462045
 30
0.0
  0
VERTEX
  5
65B
  8
LAYER01
  6
CONTINUOUS
 62
     7
 10
5805.2870789999997
 20
1736.5584530000001
 30
0.0
  0
VERTEX
  5
65C
  8
LAYER01
  6
CONTINUOUS
 62
     7
 10
5805.2870789999997
 20
1736.5584530000001
 30
0.0
  0
VERTEX
  5
65D
  8
LAYER01
  6
CONTINUOUS
 62
     7
 10
5805.2870789999997
 20
1724.6636239999989
 30
0.0
  0
VERTEX
  5
65E
  8
LAYER01
  6
CONTINUOUS
 62
     7
 10
5803.3046080000004
 20
1714.7512670000001
 30
0.0
  0
VERTEX
  5
65F
  8
LAYER01
  6
CONTINUOUS
 62
     7
 10
5799.3396649999986
 20
1704.8389110000001
 30
0.0
  0
VERTEX
  5
660
  8
LAYER01
  6
CONTINUOUS
 62
     7
 10
5794.383487000001
 20
1695.9177890000001
 30
0.0
  0
VERTEX
  5
661
  8
LAYER01
  6
CONTINUOUS
 62
     7
 10
5787.444837
 20
1687.9879040000001
 30
0.0
  0
VERTEX
  5
662
  8
LAYER01
  6
CONTINUOUS
 62
     7
 10
5779.5149510000001
 20
1681.049254
 30
0.0
  0
VERTEX
  5
663
  8
LAYER01
  6
CONTINUOUS
 62
     7
 10
5770.5938299999998
 20
1676.0930760000001
 30
0.0
  0
VERTEX
  5
664
  8
LAYER01
  6
CONTINUOUS
 62
     7
 10
5759.690238000001
 20
1672.1281329999999
 30
0.0
  0
VERTEX
  5
665
  8
LAYER01
  6
CONTINUOUS
 62
     7
 10
5823.1293219999989
 20
1587.8730989999999
 30
0.0
  0
VERTEX
  5
666
  8
LAYER01
  6
CONTINUOUS
 62
     7
 10
5823.1293219999989
 20
1798.015065
 30
0.0
  0
VERTEX
  5
667
  8
LAYER01
  6
CONTINUOUS
 62
     7
 10
5864.7612209999998
 20
1798.015065
 30
0.0
  0
VERTEX
  5
668
  8
LAYER01
  6
CONTINUOUS
 62
     7
 10
5864.7612209999998
 20
1585.8906280000001
 30
0.0
  0
VERTEX
  5
669
  8
LAYER01
  6
CONTINUOUS
 62
     7
 10
5775.5500089999996
 20
1585.8906280000001
 30
0.0
  0
VERTEX
  5
66A
  8
LAYER01
  6
CONTINUOUS
 62
     7
 10
5689.3125040000004
 20
1695.9177890000001
 30
0.0
  0
VERTEX
  5
66B
  8
LAYER01
  6
CONTINUOUS
 62
     7
 10
5732.9268739999998
 20
1695.9177890000001
 30
0.0
  0
VERTEX
  5
66C
  8
LAYER01
  6
CONTINUOUS
 62
     7
 10
5732.9268739999998
 20
1695.9177890000001
 30
0.0
  0
VERTEX
  5
66D
  8
LAYER01
  6
CONTINUOUS
 62
     7
 10
5738.874288
 20
1696.9090249999999
 30
0.0
  0
VERTEX
  5
66E
  8
LAYER01
  6
CONTINUOUS
 62
     7
 10
5744.8217020000002
 20
1698.891496
 30
0.0
  0
VERTEX
  5
66F
  8
LAYER01
  6
CONTINUOUS
 62
     7
 10
5749.7778809999991
 20
1701.8652039999999
 30
0.0
  0
VERTEX
  5
670
  8
LAYER01
  6
CONTINUOUS
 62
     7
 10
5754.7340590000003
 20
1705.830146
 30
0.0
  0
VERTEX
  5
671
  8
LAYER01
  6
CONTINUOUS
 62
     7
 10
5757.7077659999986
 20
1710.786325
 30
0.0
  0
VERTEX
  5
672
  8
LAYER01
  6
CONTINUOUS
 62
     7
 10
5760.6814729999987
 20
1716.733739
 30
0.0
  0
VERTEX
  5
673
  8
LAYER01
  6
CONTINUOUS
 62
     7
 10
5762.6639450000002
 20
1722.681153
 30
0.0
  0
VERTEX
  5
674
  8
LAYER01
  6
CONTINUOUS
 62
     7
 10
5762.6639450000002
 20
1729.619803
 30
0.0
  0
VERTEX
  5
675
  8
LAYER01
  6
CONTINUOUS
 62
     7
 10
5762.6639450000002
 20
1729.619803
 30
0.0
  0
VERTEX
  5
676
  8
LAYER01
  6
CONTINUOUS
 62
     7
 10
5762.6639450000002
 20
1735.567217
 30
0.0
  0
VERTEX
  5
677
  8
LAYER01
  6
CONTINUOUS
 62
     7
 10
5760.6814729999987
 20
1741.514631
 30
0.0
  0
VERTEX
  5
678
  8
LAYER01
  6
CONTINUOUS
 62
     7
 10
5758.6990020000003
 20
1747.462045
 30
0.0
  0
VERTEX
  5
679
  8
LAYER01
  6
CONTINUOUS
 62
     7
 10
5754.7340590000003
 20
1752.418224
 30
0.0
  0
VERTEX
  5
67A
  8
LAYER01
  6
CONTINUOUS
 62
     7
 10
5750.7691169999998
 20
1756.3831660000001
 30
0.0
  0
VERTEX
  5
67B
  8
LAYER01
  6
CONTINUOUS
 62
     7
 10
5744.8217020000002
 20
1759.356873
 30
0.0
  0
VERTEX
  5
67C
  8
LAYER01
  6
CONTINUOUS
 62
     7
 10
5738.874288
 20
1761.3393450000001
 30
0.0
  0
VERTEX
  5
67D
  8
LAYER01
  6
CONTINUOUS
 62
     7
 10
5732.9268739999998
 20
1762.3305800000001
 30
0.0
  0
VERTEX
  5
67E
  8
LAYER01
  6
CONTINUOUS
 62
     7
 10
5677.4176760000009
 20
1762.3305800000001
 30
0.0
  0
VERTEX
  5
67F
  8
LAYER01
  6
CONTINUOUS
 62
     7
 10
5677.4176760000009
 20
1585.8906280000001
 30
0.0
  0
VERTEX
  5
680
  8
LAYER01
  6
CONTINUOUS
 62
     7
 10
5606.0487060000014
 20
1585.8906280000001
 30
0.0
  0
VERTEX
  5
681
  8
LAYER01
  6
CONTINUOUS
 62
     7
 10
5576.3116360000004
 20
1649.329712
 30
0.0
  0
VERTEX
  5
682
  8
LAYER01
  6
CONTINUOUS
 62
     7
 10
5479.1705380000003
 20
1649.329712
 30
0.0
  0
VERTEX
  5
683
  8
LAYER01
  6
CONTINUOUS
 62
     7
 10
5479.1705380000003
 20
1649.329712
 30
0.0
  0
SEQEND
  5
684
  8
LAYER01
  6
CONTINUOUS
 62
     7
  0
POLYLINE
  5
5AD
  8
LAYER01
  6
CONTINUOUS
 62
     7
 66
     1
 10
0.0
 20
0.0
 30
0.0
 70
     1
  0
VERTEX
  5
685
  8
LAYER01
  6
CONTINUOUS
 62
     7
 10
6057.0609439999989
 20
1784.1377660000001
 30
0.0
  0
VERTEX
  5
686
  8
LAYER01
  6
CONTINUOUS
 62
     7
 10
6030.2975800000004
 20
1750.4357520000001
 30
0.0
  0
VERTEX
  5
687
  8
LAYER01
  6
CONTINUOUS
 62
     7
 10
6030.2975800000004
 20
1750.4357520000001
 30
0.0
  0
VERTEX
  5
688
  8
LAYER01
  6
CONTINUOUS
 62
     7
 10
6021.3764590000001
 20
1756.3831660000001
 30
0.0
  0
VERTEX
  5
689
  8
LAYER01
  6
CONTINUOUS
 62
     7
 10
6012.4553380000007
 20
1761.3393450000001
 30
0.0
  0
VERTEX
  5
68A
  8
LAYER01
  6
CONTINUOUS
 62
     7
 10
6002.5429810000014
 20
1764.313052
 30
0.0
  0
VERTEX
  5
68B
  8
LAYER01
  6
CONTINUOUS
 62
     7
 10
5991.6393889999999
 20
1764.313052
 30
0.0
  0
VERTEX
  5
68C
  8
LAYER01
  6
CONTINUOUS
 62
     7
 10
5991.6393889999999
 20
1764.313052
 30
0.0
  0
VERTEX
  5
68D
  8
LAYER01
  6
CONTINUOUS
 62
     7
 10
5984.7007389999999
 20
1764.313052
 30
0.0
  0
VERTEX
  5
68E
  8
LAYER01
  6
CONTINUOUS
 62
     7
 10
5977.7620889999998
 20
1763.3218159999999
 30
0.0
  0
VERTEX
  5
68F
  8
LAYER01
  6
CONTINUOUS
 62
     7
 10
5970.8234389999998
 20
1761.3393450000001
 30
0.0
  0
VERTEX
  5
690
  8
LAYER01
  6
CONTINUOUS
 62
     7
 10
5963.8847889999997
 20
1758.365638
 30
0.0
  0
VERTEX
  5
691
  8
LAYER01
  6
CONTINUOUS
 62
     7
 10
5957.9373750000004
 20
1755.3919310000001
 30
0.0
  0
VERTEX
  5
692
  8
LAYER01
  6
CONTINUOUS
 62
     7
 10
5952.9811970000001
 20
1751.4269879999999
 30
0.0
  0
VERTEX
  5
693
  8
LAYER01
  6
CONTINUOUS
 62
     7
 10
5947.0337829999999
 20
1747.462045
 30
0.0
  0
VERTEX
  5
694
  8
LAYER01
  6
CONTINUOUS
 62
     7
 10
5943.0688399999999
 20
1742.5058670000001
 30
0.0
  0
VERTEX
  5
695
  8
LAYER01
  6
CONTINUOUS
 62
     7
 10
5938.1126610000001
 20
1736.5584530000001
 30
0.0
  0
VERTEX
  5
696
  8
LAYER01
  6
CONTINUOUS
 62
     7
 10
5935.138954
 20
1730.611038
 30
0.0
  0
VERTEX
  5
697
  8
LAYER01
  6
CONTINUOUS
 62
     7
 10
5931.1740119999986
 20
1724.6636239999989
 30
0.0
  0
VERTEX
  5
698
  8
LAYER01
  6
CONTINUOUS
 62
     7
 10
5928.2003049999994
 20
1718.71621
 30
0.0
  0
VERTEX
  5
699
  8
LAYER01
  6
CONTINUOUS
 62
     7
 10
5926.2178329999988
 20
1711.77756
 30
0.0
  0
VERTEX
  5
69A
  8
LAYER01
  6
CONTINUOUS
 62
     7
 10
5925.2265980000002
 20
1704.8389110000001
 30
0.0
  0
VERTEX
  5
69B
  8
LAYER01
  6
CONTINUOUS
 62
     7
 10
5924.2353620000004
 20
1697.900261
 30
0.0
  0
VERTEX
  5
69C
  8
LAYER01
  6
CONTINUOUS
 62
     7
 10
5923.2441259999996
 20
1689.9703750000001
 30
0.0
  0
VERTEX
  5
69D
  8
LAYER01
  6
CONTINUOUS
 62
     7
 10
5923.2441259999996
 20
1689.9703750000001
 30
0.0
  0
VERTEX
  5
69E
  8
LAYER01
  6
CONTINUOUS
 62
     7
 10
5924.2353620000004
 20
1683.0317250000001
 30
0.0
  0
VERTEX
  5
69F
  8
LAYER01
  6
CONTINUOUS
 62
     7
 10
5925.2265980000002
 20
1676.0930760000001
 30
0.0
  0
VERTEX
  5
6A0
  8
LAYER01
  6
CONTINUOUS
 62
     7
 10
5926.2178329999988
 20
1669.1544260000001
 30
0.0
  0
VERTEX
  5
6A1
  8
LAYER01
  6
CONTINUOUS
 62
     7
 10
5929.1915399999998
 20
1663.2070120000001
 30
0.0
  0
VERTEX
  5
6A2
  8
LAYER01
  6
CONTINUOUS
 62
     7
 10
5931.1740119999986
 20
1657.2595980000001
 30
0.0
  0
VERTEX
  5
6A3
  8
LAYER01
  6
CONTINUOUS
 62
     7
 10
5935.138954
 20
1651.312183
 30
0.0
  0
VERTEX
  5
6A4
  8
LAYER01
  6
CONTINUOUS
 62
     7
 10
5939.103897
 20
1645.364769
 30
0.0
  0
VERTEX
  5
6A5
  8
LAYER01
  6
CONTINUOUS
 62
     7
 10
5943.0688399999999
 20
1640.4085909999999
 30
0.0
  0
VERTEX
  5
6A6
  8
LAYER01
  6
CONTINUOUS
 62
     7
 10
5948.0250180000003
 20
1635.4524120000001
 30
0.0
  0
VERTEX
  5
6A7
  8
LAYER01
  6
CONTINUOUS
 62
     7
 10
5952.9811970000001
 20
1631.48747
 30
0.0
  0
VERTEX
  5
6A8
  8
LAYER01
  6
CONTINUOUS
 62
     7
 10
5958.9286110000012
 20
1628.5137629999999
 30
0.0
  0
VERTEX
  5
6A9
  8
LAYER01
  6
CONTINUOUS
 62
     7
 10
5964.8760249999987
 20
1625.540056
 30
0.0
  0
VERTEX
  5
6AA
  8
LAYER01
  6
CONTINUOUS
 62
     7
 10
5971.8146749999996
 20
1622.5663489999999
 30
0.0
  0
VERTEX
  5
6AB
  8
LAYER01
  6
CONTINUOUS
 62
     7
 10
5977.7620889999998
 20
1620.583877
 30
0.0
  0
VERTEX
  5
6AC
  8
LAYER01
  6
CONTINUOUS
 62
     7
 10
5984.7007389999999
 20
1619.592641
 30
0.0
  0
VERTEX
  5
6AD
  8
LAYER01
  6
CONTINUOUS
 62
     7
 10
5992.6306240000004
 20
1619.592641
 30
0.0
  0
VERTEX
  5
6AE
  8
LAYER01
  6
CONTINUOUS
 62
     7
 10
5992.6306240000004
 20
1619.592641
 30
0.0
  0
VERTEX
  5
6AF
  8
LAYER01
  6
CONTINUOUS
 62
     7
 10
6003.5342170000013
 20
1620.583877
 30
0.0
  0
VERTEX
  5
6B0
  8
LAYER01
  6
CONTINUOUS
 62
     7
 10
6012.4553380000007
 20
1622.5663489999999
 30
0.0
  0
VERTEX
  5
6B1
  8
LAYER01
  6
CONTINUOUS
 62
     7
 10
6021.3764590000001
 20
1627.5225270000001
 30
0.0
  0
VERTEX
  5
6B2
  8
LAYER01
  6
CONTINUOUS
 62
     7
 10
6030.2975800000004
 20
1633.4699410000001
 30
0.0
  0
VERTEX
  5
6B3
  8
LAYER01
  6
CONTINUOUS
 62
     7
 10
6056.069708
 20
1598.7766919999999
 30
0.0
  0
VERTEX
  5
6B4
  8
LAYER01
  6
CONTINUOUS
 62
     7
 10
6056.069708
 20
1598.7766919999999
 30
0.0
  0
VERTEX
  5
6B5
  8
LAYER01
  6
CONTINUOUS
 62
     7
 10
6041.2011730000004
 20
1589.8555710000001
 30
0.0
  0
VERTEX
  5
6B6
  8
LAYER01
  6
CONTINUOUS
 62
     7
 10
6033.2712869999987
 20
1586.881864
 30
0.0
  0
VERTEX
  5
6B7
  8
LAYER01
  6
CONTINUOUS
 62
     7
 10
6026.3326379999999
 20
1583.9081570000001
 30
0.0
  0
VERTEX
  5
6B8
  8
LAYER01
  6
CONTINUOUS
 62
     7
 10
6018.402752
 20
1581.9256849999999
 30
0.0
  0
VERTEX
  5
6B9
  8
LAYER01
  6
CONTINUOUS
 62
     7
 10
6010.4728670000004
 20
1580.93445
 30
0.0
  0
VERTEX
  5
6BA
  8
LAYER01
  6
CONTINUOUS
 62
     7
 10
5992.6306240000004
 20
1579.9432139999999
 30
0.0
  0
VERTEX
  5
6BB
  8
LAYER01
  6
CONTINUOUS
 62
     7
 10
5992.6306240000004
 20
1579.9432139999999
 30
0.0
  0
VERTEX
  5
6BC
  8
LAYER01
  6
CONTINUOUS
 62
     7
 10
5980.7357959999999
 20
1580.93445
 30
0.0
  0
VERTEX
  5
6BD
  8
LAYER01
  6
CONTINUOUS
 62
     7
 10
5969.8322029999999
 20
1582.916921
 30
0.0
  0
VERTEX
  5
6BE
  8
LAYER01
  6
CONTINUOUS
 62
     7
 10
5958.9286110000012
 20
1584.899392
 30
0.0
  0
VERTEX
  5
6BF
  8
LAYER01
  6
CONTINUOUS
 62
     7
 10
5949.0162540000001
 20
1588.864335
 30
0.0
  0
VERTEX
  5
6C0
  8
LAYER01
  6
CONTINUOUS
 62
     7
 10
5939.103897
 20
1593.820514
 30
0.0
  0
VERTEX
  5
6C1
  8
LAYER01
  6
CONTINUOUS
 62
     7
 10
5930.1827759999987
 20
1598.7766919999999
 30
0.0
  0
VERTEX
  5
6C2
  8
LAYER01
  6
CONTINUOUS
 62
     7
 10
5921.2616549999993
 20
1605.715342
 30
0.0
  0
VERTEX
  5
6C3
  8
LAYER01
  6
CONTINUOUS
 62
     7
 10
5913.3317690000003
 20
1612.653992
 30
0.0
  0
VERTEX
  5
6C4
  8
LAYER01
  6
CONTINUOUS
 62
     7
 10
5905.4018840000008
 20
1620.583877
 30
0.0
  0
VERTEX
  5
6C5
  8
LAYER01
  6
CONTINUOUS
 62
     7
 10
5899.4544700000006
 20
1629.5049979999999
 30
0.0
  0
VERTEX
  5
6C6
  8
LAYER01
  6
CONTINUOUS
 62
     7
 10
5893.5070560000004
 20
1638.4261200000001
 30
0.0
  0
VERTEX
  5
6C7
  8
LAYER01
  6
CONTINUOUS
 62
     7
 10
5888.5508770000006
 20
1648.3384759999999
 30
0.0
  0
VERTEX
  5
6C8
  8
LAYER01
  6
CONTINUOUS
 62
     7
 10
5885.5771700000014
 20
1658.2508330000001
 30
0.0
  0
VERTEX
  5
6C9
  8
LAYER01
  6
CONTINUOUS
 62
     7
 10
5882.6034630000004
 20
1669.1544260000001
 30
0.0
  0
VERTEX
  5
6CA
  8
LAYER01
  6
CONTINUOUS
 62
     7
 10
5880.6209920000001
 20
1680.0580179999999
 30
0.0
  0
VERTEX
  5
6CB
  8
LAYER01
  6
CONTINUOUS
 62
     7
 10
5879.6297560000003
 20
1691.952847
 30
0.0
  0
VERTEX
  5
6CC
  8
LAYER01
  6
CONTINUOUS
 62
     7
 10
5879.6297560000003
 20
1691.952847
 30
0.0
  0
VERTEX
  5
6CD
  8
LAYER01
  6
CONTINUOUS
 62
     7
 10
5880.6209920000001
 20
1702.8564389999999
 30
0.0
  0
VERTEX
  5
6CE
  8
LAYER01
  6
CONTINUOUS
 62
     7
 10
5882.6034630000004
 20
1714.7512670000001
 30
0.0
  0
VERTEX
  5
6CF
  8
LAYER01
  6
CONTINUOUS
 62
     7
 10
5884.5859339999997
 20
1724.6636239999989
 30
0.0
  0
VERTEX
  5
6D0
  8
LAYER01
  6
CONTINUOUS
 62
     7
 10
5888.5508770000006
 20
1735.567217
 30
0.0
  0
VERTEX
  5
6D1
  8
LAYER01
  6
CONTINUOUS
 62
     7
 10
5893.5070560000004
 20
1745.479574
 30
0.0
  0
VERTEX
  5
6D2
  8
LAYER01
  6
CONTINUOUS
 62
     7
 10
5898.4632340000007
 20
1754.400695
 30
0.0
  0
VERTEX
  5
6D3
  8
LAYER01
  6
CONTINUOUS
 62
     7
 10
5905.4018840000008
 20
1763.3218159999999
 30
0.0
  0
VERTEX
  5
6D4
  8
LAYER01
  6
CONTINUOUS
 62
     7
 10
5912.3405339999999
 20
1771.251702
 30
0.0
  0
VERTEX
  5
6D5
  8
LAYER01
  6
CONTINUOUS
 62
     7
 10
5920.2704190000004
 20
1778.190351
 30
0.0
  0
VERTEX
  5
6D6
  8
LAYER01
  6
CONTINUOUS
 62
     7
 10
5929.1915399999998
 20
1785.129001
 30
0.0
  0
VERTEX
  5
6D7
  8
LAYER01
  6
CONTINUOUS
 62
     7
 10
5938.1126610000001
 20
1790.08518
 30
0.0
  0
VERTEX
  5
6D8
  8
LAYER01
  6
CONTINUOUS
 62
     7
 10
5948.0250180000003
 20
1795.0413579999999
 30
0.0
  0
VERTEX
  5
6D9
  8
LAYER01
  6
CONTINUOUS
 62
     7
 10
5957.9373750000004
 20
1799.0063009999999
 30
0.0
  0
VERTEX
  5
6DA
  8
LAYER01
  6
CONTINUOUS
 62
     7
 10
5968.8409680000004
 20
1801.980008
 30
0.0
  0
VERTEX
  5
6DB
  8
LAYER01
  6
CONTINUOUS
 62
     7
 10
5980.7357959999999
 20
1802.9712440000001
 30
0.0
  0
VERTEX
  5
6DC
  8
LAYER01
  6
CONTINUOUS
 62
     7
 10
5991.6393889999999
 20
1803.962479
 30
0.0
  0
VERTEX
  5
6DD
  8
LAYER01
  6
CONTINUOUS
 62
     7
 10
5991.6393889999999
 20
1803.962479
 30
0.0
  0
VERTEX
  5
6DE
  8
LAYER01
  6
CONTINUOUS
 62
     7
 10
6009.4816309999997
 20
1802.9712440000001
 30
0.0
  0
VERTEX
  5
6DF
  8
LAYER01
  6
CONTINUOUS
 62
     7
 10
6018.402752
 20
1801.980008
 30
0.0
  0
VERTEX
  5
6E0
  8
LAYER01
  6
CONTINUOUS
 62
     7
 10
6026.3326379999999
 20
1799.997537
 30
0.0
  0
VERTEX
  5
6E1
  8
LAYER01
  6
CONTINUOUS
 62
     7
 10
6033.2712869999987
 20
1797.0238300000001
 30
0.0
  0
VERTEX
  5
6E2
  8
LAYER01
  6
CONTINUOUS
 62
     7
 10
6041.2011730000004
 20
1794.050121999999
 30
0.0
  0
VERTEX
  5
6E3
  8
LAYER01
  6
CONTINUOUS
 62
     7
 10
6049.1310579999999
 20
1789.093944
 30
0.0
  0
VERTEX
  5
6E4
  8
LAYER01
  6
CONTINUOUS
 62
     7
 10
6057.0609439999989
 20
1784.1377660000001
 30
0.0
  0
VERTEX
  5
6E5
  8
LAYER01
  6
CONTINUOUS
 62
     7
 10
6057.0609439999989
 20
1784.1377660000001
 30
0.0
  0
SEQEND
  5
6E6
  8
LAYER01
  6
CONTINUOUS
 62
     7
  0
POLYLINE
  5
5AE
  8
LAYER01
  6
CONTINUOUS
 62
     7
 66
     1
 10
0.0
 20
0.0
 30
0.0
 70
     1
  0
VERTEX
  5
6E7
  8
LAYER01
  6
CONTINUOUS
 62
     7
 10
6153.210806
 20
1802.9712440000001
 30
0.0
  0
VERTEX
  5
6E8
  8
LAYER01
  6
CONTINUOUS
 62
     7
 10
6153.210806
 20
1802.9712440000001
 30
0.0
  0
VERTEX
  5
6E9
  8
LAYER01
  6
CONTINUOUS
 62
     7
 10
6142.307213
 20
1801.980008
 30
0.0
  0
VERTEX
  5
6EA
  8
LAYER01
  6
CONTINUOUS
 62
     7
 10
6130.4123849999996
 20
1800.9887719999999
 30
0.0
  0
VERTEX
  5
6EB
  8
LAYER01
  6
CONTINUOUS
 62
     7
 10
6120.5000280000013
 20
1798.015065
 30
0.0
  0
VERTEX
  5
6EC
  8
LAYER01
  6
CONTINUOUS
 62
     7
 10
6109.5964350000004
 20
1794.050121999999
 30
0.0
  0
VERTEX
  5
6ED
  8
LAYER01
  6
CONTINUOUS
 62
     7
 10
6099.6840789999997
 20
1790.08518
 30
0.0
  0
VERTEX
  5
6EE
  8
LAYER01
  6
CONTINUOUS
 62
     7
 10
6090.762956999999
 20
1784.1377660000001
 30
0.0
  0
VERTEX
  5
6EF
  8
LAYER01
  6
CONTINUOUS
 62
     7
 10
6081.8418359999987
 20
1778.190351
 30
0.0
  0
VERTEX
  5
6F0
  8
LAYER01
  6
CONTINUOUS
 62
     7
 10
6073.911951
 20
1770.260466
 30
0.0
  0
VERTEX
  5
6F1
  8
LAYER01
  6
CONTINUOUS
 62
     7
 10
6066.973301
 20
1762.3305800000001
 30
0.0
  0
VERTEX
  5
6F2
  8
LAYER01
  6
CONTINUOUS
 62
     7
 10
6060.0346509999999
 20
1754.400695
 30
0.0
  0
VERTEX
  5
6F3
  8
LAYER01
  6
CONTINUOUS
 62
     7
 10
6054.0872369999997
 20
1745.479574
 30
0.0
  0
VERTEX
  5
6F4
  8
LAYER01
  6
CONTINUOUS
 62
     7
 10
6049.1310579999999
 20
1735.567217
 30
0.0
  0
VERTEX
  5
6F5
  8
LAYER01
  6
CONTINUOUS
 62
     7
 10
6046.1573509999998
 20
1724.6636239999989
 30
0.0
  0
VERTEX
  5
6F6
  8
LAYER01
  6
CONTINUOUS
 62
     7
 10
6043.1836439999988
 20
1714.7512670000001
 30
0.0
  0
VERTEX
  5
6F7
  8
LAYER01
  6
CONTINUOUS
 62
     7
 10
6041.2011730000004
 20
1702.8564389999999
 30
0.0
  0
VERTEX
  5
6F8
  8
LAYER01
  6
CONTINUOUS
 62
     7
 10
6040.2099369999996
 20
1691.952847
 30
0.0
  0
VERTEX
  5
6F9
  8
LAYER01
  6
CONTINUOUS
 62
     7
 10
6040.2099369999996
 20
1691.952847
 30
0.0
  0
VERTEX
  5
6FA
  8
LAYER01
  6
CONTINUOUS
 62
     7
 10
6041.2011730000004
 20
1680.0580179999999
 30
0.0
  0
VERTEX
  5
6FB
  8
LAYER01
  6
CONTINUOUS
 62
     7
 10
6042.1924090000002
 20
1669.1544260000001
 30
0.0
  0
VERTEX
  5
6FC
  8
LAYER01
  6
CONTINUOUS
 62
     7
 10
6045.1661159999994
 20
1658.2508330000001
 30
0.0
  0
VERTEX
  5
6FD
  8
LAYER01
  6
CONTINUOUS
 62
     7
 10
6049.1310579999999
 20
1648.3384759999999
 30
0.0
  0
VERTEX
  5
6FE
  8
LAYER01
  6
CONTINUOUS
 62
     7
 10
6053.0960009999999
 20
1638.4261200000001
 30
0.0
  0
VERTEX
  5
6FF
  8
LAYER01
  6
CONTINUOUS
 62
     7
 10
6059.0434150000001
 20
1629.5049979999999
 30
0.0
  0
VERTEX
  5
700
  8
LAYER01
  6
CONTINUOUS
 62
     7
 10
6064.9908290000003
 20
1620.583877
 30
0.0
  0
VERTEX
  5
701
  8
LAYER01
  6
CONTINUOUS
 62
     7
 10
6071.9294790000013
 20
1612.653992
 30
0.0
  0
VERTEX
  5
702
  8
LAYER01
  6
CONTINUOUS
 62
     7
 10
6079.8593650000003
 20
1604.7241059999999
 30
0.0
  0
VERTEX
  5
703
  8
LAYER01
  6
CONTINUOUS
 62
     7
 10
6088.7804859999997
 20
1598.7766919999999
 30
0.0
  0
VERTEX
  5
704
  8
LAYER01
  6
CONTINUOUS
 62
     7
 10
6097.701607
 20
1592.8292779999999
 30
0.0
  0
VERTEX
  5
705
  8
LAYER01
  6
CONTINUOUS
 62
     7
 10
6107.6139640000001
 20
1587.8730989999999
 30
0.0
  0
VERTEX
  5
706
  8
LAYER01
  6
CONTINUOUS
 62
     7
 10
6117.5263210000003
 20
1583.9081570000001
 30
0.0
  0
VERTEX
  5
707
  8
LAYER01
  6
CONTINUOUS
 62
     7
 10
6128.4299129999999
 20
1581.9256849999999
 30
0.0
  0
VERTEX
  5
708
  8
LAYER01
  6
CONTINUOUS
 62
     7
 10
6139.333505999999
 20
1579.9432139999999
 30
0.0
  0
VERTEX
  5
709
  8
LAYER01
  6
CONTINUOUS
 62
     7
 10
6150.2370989999999
 20
1578.9519780000001
 30
0.0
  0
VERTEX
  5
70A
  8
LAYER01
  6
CONTINUOUS
 62
     7
 10
6150.2370989999999
 20
1578.9519780000001
 30
0.0
  0
VERTEX
  5
70B
  8
LAYER01
  6
CONTINUOUS
 62
     7
 10
6162.1319270000004
 20
1579.9432139999999
 30
0.0
  0
VERTEX
  5
70C
  8
LAYER01
  6
CONTINUOUS
 62
     7
 10
6173.035519
 20
1581.9256849999999
 30
0.0
  0
VERTEX
  5
70D
  8
LAYER01
  6
CONTINUOUS
 62
     7
 10
6183.939112
 20
1584.899392
 30
0.0
  0
VERTEX
  5
70E
  8
LAYER01
  6
CONTINUOUS
 62
     7
 10
6193.8514690000011
 20
1588.864335
 30
0.0
  0
VERTEX
  5
70F
  8
LAYER01
  6
CONTINUOUS
 62
     7
 10
6203.7638259999994
 20
1593.820514
 30
0.0
  0
VERTEX
  5
710
  8
LAYER01
  6
CONTINUOUS
 62
     7
 10
6212.6849469999988
 20
1599.767928
 30
0.0
  0
VERTEX
  5
711
  8
LAYER01
  6
CONTINUOUS
 62
     7
 10
6221.6060680000001
 20
1605.715342
 30
0.0
  0
VERTEX
  5
712
  8
LAYER01
  6
CONTINUOUS
 62
     7
 10
6229.5359539999999
 20
1613.645227
 30
0.0
  0
VERTEX
  5
713
  8
LAYER01
  6
CONTINUOUS
 62
     7
 10
6236.4746030000006
 20
1621.5751130000001
 30
0.0
  0
VERTEX
  5
714
  8
LAYER01
  6
CONTINUOUS
 62
     7
 10
6242.422016999999
 20
1630.496234
 30
0.0
  0
VERTEX
  5
715
  8
LAYER01
  6
CONTINUOUS
 62
     7
 10
6247.3781959999988
 20
1639.417355
 30
0.0
  0
VERTEX
  5
716
  8
LAYER01
  6
CONTINUOUS
 62
     7
 10
6252.334374
 20
1649.329712
 30
0.0
  0
VERTEX
  5
717
  8
LAYER01
  6
CONTINUOUS
 62
     7
 10
6256.2993169999991
 20
1660.233305
 30
0.0
  0
VERTEX
  5
718
  8
LAYER01
  6
CONTINUOUS
 62
     7
 10
6258.2817880000002
 20
1671.1368970000001
 30
0.0
  0
VERTEX
  5
719
  8
LAYER01
  6
CONTINUOUS
 62
     7
 10
6259.2730240000001
 20
1682.0404900000001
 30
0.0
  0
VERTEX
  5
71A
  8
LAYER01
  6
CONTINUOUS
 62
     7
 10
6260.2642599999999
 20
1693.9353180000001
 30
0.0
  0
VERTEX
  5
71B
  8
LAYER01
  6
CONTINUOUS
 62
     7
 10
6260.2642599999999
 20
1693.9353180000001
 30
0.0
  0
VERTEX
  5
71C
  8
LAYER01
  6
CONTINUOUS
 62
     7
 10
6259.2730240000001
 20
1704.8389110000001
 30
0.0
  0
VERTEX
  5
71D
  8
LAYER01
  6
CONTINUOUS
 62
     7
 10
6257.2905529999998
 20
1715.7425029999999
 30
0.0
  0
VERTEX
  5
71E
  8
LAYER01
  6
CONTINUOUS
 62
     7
 10
6254.3168459999997
 20
1725.6548600000001
 30
0.0
  0
VERTEX
  5
71F
  8
LAYER01
  6
CONTINUOUS
 62
     7
 10
6251.3431389999996
 20
1735.567217
 30
0.0
  0
VERTEX
  5
720
  8
LAYER01
  6
CONTINUOUS
 62
     7
 10
6246.3869599999998
 20
1744.4883380000001
 30
0.0
  0
VERTEX
  5
721
  8
LAYER01
  6
CONTINUOUS
 62
     7
 10
6241.4307820000013
 20
1753.409459
 30
0.0
  0
VERTEX
  5
722
  8
LAYER01
  6
CONTINUOUS
 62
     7
 10
6235.4833680000002
 20
1762.3305800000001
 30
0.0
  0
VERTEX
  5
723
  8
LAYER01
  6
CONTINUOUS
 62
     7
 10
6228.544718000001
 20
1769.2692300000001
 30
0.0
  0
VERTEX
  5
724
  8
LAYER01
  6
CONTINUOUS
 62
     7
 10
6220.6148320000002
 20
1776.2078799999999
 30
0.0
  0
VERTEX
  5
725
  8
LAYER01
  6
CONTINUOUS
 62
     7
 10
6212.6849469999988
 20
1783.14653
 30
0.0
  0
VERTEX
  5
726
  8
LAYER01
  6
CONTINUOUS
 62
     7
 10
6203.7638259999994
 20
1788.1027079999999
 30
0.0
  0
VERTEX
  5
727
  8
LAYER01
  6
CONTINUOUS
 62
     7
 10
6194.842705
 20
1793.0588869999999
 30
0.0
  0
VERTEX
  5
728
  8
LAYER01
  6
CONTINUOUS
 62
     7
 10
6184.9303479999999
 20
1797.0238300000001
 30
0.0
  0
VERTEX
  5
729
  8
LAYER01
  6
CONTINUOUS
 62
     7
 10
6175.0179909999997
 20
1799.997537
 30
0.0
  0
VERTEX
  5
72A
  8
LAYER01
  6
CONTINUOUS
 62
     7
 10
6164.1143979999988
 20
1801.980008
 30
0.0
  0
VERTEX
  5
72B
  8
LAYER01
  6
CONTINUOUS
 62
     7
 10
6153.210806
 20
1802.9712440000001
 30
0.0
  0
VERTEX
  5
72C
  8
LAYER01
  6
CONTINUOUS
 62
     7
 10
6153.210806
 20
1802.9712440000001
 30
0.0
  0
SEQEND
  5
72D
  8
LAYER01
  6
CONTINUOUS
 62
     7
  0
POLYLINE
  5
5AF
  8
LAYER01
  6
CONTINUOUS
 62
     7
 66
     1
 10
0.0
 20
0.0
 30
0.0
 70
     1
  0
VERTEX
  5
72E
  8
LAYER01
  6
CONTINUOUS
 62
     7
 10
6150.2370989999999
 20
1619.592641
 30
0.0
  0
VERTEX
  5
72F
  8
LAYER01
  6
CONTINUOUS
 62
     7
 10
6150.2370989999999
 20
1619.592641
 30
0.0
  0
VERTEX
  5
730
  8
LAYER01
  6
CONTINUOUS
 62
     7
 10
6143.2984489999999
 20
1620.583877
 30
0.0
  0
VERTEX
  5
731
  8
LAYER01
  6
CONTINUOUS
 62
     7
 10
6136.3597989999998
 20
1621.5751130000001
 30
0.0
  0
VERTEX
  5
732
  8
LAYER01
  6
CONTINUOUS
 62
     7
 10
6129.4211489999998
 20
1622.5663489999999
 30
0.0
  0
VERTEX
  5
733
  8
LAYER01
  6
CONTINUOUS
 62
     7
 10
6122.4824990000006
 20
1625.540056
 30
0.0
  0
VERTEX
  5
734
  8
LAYER01
  6
CONTINUOUS
 62
     7
 10
6116.5350850000004
 20
1628.5137629999999
 30
0.0
  0
VERTEX
  5
735
  8
LAYER01
  6
CONTINUOUS
 62
     7
 10
6110.5876710000011
 20
1632.478705
 30
0.0
  0
VERTEX
  5
736
  8
LAYER01
  6
CONTINUOUS
 62
     7
 10
6105.6314929999999
 20
1636.4436479999999
 30
0.0
  0
VERTEX
  5
737
  8
LAYER01
  6
CONTINUOUS
 62
     7
 10
6100.6753140000001
 20
1641.399827
 30
0.0
  0
VERTEX
  5
738
  8
LAYER01
  6
CONTINUOUS
 62
     7
 10
6095.7191359999988
 20
1646.3560050000001
 30
0.0
  0
VERTEX
  5
739
  8
LAYER01
  6
CONTINUOUS
 62
     7
 10
6091.7541929999988
 20
1651.312183
 30
0.0
  0
VERTEX
  5
73A
  8
LAYER01
  6
CONTINUOUS
 62
     7
 10
6088.7804859999997
 20
1657.2595980000001
 30
0.0
  0
VERTEX
  5
73B
  8
LAYER01
  6
CONTINUOUS
 62
     7
 10
6085.8067789999996
 20
1664.198247
 30
0.0
  0
VERTEX
  5
73C
  8
LAYER01
  6
CONTINUOUS
 62
     7
 10
6082.8330719999994
 20
1670.1456619999999
 30
0.0
  0
VERTEX
  5
73D
  8
LAYER01
  6
CONTINUOUS
 62
     7
 10
6081.8418359999987
 20
1677.0843109999989
 30
0.0
  0
VERTEX
  5
73E
  8
LAYER01
  6
CONTINUOUS
 62
     7
 10
6079.8593650000003
 20
1684.0229609999999
 30
0.0
  0
VERTEX
  5
73F
  8
LAYER01
  6
CONTINUOUS
 62
     7
 10
6079.8593650000003
 20
1691.952847
 30
0.0
  0
VERTEX
  5
740
  8
LAYER01
  6
CONTINUOUS
 62
     7
 10
6079.8593650000003
 20
1691.952847
 30
0.0
  0
VERTEX
  5
741
  8
LAYER01
  6
CONTINUOUS
 62
     7
 10
6080.8505999999998
 20
1698.891496
 30
0.0
  0
VERTEX
  5
742
  8
LAYER01
  6
CONTINUOUS
 62
     7
 10
6081.8418359999987
 20
1705.830146
 30
0.0
  0
VERTEX
  5
743
  8
LAYER01
  6
CONTINUOUS
 62
     7
 10
6083.8243080000002
 20
1712.7687960000001
 30
0.0
  0
VERTEX
  5
744
  8
LAYER01
  6
CONTINUOUS
 62
     7
 10
6085.8067789999996
 20
1719.7074459999999
 30
0.0
  0
VERTEX
  5
745
  8
LAYER01
  6
CONTINUOUS
 62
     7
 10
6088.7804859999997
 20
1725.6548600000001
 30
0.0
  0
VERTEX
  5
746
  8
LAYER01
  6
CONTINUOUS
 62
     7
 10
6092.7454289999996
 20
1731.6022740000001
 30
0.0
  0
VERTEX
  5
747
  8
LAYER01
  6
CONTINUOUS
 62
     7
 10
6096.7103710000001
 20
1736.5584530000001
 30
0.0
  0
VERTEX
  5
748
  8
LAYER01
  6
CONTINUOUS
 62
     7
 10
6101.6665499999999
 20
1741.514631
 30
0.0
  0
VERTEX
  5
749
  8
LAYER01
  6
CONTINUOUS
 62
     7
 10
6106.6227280000012
 20
1746.4708089999999
 30
0.0
  0
VERTEX
  5
74A
  8
LAYER01
  6
CONTINUOUS
 62
     7
 10
6111.578907000001
 20
1750.4357520000001
 30
0.0
  0
VERTEX
  5
74B
  8
LAYER01
  6
CONTINUOUS
 62
     7
 10
6117.5263210000003
 20
1754.400695
 30
0.0
  0
VERTEX
  5
74C
  8
LAYER01
  6
CONTINUOUS
 62
     7
 10
6124.4649710000003
 20
1757.3744019999999
 30
0.0
  0
VERTEX
  5
74D
  8
LAYER01
  6
CONTINUOUS
 62
     7
 10
6130.4123849999996
 20
1759.356873
 30
0.0
  0
VERTEX
  5
74E
  8
LAYER01
  6
CONTINUOUS
 62
     7
 10
6137.3510349999997
 20
1761.3393450000001
 30
0.0
  0
VERTEX
  5
74F
  8
LAYER01
  6
CONTINUOUS
 62
     7
 10
6144.2896840000003
 20
1762.3305800000001
 30
0.0
  0
VERTEX
  5
750
  8
LAYER01
  6
CONTINUOUS
 62
     7
 10
6152.2195700000002
 20
1762.3305800000001
 30
0.0
  0
VERTEX
  5
751
  8
LAYER01
  6
CONTINUOUS
 62
     7
 10
6152.2195700000002
 20
1762.3305800000001
 30
0.0
  0
VERTEX
  5
752
  8
LAYER01
  6
CONTINUOUS
 62
     7
 10
6159.1582200000012
 20
1761.3393450000001
 30
0.0
  0
VERTEX
  5
753
  8
LAYER01
  6
CONTINUOUS
 62
     7
 10
6166.0968700000003
 20
1760.348109
 30
0.0
  0
VERTEX
  5
754
  8
LAYER01
  6
CONTINUOUS
 62
     7
 10
6172.0442839999996
 20
1758.365638
 30
0.0
  0
VERTEX
  5
755
  8
LAYER01
  6
CONTINUOUS
 62
     7
 10
6178.9829339999997
 20
1756.3831660000001
 30
0.0
  0
VERTEX
  5
756
  8
LAYER01
  6
CONTINUOUS
 62
     7
 10
6183.939112
 20
1753.409459
 30
0.0
  0
VERTEX
  5
757
  8
LAYER01
  6
CONTINUOUS
 62
     7
 10
6189.8865260000002
 20
1749.4445169999999
 30
0.0
  0
VERTEX
  5
758
  8
LAYER01
  6
CONTINUOUS
 62
     7
 10
6194.842705
 20
1745.479574
 30
0.0
  0
VERTEX
  5
759
  8
LAYER01
  6
CONTINUOUS
 62
     7
 10
6199.7988829999986
 20
1741.514631
 30
0.0
  0
VERTEX
  5
75A
  8
LAYER01
  6
CONTINUOUS
 62
     7
 10
6203.7638259999994
 20
1736.5584530000001
 30
0.0
  0
VERTEX
  5
75B
  8
LAYER01
  6
CONTINUOUS
 62
     7
 10
6207.728767999999
 20
1730.611038
 30
0.0
  0
VERTEX
  5
75C
  8
LAYER01
  6
CONTINUOUS
 62
     7
 10
6211.6937109999999
 20
1725.6548600000001
 30
0.0
  0
VERTEX
  5
75D
  8
LAYER01
  6
CONTINUOUS
 62
     7
 10
6214.667418
 20
1719.7074459999999
 30
0.0
  0
VERTEX
  5
75E
  8
LAYER01
  6
CONTINUOUS
 62
     7
 10
6216.6498899999997
 20
1712.7687960000001
 30
0.0
  0
VERTEX
  5
75F
  8
LAYER01
  6
CONTINUOUS
 62
     7
 10
6218.6323609999999
 20
1706.8213820000001
 30
0.0
  0
VERTEX
  5
760
  8
LAYER01
  6
CONTINUOUS
 62
     7
 10
6219.6235969999998
 20
1699.882732
 30
0.0
  0
VERTEX
  5
761
  8
LAYER01
  6
CONTINUOUS
 62
     7
 10
6219.6235969999998
 20
1692.944082
 30
0.0
  0
VERTEX
  5
762
  8
LAYER01
  6
CONTINUOUS
 62
     7
 10
6219.6235969999998
 20
1692.944082
 30
0.0
  0
VERTEX
  5
763
  8
LAYER01
  6
CONTINUOUS
 62
     7
 10
6219.6235969999998
 20
1685.014197
 30
0.0
  0
VERTEX
  5
764
  8
LAYER01
  6
CONTINUOUS
 62
     7
 10
6218.6323609999999
 20
1678.0755469999999
 30
0.0
  0
VERTEX
  5
765
  8
LAYER01
  6
CONTINUOUS
 62
     7
 10
6217.6411250000001
 20
1671.1368970000001
 30
0.0
  0
VERTEX
  5
766
  8
LAYER01
  6
CONTINUOUS
 62
     7
 10
6214.667418
 20
1665.1894830000001
 30
0.0
  0
VERTEX
  5
767
  8
LAYER01
  6
CONTINUOUS
 62
     7
 10
6212.6849469999988
 20
1658.2508330000001
 30
0.0
  0
VERTEX
  5
768
  8
LAYER01
  6
CONTINUOUS
 62
     7
 10
6208.7200039999989
 20
1652.3034190000001
 30
0.0
  0
VERTEX
  5
769
  8
LAYER01
  6
CONTINUOUS
 62
     7
 10
6204.7550609999998
 20
1646.3560050000001
 30
0.0
  0
VERTEX
  5
76A
  8
LAYER01
  6
CONTINUOUS
 62
     7
 10
6199.7988829999986
 20
1641.399827
 30
0.0
  0
VERTEX
  5
76B
  8
LAYER01
  6
CONTINUOUS
 62
     7
 10
6194.842705
 20
1636.4436479999999
 30
0.0
  0
VERTEX
  5
76C
  8
LAYER01
  6
CONTINUOUS
 62
     7
 10
6189.8865260000002
 20
1632.478705
 30
0.0
  0
VERTEX
  5
76D
  8
LAYER01
  6
CONTINUOUS
 62
     7
 10
6183.939112
 20
1628.5137629999999
 30
0.0
  0
VERTEX
  5
76E
  8
LAYER01
  6
CONTINUOUS
 62
     7
 10
6177.9916979999998
 20
1625.540056
 30
0.0
  0
VERTEX
  5
76F
  8
LAYER01
  6
CONTINUOUS
 62
     7
 10
6171.0530479999998
 20
1623.5575839999999
 30
0.0
  0
VERTEX
  5
770
  8
LAYER01
  6
CONTINUOUS
 62
     7
 10
6164.1143979999988
 20
1621.5751130000001
 30
0.0
  0
VERTEX
  5
771
  8
LAYER01
  6
CONTINUOUS
 62
     7
 10
6157.1757479999997
 20
1620.583877
 30
0.0
  0
VERTEX
  5
772
  8
LAYER01
  6
CONTINUOUS
 62
     7
 10
6150.2370989999999
 20
1619.592641
 30
0.0
  0
VERTEX
  5
773
  8
LAYER01
  6
CONTINUOUS
 62
     7
 10
6150.2370989999999
 20
1619.592641
 30
0.0
  0
SEQEND
  5
774
  8
LAYER01
  6
CONTINUOUS
 62
     7
  0
POLYLINE
  5
5B0
  8
LAYER01
  6
CONTINUOUS
 62
     7
 66
     1
 10
0.0
 20
0.0
 30
0.0
 70
     1
  0
VERTEX
  5
775
  8
LAYER01
  6
CONTINUOUS
 62
     7
 10
6229.5359539999999
 20
1798.015065
 30
0.0
  0
VERTEX
  5
776
  8
LAYER01
  6
CONTINUOUS
 62
     7
 10
6334.6069360000001
 20
1798.015065
 30
0.0
  0
VERTEX
  5
777
  8
LAYER01
  6
CONTINUOUS
 62
     7
 10
6334.6069360000001
 20
1798.015065
 30
0.0
  0
VERTEX
  5
778
  8
LAYER01
  6
CONTINUOUS
 62
     7
 10
6346.501765
 20
1796.032594
 30
0.0
  0
VERTEX
  5
779
  8
LAYER01
  6
CONTINUOUS
 62
     7
 10
6357.4053569999996
 20
1791.076415
 30
0.0
  0
VERTEX
  5
77A
  8
LAYER01
  6
CONTINUOUS
 62
     7
 10
6366.326478
 20
1785.129001
 30
0.0
  0
VERTEX
  5
77B
  8
LAYER01
  6
CONTINUOUS
 62
     7
 10
6374.2563639999998
 20
1777.199116
 30
0.0
  0
VERTEX
  5
77C
  8
LAYER01
  6
CONTINUOUS
 62
     7
 10
6381.1950139999999
 20
1769.2692300000001
 30
0.0
  0
VERTEX
  5
77D
  8
LAYER01
  6
CONTINUOUS
 62
     7
 10
6386.1511920000003
 20
1759.356873
 30
0.0
  0
VERTEX
  5
77E
  8
LAYER01
  6
CONTINUOUS
 62
     7
 10
6389.1248990000013
 20
1747.462045
 30
0.0
  0
VERTEX
  5
77F
  8
LAYER01
  6
CONTINUOUS
 62
     7
 10
6390.1161350000002
 20
1736.5584530000001
 30
0.0
  0
VERTEX
  5
780
  8
LAYER01
  6
CONTINUOUS
 62
     7
 10
6390.1161350000002
 20
1736.5584530000001
 30
0.0
  0
VERTEX
  5
781
  8
LAYER01
  6
CONTINUOUS
 62
     7
 10
6389.1248990000013
 20
1724.6636239999989
 30
0.0
  0
VERTEX
  5
782
  8
LAYER01
  6
CONTINUOUS
 62
     7
 10
6387.1424280000001
 20
1714.7512670000001
 30
0.0
  0
VERTEX
  5
783
  8
LAYER01
  6
CONTINUOUS
 62
     7
 10
6383.1774850000002
 20
1704.8389110000001
 30
0.0
  0
VERTEX
  5
784
  8
LAYER01
  6
CONTINUOUS
 62
     7
 10
6378.2213069999998
 20
1695.9177890000001
 30
0.0
  0
VERTEX
  5
785
  8
LAYER01
  6
CONTINUOUS
 62
     7
 10
6371.2826569999997
 20
1687.9879040000001
 30
0.0
  0
VERTEX
  5
786
  8
LAYER01
  6
CONTINUOUS
 62
     7
 10
6364.3440069999988
 20
1682.0404900000001
 30
0.0
  0
VERTEX
  5
787
  8
LAYER01
  6
CONTINUOUS
 62
     7
 10
6354.4316500000014
 20
1676.0930760000001
 30
0.0
  0
VERTEX
  5
788
  8
LAYER01
  6
CONTINUOUS
 62
     7
 10
6344.5192930000012
 20
1672.1281329999999
 30
0.0
  0
VERTEX
  5
789
  8
LAYER01
  6
CONTINUOUS
 62
     7
 10
6408.9496130000007
 20
1585.8906280000001
 30
0.0
  0
VERTEX
  5
78A
  8
LAYER01
  6
CONTINUOUS
 62
     7
 10
6359.3878290000002
 20
1585.8906280000001
 30
0.0
  0
VERTEX
  5
78B
  8
LAYER01
  6
CONTINUOUS
 62
     7
 10
6273.1503240000002
 20
1695.9177890000001
 30
0.0
  0
VERTEX
  5
78C
  8
LAYER01
  6
CONTINUOUS
 62
     7
 10
6321.7208719999999
 20
1695.9177890000001
 30
0.0
  0
VERTEX
  5
78D
  8
LAYER01
  6
CONTINUOUS
 62
     7
 10
6321.7208719999999
 20
1695.9177890000001
 30
0.0
  0
VERTEX
  5
78E
  8
LAYER01
  6
CONTINUOUS
 62
     7
 10
6327.6682869999986
 20
1697.900261
 30
0.0
  0
VERTEX
  5
78F
  8
LAYER01
  6
CONTINUOUS
 62
     7
 10
6332.6244649999999
 20
1699.882732
 30
0.0
  0
VERTEX
  5
790
  8
LAYER01
  6
CONTINUOUS
 62
     7
 10
6336.5894079999998
 20
1703.847675
 30
0.0
  0
VERTEX
  5
791
  8
LAYER01
  6
CONTINUOUS
 62
     7
 10
6340.5543509999998
 20
1707.8126179999999
 30
0.0
  0
VERTEX
  5
792
  8
LAYER01
  6
CONTINUOUS
 62
     7
 10
6343.5280579999999
 20
1712.7687960000001
 30
0.0
  0
VERTEX
  5
793
  8
LAYER01
  6
CONTINUOUS
 62
     7
 10
6346.501765
 20
1717.7249750000001
 30
0.0
  0
VERTEX
  5
794
  8
LAYER01
  6
CONTINUOUS
 62
     7
 10
6347.4930000000004
 20
1723.6723890000001
 30
0.0
  0
VERTEX
  5
795
  8
LAYER01
  6
CONTINUOUS
 62
     7
 10
6347.4930000000004
 20
1729.619803
 30
0.0
  0
VERTEX
  5
796
  8
LAYER01
  6
CONTINUOUS
 62
     7
 10
6347.4930000000004
 20
1729.619803
 30
0.0
  0
VERTEX
  5
797
  8
LAYER01
  6
CONTINUOUS
 62
     7
 10
6347.4930000000004
 20
1735.567217
 30
0.0
  0
VERTEX
  5
798
  8
LAYER01
  6
CONTINUOUS
 62
     7
 10
6345.510529000001
 20
1740.5233949999999
 30
0.0
  0
VERTEX
  5
799
  8
LAYER01
  6
CONTINUOUS
 62
     7
 10
6343.5280579999999
 20
1745.479574
 30
0.0
  0
VERTEX
  5
79A
  8
LAYER01
  6
CONTINUOUS
 62
     7
 10
6340.5543509999998
 20
1750.4357520000001
 30
0.0
  0
VERTEX
  5
79B
  8
LAYER01
  6
CONTINUOUS
 62
     7
 10
6336.5894079999998
 20
1754.400695
 30
0.0
  0
VERTEX
  5
79C
  8
LAYER01
  6
CONTINUOUS
 62
     7
 10
6332.6244649999999
 20
1757.3744019999999
 30
0.0
  0
VERTEX
  5
79D
  8
LAYER01
  6
CONTINUOUS
 62
     7
 10
6326.6770509999997
 20
1760.348109
 30
0.0
  0
VERTEX
  5
79E
  8
LAYER01
  6
CONTINUOUS
 62
     7
 10
6321.7208719999999
 20
1762.3305800000001
 30
0.0
  0
VERTEX
  5
79F
  8
LAYER01
  6
CONTINUOUS
 62
     7
 10
6265.2204380000003
 20
1762.3305800000001
 30
0.0
  0
VERTEX
  5
7A0
  8
LAYER01
  6
CONTINUOUS
 62
     7
 10
6229.5359539999999
 20
1798.015065
 30
0.0
  0
VERTEX
  5
7A1
  8
LAYER01
  6
CONTINUOUS
 62
     7
 10
6229.5359539999999
 20
1798.015065
 30
0.0
  0
SEQEND
  5
7A2
  8
LAYER01
  6
CONTINUOUS
 62
     7
  0
POLYLINE
  5
5B1
  8
LAYER01
  6
CONTINUOUS
 62
     7
 66
     1
 10
0.0
 20
0.0
 30
0.0
 70
     1
  0
VERTEX
  5
7A3
  8
LAYER01
  6
CONTINUOUS
 62
     7
 10
6435.7129770000001
 20
1745.479574
 30
0.0
  0
VERTEX
  5
7A4
  8
LAYER01
  6
CONTINUOUS
 62
     7
 10
6435.7129770000001
 20
1745.479574
 30
0.0
  0
VERTEX
  5
7A5
  8
LAYER01
  6
CONTINUOUS
 62
     7
 10
6440.6691549999987
 20
1746.4708089999999
 30
0.0
  0
VERTEX
  5
7A6
  8
LAYER01
  6
CONTINUOUS
 62
     7
 10
6445.625332999999
 20
1747.462045
 30
0.0
  0
VERTEX
  5
7A7
  8
LAYER01
  6
CONTINUOUS
 62
     7
 10
6450.5815119999988
 20
1750.4357520000001
 30
0.0
  0
VERTEX
  5
7A8
  8
LAYER01
  6
CONTINUOUS
 62
     7
 10
6454.5464549999988
 20
1753.409459
 30
0.0
  0
VERTEX
  5
7A9
  8
LAYER01
  6
CONTINUOUS
 62
     7
 10
6457.5201619999998
 20
1757.3744019999999
 30
0.0
  0
VERTEX
  5
7AA
  8
LAYER01
  6
CONTINUOUS
 62
     7
 10
6459.5026329999992
 20
1761.3393450000001
 30
0.0
  0
VERTEX
  5
7AB
  8
LAYER01
  6
CONTINUOUS
 62
     7
 10
6461.4851040000012
 20
1766.295523
 30
0.0
  0
VERTEX
  5
7AC
  8
LAYER01
  6
CONTINUOUS
 62
     7
 10
6461.4851040000012
 20
1772.242937
 30
0.0
  0
VERTEX
  5
7AD
  8
LAYER01
  6
CONTINUOUS
 62
     7
 10
6461.4851040000012
 20
1772.242937
 30
0.0
  0
VERTEX
  5
7AE
  8
LAYER01
  6
CONTINUOUS
 62
     7
 10
6461.4851040000012
 20
1777.199116
 30
0.0
  0
VERTEX
  5
7AF
  8
LAYER01
  6
CONTINUOUS
 62
     7
 10
6459.5026329999992
 20
1782.1552939999999
 30
0.0
  0
VERTEX
  5
7B0
  8
LAYER01
  6
CONTINUOUS
 62
     7
 10
6457.5201619999998
 20
1786.1202370000001
 30
0.0
  0
VERTEX
  5
7B1
  8
LAYER01
  6
CONTINUOUS
 62
     7
 10
6454.5464549999988
 20
1790.08518
 30
0.0
  0
VERTEX
  5
7B2
  8
LAYER01
  6
CONTINUOUS
 62
     7
 10
6450.5815119999988
 20
1793.0588869999999
 30
0.0
  0
VERTEX
  5
7B3
  8
LAYER01
  6
CONTINUOUS
 62
     7
 10
6445.625332999999
 20
1796.032594
 30
0.0
  0
VERTEX
  5
7B4
  8
LAYER01
  6
CONTINUOUS
 62
     7
 10
6440.6691549999987
 20
1797.0238300000001
 30
0.0
  0
VERTEX
  5
7B5
  8
LAYER01
  6
CONTINUOUS
 62
     7
 10
6435.7129770000001
 20
1798.015065
 30
0.0
  0
VERTEX
  5
7B6
  8
LAYER01
  6
CONTINUOUS
 62
     7
 10
6435.7129770000001
 20
1798.015065
 30
0.0
  0
VERTEX
  5
7B7
  8
LAYER01
  6
CONTINUOUS
 62
     7
 10
6430.7567980000003
 20
1797.0238300000001
 30
0.0
  0
VERTEX
  5
7B8
  8
LAYER01
  6
CONTINUOUS
 62
     7
 10
6425.80062
 20
1796.032594
 30
0.0
  0
VERTEX
  5
7B9
  8
LAYER01
  6
CONTINUOUS
 62
     7
 10
6420.8444409999993
 20
1793.0588869999999
 30
0.0
  0
VERTEX
  5
7BA
  8
LAYER01
  6
CONTINUOUS
 62
     7
 10
6416.8794980000002
 20
1790.08518
 30
0.0
  0
VERTEX
  5
7BB
  8
LAYER01
  6
CONTINUOUS
 62
     7
 10
6413.9057909999992
 20
1786.1202370000001
 30
0.0
  0
VERTEX
  5
7BC
  8
LAYER01
  6
CONTINUOUS
 62
     7
 10
6411.923319999999
 20
1782.1552939999999
 30
0.0
  0
VERTEX
  5
7BD
  8
LAYER01
  6
CONTINUOUS
 62
     7
 10
6409.9408489999996
 20
1777.199116
 30
0.0
  0
VERTEX
  5
7BE
  8
LAYER01
  6
CONTINUOUS
 62
     7
 10
6409.9408489999996
 20
1772.242937
 30
0.0
  0
VERTEX
  5
7BF
  8
LAYER01
  6
CONTINUOUS
 62
     7
 10
6409.9408489999996
 20
1772.242937
 30
0.0
  0
VERTEX
  5
7C0
  8
LAYER01
  6
CONTINUOUS
 62
     7
 10
6409.9408489999996
 20
1766.295523
 30
0.0
  0
VERTEX
  5
7C1
  8
LAYER01
  6
CONTINUOUS
 62
     7
 10
6411.923319999999
 20
1761.3393450000001
 30
0.0
  0
VERTEX
  5
7C2
  8
LAYER01
  6
CONTINUOUS
 62
     7
 10
6413.9057909999992
 20
1757.3744019999999
 30
0.0
  0
VERTEX
  5
7C3
  8
LAYER01
  6
CONTINUOUS
 62
     7
 10
6416.8794980000002
 20
1753.409459
 30
0.0
  0
VERTEX
  5
7C4
  8
LAYER01
  6
CONTINUOUS
 62
     7
 10
6420.8444409999993
 20
1750.4357520000001
 30
0.0
  0
VERTEX
  5
7C5
  8
LAYER01
  6
CONTINUOUS
 62
     7
 10
6425.80062
 20
1747.462045
 30
0.0
  0
VERTEX
  5
7C6
  8
LAYER01
  6
CONTINUOUS
 62
     7
 10
6430.7567980000003
 20
1746.4708089999999
 30
0.0
  0
VERTEX
  5
7C7
  8
LAYER01
  6
CONTINUOUS
 62
     7
 10
6435.7129770000001
 20
1745.479574
 30
0.0
  0
VERTEX
  5
7C8
  8
LAYER01
  6
CONTINUOUS
 62
     7
 10
6435.7129770000001
 20
1745.479574
 30
0.0
  0
SEQEND
  5
7C9
  8
LAYER01
  6
CONTINUOUS
 62
     7
  0
POLYLINE
  5
5B2
  8
LAYER01
  6
CONTINUOUS
 62
     7
 66
     1
 10
0.0
 20
0.0
 30
0.0
 70
     1
  0
VERTEX
  5
7CA
  8
LAYER01
  6
CONTINUOUS
 62
     7
 10
6435.7129770000001
 20
1794.050121999999
 30
0.0
  0
VERTEX
  5
7CB
  8
LAYER01
  6
CONTINUOUS
 62
     7
 10
6435.7129770000001
 20
1794.050121999999
 30
0.0
  0
VERTEX
  5
7CC
  8
LAYER01
  6
CONTINUOUS
 62
     7
 10
6439.6779190000007
 20
1793.0588869999999
 30
0.0
  0
VERTEX
  5
7CD
  8
LAYER01
  6
CONTINUOUS
 62
     7
 10
6443.6428619999997
 20
1792.0676510000001
 30
0.0
  0
VERTEX
  5
7CE
  8
LAYER01
  6
CONTINUOUS
 62
     7
 10
6447.6078049999996
 20
1790.08518
 30
0.0
  0
VERTEX
  5
7CF
  8
LAYER01
  6
CONTINUOUS
 62
     7
 10
6450.5815119999988
 20
1787.1114729999999
 30
0.0
  0
VERTEX
  5
7D0
  8
LAYER01
  6
CONTINUOUS
 62
     7
 10
6453.5552189999999
 20
1784.1377660000001
 30
0.0
  0
VERTEX
  5
7D1
  8
LAYER01
  6
CONTINUOUS
 62
     7
 10
6455.5376899999992
 20
1780.1728230000001
 30
0.0
  0
VERTEX
  5
7D2
  8
LAYER01
  6
CONTINUOUS
 62
     7
 10
6457.5201619999998
 20
1776.2078799999999
 30
0.0
  0
VERTEX
  5
7D3
  8
LAYER01
  6
CONTINUOUS
 62
     7
 10
6457.5201619999998
 20
1772.242937
 30
0.0
  0
VERTEX
  5
7D4
  8
LAYER01
  6
CONTINUOUS
 62
     7
 10
6457.5201619999998
 20
1772.242937
 30
0.0
  0
VERTEX
  5
7D5
  8
LAYER01
  6
CONTINUOUS
 62
     7
 10
6457.5201619999998
 20
1767.2867590000001
 30
0.0
  0
VERTEX
  5
7D6
  8
LAYER01
  6
CONTINUOUS
 62
     7
 10
6455.5376899999992
 20
1763.3218159999999
 30
0.0
  0
VERTEX
  5
7D7
  8
LAYER01
  6
CONTINUOUS
 62
     7
 10
6453.5552189999999
 20
1759.356873
 30
0.0
  0
VERTEX
  5
7D8
  8
LAYER01
  6
CONTINUOUS
 62
     7
 10
6450.5815119999988
 20
1756.3831660000001
 30
0.0
  0
VERTEX
  5
7D9
  8
LAYER01
  6
CONTINUOUS
 62
     7
 10
6447.6078049999996
 20
1753.409459
 30
0.0
  0
VERTEX
  5
7DA
  8
LAYER01
  6
CONTINUOUS
 62
     7
 10
6443.6428619999997
 20
1751.4269879999999
 30
0.0
  0
VERTEX
  5
7DB
  8
LAYER01
  6
CONTINUOUS
 62
     7
 10
6439.6779190000007
 20
1750.4357520000001
 30
0.0
  0
VERTEX
  5
7DC
  8
LAYER01
  6
CONTINUOUS
 62
     7
 10
6435.7129770000001
 20
1750.4357520000001
 30
0.0
  0
VERTEX
  5
7DD
  8
LAYER01
  6
CONTINUOUS
 62
     7
 10
6435.7129770000001
 20
1750.4357520000001
 30
0.0
  0
VERTEX
  5
7DE
  8
LAYER01
  6
CONTINUOUS
 62
     7
 10
6431.7480340000002
 20
1750.4357520000001
 30
0.0
  0
VERTEX
  5
7DF
  8
LAYER01
  6
CONTINUOUS
 62
     7
 10
6426.7918549999986
 20
1751.4269879999999
 30
0.0
  0
VERTEX
  5
7E0
  8
LAYER01
  6
CONTINUOUS
 62
     7
 10
6423.8181479999994
 20
1753.409459
 30
0.0
  0
VERTEX
  5
7E1
  8
LAYER01
  6
CONTINUOUS
 62
     7
 10
6419.8532059999998
 20
1756.3831660000001
 30
0.0
  0
VERTEX
  5
7E2
  8
LAYER01
  6
CONTINUOUS
 62
     7
 10
6417.8707340000001
 20
1759.356873
 30
0.0
  0
VERTEX
  5
7E3
  8
LAYER01
  6
CONTINUOUS
 62
     7
 10
6415.8882629999989
 20
1763.3218159999999
 30
0.0
  0
VERTEX
  5
7E4
  8
LAYER01
  6
CONTINUOUS
 62
     7
 10
6413.9057909999992
 20
1767.2867590000001
 30
0.0
  0
VERTEX
  5
7E5
  8
LAYER01
  6
CONTINUOUS
 62
     7
 10
6413.9057909999992
 20
1772.242937
 30
0.0
  0
VERTEX
  5
7E6
  8
LAYER01
  6
CONTINUOUS
 62
     7
 10
6413.9057909999992
 20
1772.242937
 30
0.0
  0
VERTEX
  5
7E7
  8
LAYER01
  6
CONTINUOUS
 62
     7
 10
6413.9057909999992
 20
1776.2078799999999
 30
0.0
  0
VERTEX
  5
7E8
  8
LAYER01
  6
CONTINUOUS
 62
     7
 10
6415.8882629999989
 20
1780.1728230000001
 30
0.0
  0
VERTEX
  5
7E9
  8
LAYER01
  6
CONTINUOUS
 62
     7
 10
6417.8707340000001
 20
1784.1377660000001
 30
0.0
  0
VERTEX
  5
7EA
  8
LAYER01
  6
CONTINUOUS
 62
     7
 10
6419.8532059999998
 20
1787.1114729999999
 30
0.0
  0
VERTEX
  5
7EB
  8
LAYER01
  6
CONTINUOUS
 62
     7
 10
6423.8181479999994
 20
1790.08518
 30
0.0
  0
VERTEX
  5
7EC
  8
LAYER01
  6
CONTINUOUS
 62
     7
 10
6426.7918549999986
 20
1792.0676510000001
 30
0.0
  0
VERTEX
  5
7ED
  8
LAYER01
  6
CONTINUOUS
 62
     7
 10
6431.7480340000002
 20
1793.0588869999999
 30
0.0
  0
VERTEX
  5
7EE
  8
LAYER01
  6
CONTINUOUS
 62
     7
 10
6435.7129770000001
 20
1794.050121999999
 30
0.0
  0
VERTEX
  5
7EF
  8
LAYER01
  6
CONTINUOUS
 62
     7
 10
6435.7129770000001
 20
1794.050121999999
 30
0.0
  0
SEQEND
  5
7F0
  8
LAYER01
  6
CONTINUOUS
 62
     7
  0
POLYLINE
  5
5B3
  8
LAYER01
  6
CONTINUOUS
 62
     7
 66
     1
 10
0.0
 20
0.0
 30
0.0
 70
     1
  0
VERTEX
  5
7F1
  8
LAYER01
  6
CONTINUOUS
 62
     7
 10
6439.6779190000007
 20
1770.260466
 30
0.0
  0
VERTEX
  5
7F2
  8
LAYER01
  6
CONTINUOUS
 62
     7
 10
6439.6779190000007
 20
1770.260466
 30
0.0
  0
VERTEX
  5
7F3
  8
LAYER01
  6
CONTINUOUS
 62
     7
 10
6442.6516259999989
 20
1771.251702
 30
0.0
  0
VERTEX
  5
7F4
  8
LAYER01
  6
CONTINUOUS
 62
     7
 10
6445.625332999999
 20
1772.242937
 30
0.0
  0
VERTEX
  5
7F5
  8
LAYER01
  6
CONTINUOUS
 62
     7
 10
6447.6078049999996
 20
1775.2166440000001
 30
0.0
  0
VERTEX
  5
7F6
  8
LAYER01
  6
CONTINUOUS
 62
     7
 10
6447.6078049999996
 20
1778.190351
 30
0.0
  0
VERTEX
  5
7F7
  8
LAYER01
  6
CONTINUOUS
 62
     7
 10
6447.6078049999996
 20
1778.190351
 30
0.0
  0
VERTEX
  5
7F8
  8
LAYER01
  6
CONTINUOUS
 62
     7
 10
6447.6078049999996
 20
1782.1552939999999
 30
0.0
  0
VERTEX
  5
7F9
  8
LAYER01
  6
CONTINUOUS
 62
     7
 10
6444.6340980000004
 20
1785.129001
 30
0.0
  0
VERTEX
  5
7FA
  8
LAYER01
  6
CONTINUOUS
 62
     7
 10
6441.6603909999994
 20
1786.1202370000001
 30
0.0
  0
VERTEX
  5
7FB
  8
LAYER01
  6
CONTINUOUS
 62
     7
 10
6437.6954479999986
 20
1786.1202370000001
 30
0.0
  0
VERTEX
  5
7FC
  8
LAYER01
  6
CONTINUOUS
 62
     7
 10
6425.80062
 20
1786.1202370000001
 30
0.0
  0
VERTEX
  5
7FD
  8
LAYER01
  6
CONTINUOUS
 62
     7
 10
6425.80062
 20
1757.3744019999999
 30
0.0
  0
VERTEX
  5
7FE
  8
LAYER01
  6
CONTINUOUS
 62
     7
 10
6429.7655619999996
 20
1757.3744019999999
 30
0.0
  0
VERTEX
  5
7FF
  8
LAYER01
  6
CONTINUOUS
 62
     7
 10
6429.7655619999996
 20
1770.260466
 30
0.0
  0
VERTEX
  5
800
  8
LAYER01
  6
CONTINUOUS
 62
     7
 10
6435.7129770000001
 20
1770.260466
 30
0.0
  0
VERTEX
  5
801
  8
LAYER01
  6
CONTINUOUS
 62
     7
 10
6442.6516259999989
 20
1757.3744019999999
 30
0.0
  0
VERTEX
  5
802
  8
LAYER01
  6
CONTINUOUS
 62
     7
 10
6447.6078049999996
 20
1757.3744019999999
 30
0.0
  0
VERTEX
  5
803
  8
LAYER01
  6
CONTINUOUS
 62
     7
 10
6439.6779190000007
 20
1770.260466
 30
0.0
  0
VERTEX
  5
804
  8
LAYER01
  6
CONTINUOUS
 62
     7
 10
6439.6779190000007
 20
1770.260466
 30
0.0
  0
SEQEND
  5
805
  8
LAYER01
  6
CONTINUOUS
 62
     7
  0
POLYLINE
  5
5B4
  8
LAYER01
  6
CONTINUOUS
 62
     7
 66
     1
 10
0.0
 20
0.0
 30
0.0
 70
     1
  0
VERTEX
  5
806
  8
LAYER01
  6
CONTINUOUS
 62
     7
 10
6436.7042119999987
 20
1782.1552939999999
 30
0.0
  0
VERTEX
  5
807
  8
LAYER01
  6
CONTINUOUS
 62
     7
 10
6436.7042119999987
 20
1782.1552939999999
 30
0.0
  0
VERTEX
  5
808
  8
LAYER01
  6
CONTINUOUS
 62
     7
 10
6441.6603909999994
 20
1781.164059
 30
0.0
  0
VERTEX
  5
809
  8
LAYER01
  6
CONTINUOUS
 62
     7
 10
6443.6428619999997
 20
1780.1728230000001
 30
0.0
  0
VERTEX
  5
80A
  8
LAYER01
  6
CONTINUOUS
 62
     7
 10
6443.6428619999997
 20
1778.190351
 30
0.0
  0
VERTEX
  5
80B
  8
LAYER01
  6
CONTINUOUS
 62
     7
 10
6443.6428619999997
 20
1778.190351
 30
0.0
  0
VERTEX
  5
80C
  8
LAYER01
  6
CONTINUOUS
 62
     7
 10
6442.6516259999989
 20
1776.2078799999999
 30
0.0
  0
VERTEX
  5
80D
  8
LAYER01
  6
CONTINUOUS
 62
     7
 10
6440.6691549999987
 20
1775.2166440000001
 30
0.0
  0
VERTEX
  5
80E
  8
LAYER01
  6
CONTINUOUS
 62
     7
 10
6434.7217410000003
 20
1774.2254089999999
 30
0.0
  0
VERTEX
  5
80F
  8
LAYER01
  6
CONTINUOUS
 62
     7
 10
6429.7655619999996
 20
1774.2254089999999
 30
0.0
  0
VERTEX
  5
810
  8
LAYER01
  6
CONTINUOUS
 62
     7
 10
6429.7655619999996
 20
1782.1552939999999
 30
0.0
  0
VERTEX
  5
811
  8
LAYER01
  6
CONTINUOUS
 62
     7
 10
6436.7042119999987
 20
1782.1552939999999
 30
0.0
  0
VERTEX
  5
812
  8
LAYER01
  6
CONTINUOUS
 62
     7
 10
6436.7042119999987
 20
1782.1552939999999
 30
0.0
  0
SEQEND
  5
813
  8
LAYER01
  6
CONTINUOUS
 62
     7
  0
ENDBLK
  5
5B5
  8
0
  0
BLOCK
  8
0
  2
TRIGO-G11
 70
     0
 10
0.0
 20
0.0
 30
0.0
  3
TRIGO-G11
  1

  0
TEXT
  5
5B8
  8
LAYER01
  6
VERDECKT
 62
     1
 10
2133.219951
 20
-311.285303
 30
0.0
 40
13.0
  1
A. Sprenger GmbH
  7
SIMPLEX
  0
TEXT
  5
5B9
  8
LAYER01
  6
VERDECKT
 62
     1
 10
2133.219951
 20
-333.57101699999998
 30
0.0
 40
13.0
  1
Berner Str. 10
  7
SIMPLEX
  0
TEXT
  5
5BA
  8
LAYER01
  6
VERDECKT
 62
     1
 10
2133.219951
 20
-355.85673100000002
 30
0.0
 40
13.0
  1
60437 Frankfurt
  7
SIMPLEX
  0
TEXT
  5
5BB
  8
LAYER01
  6
VERDECKT
 62
     1
 10
2133.219951
 20
-378.14244500000001
 30
0.0
 40
13.0
  1
Tel.: 069 - 507 27 41
  7
SIMPLEX
  0
TEXT
  5
5BC
  8
LAYER01
  6
VERDECKT
 62
     1
 10
2133.219951
 20
-400.42815999999988
 30
0.0
 40
13.0
  1
Fax: 069 - 507 72 91
  7
SIMPLEX
  0
TEXT
  5
5BD
  8
LAYER01
  6
VERDECKT
 62
     1
 10
2133.219951
 20
-422.71387399999998
 30
0.0
 40
13.0
  1
info@varicor.org
  7
SIMPLEX
  0
ENDBLK
  5
5BE
  8
0
  0
BLOCK
  8
0
  2
TRIGO-G10
 70
     0
 10
0.0
 20
0.0
 30
0.0
  3
TRIGO-G10
  1

  0
TEXT
  5
5C1
  8
LAYER01
  6
CONTINUOUS
 62
     1
 10
3499.283942
 20
-616.88954599999988
 30
0.0
 40
13.0
  1
Blatt
  7
SIMPLEX
  0
LINE
  5
5C2
  8
LAYER01
  6
CONTINUOUS
 62
     1
 10
2114.783942
 20
-525.88954599999988
 30
0.0
 11
2894.783942
 21
-525.88954599999988
 31
0.0
  0
LINE
  5
5C3
  8
LAYER01
  6
CONTINUOUS
 62
     1
 10
2114.783942
 20
-558.38954599999988
 30
0.0
 11
2894.783942
 21
-558.38954599999988
 31
0.0
  0
LINE
  5
5C4
  8
LAYER01
  6
CONTINUOUS
 62
     1
 10
2114.783942
 20
-590.889546
 30
0.0
 11
3583.783942
 21
-590.889546
 31
0.0
  0
LINE
  5
5C5
  8
LAYER01
  6
CONTINUOUS
 62
     1
 10
2114.783942
 20
-688.38954599999988
 30
0.0
 11
3583.783942
 21
-688.38954599999988
 31
0.0
  0
LINE
  5
5C6
  8
LAYER01
  6
CONTINUOUS
 62
     1
 10
2114.783942
 20
-428.389546
 30
0.0
 11
3583.783942
 21
-428.389546
 31
0.0
  0
POLYLINE
  5
5C7
  8
LAYER01
  6
CONTINUOUS
 62
     1
 66
     1
 10
0.0
 20
0.0
 30
0.0
 70
     1
  0
VERTEX
  5
814
  8
LAYER01
  6
CONTINUOUS
 62
     1
 10
2114.783942
 20
-727.389546
 30
0.0
  0
VERTEX
  5
815
  8
LAYER01
  6
CONTINUOUS
 62
     1
 10
2114.783942
 20
-291.889546
 30
0.0
  0
VERTEX
  5
816
  8
LAYER01
  6
CONTINUOUS
 62
     1
 10
3583.783942
 20
-291.889546
 30
0.0
  0
VERTEX
  5
817
  8
LAYER01
  6
CONTINUOUS
 62
     1
 10
3583.783942
 20
-727.389546
 30
0.0
  0
SEQEND
  5
818
  8
LAYER01
  6
CONTINUOUS
 62
     1
  0
LINE
  5
5C8
  8
LAYER01
  6
CONTINUOUS
 62
     1
 10
2114.783942
 20
-460.889546
 30
0.0
 11
2894.783942
 21
-460.889546
 31
0.0
  0
LINE
  5
5C9
  8
LAYER01
  6
CONTINUOUS
 62
     1
 10
2114.783942
 20
-493.389546
 30
0.0
 11
2894.783942
 21
-493.389546
 31
0.0
  0
LINE
  5
5CA
  8
LAYER01
  6
CONTINUOUS
 62
     1
 10
2537.283942
 20
-291.889546
 30
0.0
 11
2537.283942
 21
-727.389546
 31
0.0
  0
INSERT
  5
5CB
  8
LAYER01
  2
TRIGO-G11
 10
0.0
 20
0.0
 30
0.0
  0
LINE
  5
5CC
  8
LAYER01
  6
CONTINUOUS
 62
     1
 10
2114.783942
 20
-655.889546
 30
0.0
 11
2537.283942
 21
-655.889546
 31
0.0
  0
LINE
  5
5CD
  8
LAYER01
  6
CONTINUOUS
 62
     1
 10
2114.783942
 20
-623.389546
 30
0.0
 11
2537.283942
 21
-623.389546
 31
0.0
  0
LINE
  5
5CE
  8
LAYER01
  6
CONTINUOUS
 62
     1
 10
2173.283942
 20
-428.389546
 30
0.0
 11
2173.283942
 21
-727.389546
 31
0.0
  0
TEXT
  5
5CF
  8
LAYER01
  6
CONTINUOUS
 62
     1
 10
2125.7029859999998
 20
-714.389546
 30
0.0
 40
12.35
  1
Zust
  7
SIMPLEX
  0
LINE
  5
5D0
  8
LAYER01
  6
CONTINUOUS
 62
     1
 10
2378.4039419999999
 20
-727.389546
 30
0.0
 11
2378.4039419999999
 21
-428.389546
 31
0.0
  0
LINE
  5
5D1
  8
LAYER01
  6
CONTINUOUS
 62
     1
 10
2478.783942
 20
-428.389546
 30
0.0
 11
2478.783942
 21
-727.389546
 31
0.0
  0
TEXT
  5
5D2
  8
LAYER01
  6
CONTINUOUS
 62
     1
 10
2230.6510469999998
 20
-714.389546
 30
0.0
 40
12.35
  1
Änderung
  7
SIMPLEX
  0
TEXT
  5
5D3
  8
LAYER01
  6
CONTINUOUS
 62
     1
 10
2396.6943299999998
 20
-714.389546
 30
0.0
 40
12.35
  1
Datum
  7
SIMPLEX
  0
TEXT
  5
5D4
  8
LAYER01
  6
CONTINUOUS
 62
     1
 10
2483.677017
 20
-714.389546
 30
0.0
 40
12.35
  1
Name
  7
SIMPLEX
  0
LINE
  5
5D5
  8
LAYER01
  6
CONTINUOUS
 62
     1
 10
3583.783942
 20
-343.889546
 30
0.0
 11
2894.783942
 21
-343.889546
 31
0.0
  0
LINE
  5
5D6
  8
LAYER01
  6
CONTINUOUS
 62
     1
 10
2621.783942
 20
-558.38954599999988
 30
0.0
 11
2621.783942
 21
-428.389546
 31
0.0
  0
TEXT
  5
5D7
  8
LAYER01
  6
CONTINUOUS
 62
     1
 10
2550.283942
 20
-486.889546
 30
0.0
 40
13.0
  1
Bearb.
  7
SIMPLEX
  0
TEXT
  5
5D8
  8
LAYER01
  6
CONTINUOUS
 62
     1
 10
2550.283942
 20
-551.889546
 30
0.0
 40
13.0
  1
Norm
  7
SIMPLEX
  0
TEXT
  5
5D9
  8
LAYER01
  6
CONTINUOUS
 62
     1
 10
2550.283942
 20
-519.389546
 30
0.0
 40
13.0
  1
Gepr.
  7
SIMPLEX
  0
TEXT
  5
5DA
  8
LAYER01
  6
CONTINUOUS
 62
     1
 10
2654.283942
 20
-454.38954599999988
 30
0.0
 40
13.0
  1
Datum
  7
SIMPLEX
  0
TEXT
  5
5DB
  8
LAYER01
  6
CONTINUOUS
 62
     1
 10
2784.283942
 20
-454.38954599999988
 30
0.0
 40
13.0
  1
Name
  7
SIMPLEX
  0
TEXT
  5
5DC
  8
LAYER01
  6
CONTINUOUS
 62
     1
 10
3551.283942
 20
-681.889546
 30
0.0
 40
13.0
  1
Bl.
  7
SIMPLEX
  0
LINE
  5
5DD
  8
LAYER01
  6
CONTINUOUS
 62
     1
 10
2894.783942
 20
-727.389546
 30
0.0
 11
2894.783942
 21
-291.889546
 31
0.0
  0
LINE
  5
5DE
  8
LAYER01
  6
CONTINUOUS
 62
     1
 10
2745.283942
 20
-590.889546
 30
0.0
 11
2745.283942
 21
-291.889546
 31
0.0
  0
LINE
  5
5DF
  8
LAYER01
  6
CONTINUOUS
 62
     1
 10
3304.283942
 20
-291.889546
 30
0.0
 11
3304.283942
 21
-343.889546
 31
0.0
  0
TEXT
  5
5E0
  8
LAYER01
  6
CONTINUOUS
 62
     1
 10
2908.9461409999999
 20
-325.07854900000001
 30
0.0
 40
13.0
  1
Maßstab
  7
SIMPLEX
  0
LINE
  5
5E1
  8
LAYER01
  6
CONTINUOUS
 62
     1
 10
3486.283942
 20
-590.889546
 30
0.0
 11
3486.283942
 21
-688.38954599999988
 31
0.0
  0
LINE
  5
5E2
  8
LAYER01
  6
CONTINUOUS
 62
     1
 10
3486.283942
 20
-655.889546
 30
0.0
 11
3583.783942
 21
-655.889546
 31
0.0
  0
ENDBLK
  5
5E3
  8
0
  0
ENDSEC
  0
SECTION
  2
ENTITIES
  0
DIMENSION
  5
28A
  8
LAYER01
 62
     7
  2
*D0
 10
414.80040000000002
 20
2335.2797369999998
 30
0.0
 11
364.80040000000002
 21
2403.0746779999999
 31
0.0
 53
90.0
 13
619.15241300000002
 23
2470.4314140000001
 33
0.0
 14
619.15241300000002
 24
2335.2797369999998
 34
0.0
 50
90.0
  0
DIMENSION
  5
28B
  8
LAYER01
 62
     7
  2
*D1
 10
316.17485199999999
 20
2285.2797370000012
 30
0.0
 11
266.17485199999999
 21
2378.0746779999999
 31
0.0
 53
90.0
 13
619.15241300000002
 23
2470.4314140000001
 33
0.0
 14
619.15241300000002
 24
2285.2797370000012
 34
0.0
 50
90.0
  0
DIMENSION
  5
28C
  8
LAYER01
 62
     7
  2
*D2
 10
184.12697
 20
1620.4314139999999
 30
0.0
 11
134.12697
 21
2043.6535690000001
 31
0.0
 53
90.0
 13
-43.842486999999991
 23
2470.4314140000001
 33
0.0
 14
-43.842486999999991
 24
1620.4314139999999
 34
0.0
 50
90.0
  0
DIMENSION
  5
28D
  8
LAYER01
 62
     7
  2
*D3
 10
-207.033737
 20
2175.4314140000001
 30
0.0
 11
-257.03373699999997
 21
1896.1535690000001
 31
0.0
 53
90.0
 13
-294.2351680000001
 23
1620.4314139999999
 33
0.0
 14
-294.2351680000001
 24
2175.4314140000001
 34
0.0
 50
90.0
  0
DIMENSION
  5
28E
  8
LAYER01
 62
     7
  2
*D4
 10
-62.528508000000002
 20
2285.4314140000001
 30
0.0
 11
-112.528508
 21
1951.776437
 31
0.0
 53
90.0
 13
-165.038882
 23
1620.4314139999999
 33
0.0
 14
-165.038882
 24
2285.4314140000001
 34
0.0
 50
90.0
  0
DIMENSION
  5
28F
  8
LAYER01
 62
     7
  2
*D5
 10
-835.03888199999994
 20
523.66208600000004
 30
0.0
 11
-568.47910300000001
 21
573.66208600000004
 31
0.0
 13
-295.038882
 23
663.53875900000003
 33
0.0
 14
-835.03888199999994
 24
663.53875900000003
 34
0.0
  0
LINE
  5
290
  8
KERA7
  6
CONTINUOUS
 62
    22
 10
-16.221426999999998
 20
1620.4314139999999
 30
0.0
 11
-1083.6248399999999
 21
1620.4314139999999
 31
0.0
  0
INSERT
  5
291
  8
LAYER01
  2
AKZ_WEB-G7
 10
0.0
 20
0.0
 30
0.0
  0
DIMENSION
  5
292
  8
LAYER01
 62
     7
  2
*D8
 10
-165.038882
 20
1347.204735
 30
0.0
 11
-564.86119199999985
 21
1397.204735
 31
0.0
 13
-965.03888200000006
 23
1146.2607820000001
 33
0.0
 14
-165.038882
 24
1146.2607820000001
 34
0.0
  0
DIMENSION
  5
293
  8
LAYER01
 62
     7
  2
*D9
 10
-965.03888200000006
 20
1237.5800790000001
 30
0.0
 11
-764.86119199999985
 21
1287.5800790000001
 31
0.0
 13
-565.03888199999994
 23
1146.2607820000001
 33
0.0
 14
-965.03888200000006
 24
1146.2607820000001
 34
0.0
  0
POLYLINE
  5
294
  8
LAYER01
  6
CONTINUOUS
 62
     7
 66
     1
 10
0.0
 20
0.0
 30
0.0
  0
VERTEX
  5
619
  8
LAYER01
  6
CONTINUOUS
 62
     7
 10
-357.92688199999998
 20
1051.569782
 30
0.0
 42
0.033026
  0
VERTEX
  5
61A
  8
LAYER01
  6
CONTINUOUS
 62
     7
 10
-378.95788199999998
 20
1069.8457820000001
 30
0.0
 42
0.086389
  0
VERTEX
  5
61B
  8
LAYER01
  6
CONTINUOUS
 62
     7
 10
-461.09788200000003
 20
1112.301782
 30
0.0
 42
0.076323
  0
VERTEX
  5
61C
  8
LAYER01
  6
CONTINUOUS
 62
     7
 10
-565.03888199999994
 20
1128.2607820000001
 30
0.0
 42
0.076323
  0
VERTEX
  5
61D
  8
LAYER01
  6
CONTINUOUS
 62
     7
 10
-668.97988199999998
 20
1112.301782
 30
0.0
 42
0.086389
  0
VERTEX
  5
61E
  8
LAYER01
  6
CONTINUOUS
 62
     7
 10
-751.11988199999996
 20
1069.8457820000001
 30
0.0
 42
0.033026
  0
VERTEX
  5
61F
  8
LAYER01
  6
CONTINUOUS
 62
     7
 10
-772.15088200000002
 20
1051.569782
 30
0.0
  0
SEQEND
  5
620
  8
LAYER01
  6
CONTINUOUS
 62
     7
  0
POLYLINE
  5
29D
  8
LAYER01
  6
CONTINUOUS
 62
     7
 66
     1
 10
0.0
 20
0.0
 30
0.0
 70
     1
  0
VERTEX
  5
621
  8
LAYER01
  6
CONTINUOUS
 62
     7
 10
-565.03888199999994
 20
726.26078199999995
 30
0.0
 42
0.076323
  0
VERTEX
  5
622
  8
LAYER01
  6
CONTINUOUS
 62
     7
 10
-458.69688200000002
 20
742.58878200000004
 30
0.0
 42
0.086389
  0
VERTEX
  5
623
  8
LAYER01
  6
CONTINUOUS
 62
     7
 10
-374.11988200000002
 20
786.30378199999996
 30
0.0
 42
0.105887
  0
VERTEX
  5
624
  8
LAYER01
  6
CONTINUOUS
 62
     7
 10
-314.26188200000001
 20
855.88778200000013
 30
0.0
 42
0.125508
  0
VERTEX
  5
625
  8
LAYER01
  6
CONTINUOUS
 62
     7
 10
-295.038882
 20
931.26078199999995
 30
0.0
 42
0.125508
  0
VERTEX
  5
626
  8
LAYER01
  6
CONTINUOUS
 62
     7
 10
-314.26188200000001
 20
1006.633782
 30
0.0
 42
0.105887
  0
VERTEX
  5
627
  8
LAYER01
  6
CONTINUOUS
 62
     7
 10
-374.11988200000002
 20
1076.2177819999999
 30
0.0
 42
0.086389
  0
VERTEX
  5
628
  8
LAYER01
  6
CONTINUOUS
 62
     7
 10
-458.69688200000002
 20
1119.9327820000001
 30
0.0
 42
0.076323
  0
VERTEX
  5
629
  8
LAYER01
  6
CONTINUOUS
 62
     7
 10
-565.03888199999994
 20
1136.2607820000001
 30
0.0
 42
0.076323
  0
VERTEX
  5
62A
  8
LAYER01
  6
CONTINUOUS
 62
     7
 10
-671.38088200000004
 20
1119.9327820000001
 30
0.0
 42
0.086389
  0
VERTEX
  5
62B
  8
LAYER01
  6
CONTINUOUS
 62
     7
 10
-755.95788200000004
 20
1076.2177819999999
 30
0.0
 42
0.105887
  0
VERTEX
  5
62C
  8
LAYER01
  6
CONTINUOUS
 62
     7
 10
-815.81588199999999
 20
1006.633782
 30
0.0
 42
0.125508
  0
VERTEX
  5
62D
  8
LAYER01
  6
CONTINUOUS
 62
     7
 10
-835.03888199999994
 20
931.26078199999995
 30
0.0
 42
0.125508
  0
VERTEX
  5
62E
  8
LAYER01
  6
CONTINUOUS
 62
     7
 10
-815.81588199999999
 20
855.88778200000013
 30
0.0
 42
0.105887
  0
VERTEX
  5
62F
  8
LAYER01
  6
CONTINUOUS
 62
     7
 10
-755.95788200000004
 20
786.30378199999996
 30
0.0
 42
0.086389
  0
VERTEX
  5
630
  8
LAYER01
  6
CONTINUOUS
 62
     7
 10
-671.38088200000004
 20
742.58878200000004
 30
0.0
 42
0.076323
  0
SEQEND
  5
631
  8
LAYER01
  6
CONTINUOUS
 62
     7
  0
ARC
  5
2AF
  8
LAYER01
  6
CONTINUOUS
 62
     7
 10
-565.03888199999994
 20
1471.379782
 30
0.0
 40
468.11899999999991
 50
243.74072699999999
 51
296.25927300000001
  0
LINE
  5
2B0
  8
LAYER01
  6
CONTINUOUS
 62
     7
 10
-965.03888200000006
 20
1146.2607820000001
 30
0.0
 11
-165.038882
 21
1146.2607820000001
 31
0.0
  0
LINE
  5
2B1
  8
LAYER01
  6
CONTINUOUS
 62
     7
 10
-965.03888200000006
 20
1136.2607820000001
 30
0.0
 11
-165.038882
 21
1136.2607820000001
 31
0.0
  0
POLYLINE
  5
2B2
  8
LAYER01
  6
CONTINUOUS
 62
     7
 66
     1
 10
0.0
 20
0.0
 30
0.0
  0
VERTEX
  5
632
  8
LAYER01
  6
CONTINUOUS
 62
     7
 10
-565.03888199999994
 20
695.6667819999999
 30
0.0
 42
-0.136374
  0
VERTEX
  5
633
  8
LAYER01
  6
CONTINUOUS
 62
     7
 10
-895.89888199999996
 20
787.61878200000001
 30
0.0
 42
0.140194
  0
VERTEX
  5
634
  8
LAYER01
  6
CONTINUOUS
 62
     7
 10
-965.03888200000006
 20
806.26078199999995
 30
0.0
  0
SEQEND
  5
635
  8
LAYER01
  6
CONTINUOUS
 62
     7
  0
DIMENSION
  5
2B7
  8
LAYER01
 62
     7
  2
*D10
 10
-1251.5417219999999
 20
696.26078199999995
 30
0.0
 11
-1301.5417219999999
 21
917.82056199999977
 31
0.0
 53
90.0
 13
-965.03888200000006
 23
1146.2607820000001
 33
0.0
 14
-965.03888200000006
 24
696.26078199999995
 34
0.0
 50
90.0
  0
DIMENSION
  5
2B8
  8
LAYER01
 62
     7
  2
*D11
 10
-1120.407342
 20
806.2758399999999
 30
0.0
 11
-1170.407342
 21
972.82809099999997
 31
0.0
 53
90.0
 13
-965.03888200000006
 23
1146.2607820000001
 33
0.0
 14
-965.03888200000006
 24
806.2758399999999
 34
0.0
 50
90.0
  0
LINE
  5
2B9
  8
LAYER01
  6
CONTINUOUS
 62
     7
 10
-965.03888200000006
 20
806.2758399999999
 30
0.0
 11
-965.03888200000006
 21
1146.2607820000001
 31
0.0
  0
DIMENSION
  5
2BA
  8
LAYER01
 62
     7
  2
*D12
 10
27.747012000000002
 20
726.26078199999995
 30
0.0
 11
-22.252987999999998
 21
926.23365899999999
 31
0.0
 53
90.0
 13
-164.038882
 23
1136.2607820000001
 33
0.0
 14
-164.038882
 24
726.26078199999995
 34
0.0
 50
90.0
  0
LINE
  5
2BB
  8
LAYER01
  6
CONTINUOUS
 62
     7
 10
-165.038882
 20
806.26078199999995
 30
0.0
 11
-165.038882
 21
1146.2607820000001
 31
0.0
  0
LINE
  5
2BC
  8
KERA2
  6
CONTINUOUS
 62
     7
 10
-605.03888200000006
 20
926.26078200000006
 30
0.0
 11
-525.03888199999994
 21
926.26078200000006
 31
0.0
  0
CIRCLE
  5
2BD
  8
KERA0
  6
CONTINUOUS
 62
     5
 10
-565.03888199999994
 20
926.26078200000006
 30
0.0
 40
25.0
  0
LINE
  5
2BE
  8
KERA2
  6
CONTINUOUS
 62
     7
 10
-565.03888199999994
 20
966.26078200000006
 30
0.0
 11
-565.03888199999994
 21
886.26078199999995
 31
0.0
  0
CIRCLE
  5
2BF
  8
LAYER01
  6
CONTINUOUS
 62
     7
 10
-565.03888199999994
 20
926.26078200000006
 30
0.0
 40
35.0
  0
POLYLINE
  5
2C0
  8
LAYER01
  6
CONTINUOUS
 62
     7
 66
     1
 10
0.0
 20
0.0
 30
0.0
  0
VERTEX
  5
636
  8
LAYER01
  6
CONTINUOUS
 62
     7
 10
-565.03888199999994
 20
695.6667819999999
 30
0.0
 42
0.136374
  0
VERTEX
  5
637
  8
LAYER01
  6
CONTINUOUS
 62
     7
 10
-234.17888199999999
 20
787.61878200000001
 30
0.0
 42
-0.140194
  0
VERTEX
  5
638
  8
LAYER01
  6
CONTINUOUS
 62
     7
 10
-165.038882
 20
806.26078199999995
 30
0.0
  0
SEQEND
  5
639
  8
LAYER01
  6
CONTINUOUS
 62
     7
  0
LINE
  5
2C5
  8
KERA2
  6
CONTINUOUS
 62
     7
 10
-565.03888199999994
 20
1091.2607820000001
 30
0.0
 11
-565.03888199999994
 21
1041.2607820000001
 31
0.0
  0
LINE
  5
2C6
  8
KERA2
  6
CONTINUOUS
 62
     7
 10
-590.03888199999994
 20
1066.2607820000001
 30
0.0
 11
-540.03888199999994
 21
1066.2607820000001
 31
0.0
  0
DIMENSION
  5
2C7
  8
LAYER01
 62
     7
  2
*D13
 10
-565.03888199999994
 20
1237.5800790000001
 30
0.0
 11
-364.86119200000002
 21
1287.5800790000001
 31
0.0
 13
-165.038882
 23
1146.2607820000001
 33
0.0
 14
-565.03888199999994
 24
1146.2607820000001
 34
0.0
  0
CIRCLE
  5
2C8
  8
LAYER01
  6
CONTINUOUS
 62
     7
 10
-565.03888199999994
 20
1066.2607820000001
 30
0.0
 40
20.0
  0
ARC
  5
2C9
  8
LAYER01
  6
CONTINUOUS
 62
     7
 10
-611.84291799999994
 20
2596.6699260000009
 30
0.0
 40
280.13869199999999
 50
227.40883500000001
 51
267.30007699999999
  0
LINE
  5
2CA
  8
LAYER01
  6
CONTINUOUS
 62
     7
 10
-965.03888200000006
 20
2390.4314140000001
 30
0.0
 11
-165.038882
 21
2390.4314140000001
 31
0.0
  0
LINE
  5
2CB
  8
LAYER01
  6
CONTINUOUS
 62
     7
 10
-965.03888200000006
 20
2470.4314140000001
 30
0.0
 11
-165.038882
 21
2470.4314140000001
 31
0.0
  0
LINE
  5
2CC
  8
LAYER01
  6
CONTINUOUS
 62
     7
 10
-965.03888200000006
 20
2500.4314140000001
 30
0.0
 11
-165.038882
 21
2500.4314140000001
 31
0.0
  0
LINE
  5
2CD
  8
LAYER01
  6
CONTINUOUS
 62
     7
 10
-645.03888199999994
 20
2225.4314140000001
 30
0.0
 11
-605.03888200000006
 21
2225.4314140000001
 31
0.0
  0
LINE
  5
2CE
  8
LAYER01
  6
CONTINUOUS
 62
     7
 10
-965.03888200000006
 20
2390.4314140000001
 30
0.0
 11
-965.03888200000006
 21
2470.4314140000001
 31
0.0
  0
LINE
  5
2CF
  8
LAYER01
  6
CONTINUOUS
 62
     7
 10
-965.03888200000006
 20
2390.4314140000001
 30
0.0
 11
-965.03888200000006
 21
2500.4314140000001
 31
0.0
  0
DIMENSION
  5
2D0
  8
LAYER01
 62
     7
  2
*D14
 10
184.12697
 20
2500.4314140000001
 30
0.0
 11
134.12697
 21
2630.8218590000001
 31
0.0
 53
90.0
 13
-165.038882
 23
2470.4314140000001
 33
0.0
 14
-165.038882
 24
2500.4314140000001
 34
0.0
 50
90.0
  0
DIMENSION
  5
2D1
  8
LAYER01
 62
     7
  2
*D15
 10
-63.774242000000001
 20
2470.4314140000001
 30
0.0
 11
-113.774242
 21
2429.2461840000001
 31
0.0
 53
90.0
 13
-150.975674
 23
2390.4314140000001
 33
0.0
 14
-150.975674
 24
2470.4314140000001
 34
0.0
 50
90.0
  0
DIMENSION
  5
2D2
  8
LAYER01
 62
     7
  2
*D16
 10
-207.033737
 20
2225.4314140000001
 30
0.0
 11
-257.03373699999997
 21
2282.738754
 31
0.0
 53
90.0
 13
-294.2351680000001
 23
2175.4314140000001
 33
0.0
 14
-294.2351680000001
 24
2225.4314140000001
 34
0.0
 50
90.0
  0
LINE
  5
2D3
  8
LAYER01
  6
CONTINUOUS
 62
     7
 10
-565.03888199999994
 20
2137.2494139999999
 30
0.0
 11
-565.03888199999994
 21
2219.1394140000002
 31
0.0
  0
LINE
  5
2D4
  8
KERA2
  6
CONTINUOUS
 62
     7
 10
-565.03888199999994
 20
2352.3781060000001
 30
0.0
 11
-565.03888199999994
 21
2269.290868
 31
0.0
  0
ARC
  5
2D5
  8
KERA4
  6
CONTINUOUS
 62
     1
 10
-556.84292300000004
 20
2723.951654
 30
0.0
 40
393.60557999999997
 50
268.80685699999998
 51
277.56287400000002
  0
ARC
  5
2D6
  8
KERA4
  6
CONTINUOUS
 62
     1
 10
-573.23484199999996
 20
2723.951654
 30
0.0
 40
393.60557999999997
 50
262.43712599999998
 51
271.19314300000002
  0
LINE
  5
2D7
  8
LAYER01
  6
CONTINUOUS
 62
     7
 10
-165.038882
 20
2390.4314140000001
 30
0.0
 11
-165.038882
 21
2470.4314140000001
 31
0.0
  0
ARC
  5
2D8
  8
LAYER01
  6
CONTINUOUS
 62
     7
 10
-517.88169800000003
 20
2596.7737099999999
 30
0.0
 40
280.53156200000001
 50
272.62393400000002
 51
312.64710099999991
  0
LINE
  5
2D9
  8
LAYER01
  6
CONTINUOUS
 62
     7
 10
-625.03888199999994
 20
2316.8422049999999
 30
0.0
 11
-505.03888200000011
 21
2316.5362770000002
 31
0.0
  0
LINE
  5
2DA
  8
LAYER01
  6
CONTINUOUS
 62
     7
 10
-625.03888199999994
 20
2316.8422049999999
 30
0.0
 11
-625.03888199999994
 21
2285.4314140000001
 31
0.0
  0
LINE
  5
2DB
  8
LAYER01
  6
CONTINUOUS
 62
     7
 10
-505.03888200000011
 20
2316.5362770000002
 30
0.0
 11
-505.03888200000011
 21
2285.4314140000001
 31
0.0
  0
LINE
  5
2DC
  8
LAYER01
  6
CONTINUOUS
 62
     7
 10
-505.03888200000011
 20
2285.4314140000001
 30
0.0
 11
-625.03888199999994
 21
2285.4314140000001
 31
0.0
  0
LINE
  5
2DD
  8
LAYER01
  6
CONTINUOUS
 62
     7
 10
-606.69888200000003
 20
2175.4314140000001
 30
0.0
 11
-525.64888199999996
 21
2175.4314140000001
 31
0.0
  0
LINE
  5
2DE
  8
LAYER01
  6
CONTINUOUS
 62
     7
 10
-565.03578200000004
 20
2190.4294140000002
 30
0.0
 11
-565.03578200000004
 21
2190.4294140000002
 31
0.0
  0
LINE
  5
2DF
  8
LAYER01
  6
CONTINUOUS
 62
     7
 10
-525.03888199999994
 20
2225.4314140000001
 30
0.0
 11
-485.038882
 21
2225.4314140000001
 31
0.0
  0
LINE
  5
2E0
  8
LAYER01
  6
CONTINUOUS
 62
     7
 10
-625.03888199999994
 20
2205.4314140000001
 30
0.0
 11
-625.03888199999994
 21
2245.4314140000001
 31
0.0
  0
LINE
  5
2E1
  8
LAYER01
  6
CONTINUOUS
 62
     7
 10
-505.03888200000011
 20
2205.4314140000001
 30
0.0
 11
-505.03888200000011
 21
2245.4314140000001
 31
0.0
  0
CIRCLE
  5
2E2
  8
LAYER01
  6
CONTINUOUS
 62
     7
 10
-625.03888199999994
 20
2225.4314140000001
 30
0.0
 40
12.5
  0
CIRCLE
  5
2E3
  8
LAYER01
  6
CONTINUOUS
 62
     7
 10
-565.03888199999994
 20
2175.4314140000001
 30
0.0
 40
25.0
  0
CIRCLE
  5
2E4
  8
LAYER01
  6
CONTINUOUS
 62
     7
 10
-505.03888200000011
 20
2225.4314140000001
 30
0.0
 40
12.5
  0
LINE
  5
2E5
  8
LAYER01
  6
CONTINUOUS
 62
     7
 10
-165.038882
 20
2390.4314140000001
 30
0.0
 11
-165.038882
 21
2500.4314140000001
 31
0.0
  0
DIMENSION
  5
2E6
  8
LAYER01
 62
     7
  2
*D17
 10
623.383644
 20
2721.755236
 30
0.0
 11
848.40464299999985
 21
2771.755236
 31
0.0
 13
1072.99548
 23
2500.4314140000001
 33
0.0
 14
623.383644
 24
2500.4314140000001
 34
0.0
  0
DIMENSION
  5
2E7
  8
LAYER01
 62
     7
  2
*D18
 10
927.99548000000004
 20
2645.1582330000001
 30
0.0
 11
1023.388524
 21
2695.1582330000001
 31
0.0
 13
987.99548000000004
 23
2500.4314140000001
 33
0.0
 14
927.99548000000004
 24
2500.4314140000001
 34
0.0
  0
DIMENSION
  5
2E8
  8
LAYER01
 62
     7
  2
*D19
 10
987.99548000000004
 20
2559.1470730000001
 30
0.0
 11
1030.6388669999999
 21
2609.1470730000001
 31
0.0
 13
1072.99548
 23
2499.6734660000002
 33
0.0
 14
987.99548000000004
 24
2499.6734660000002
 34
0.0
  0
DIMENSION
  5
2E9
  8
LAYER01
 62
     7
  2
*D20
 10
1209.2713120000001
 20
2470.4314140000001
 30
0.0
 11
1159.2713120000001
 21
2630.8788199999999
 31
0.0
 53
90.0
 13
1072.99548
 23
2500.4883759999998
 33
0.0
 14
1072.99548
 24
2470.4314140000001
 34
0.0
 50
90.0
  0
DIMENSION
  5
2EA
  8
LAYER01
 62
     7
  2
*D21
 10
829.99548000000004
 20
2242.4890719999999
 30
0.0
 11
741.95061599999997
 21
2292.4890719999999
 31
0.0
  1
%%C<>
 13
876.27941999999996
 23
2285.2797370000012
 33
0.0
 14
829.99548000000004
 24
2285.2797370000012
 34
0.0
  0
DIMENSION
  5
2EB
  8
LAYER01
 62
     7
  2
*D22
 10
1072.99548
 20
2059.7688469999998
 30
0.0
 11
963.21056099999987
 21
2109.7688469999998
 31
0.0
 13
852.99548000000004
 23
2276.2095509999999
 33
0.0
 14
1072.99548
 24
2276.2095509999999
 34
0.0
  0
LINE
  5
2EC
  8
LAYER01
  6
CONTINUOUS
 62
     7
 10
921.93399899999986
 20
2433.3673079999999
 30
0.0
 11
958.26376700000003
 21
2433.3673079999999
 31
0.0
  0
LINE
  5
2ED
  8
LAYER01
  6
CONTINUOUS
 62
     7
 10
927.23783900000001
 20
2425.0227850000001
 30
0.0
 11
948.2829569999999
 21
2425.0227850000001
 31
0.0
  0
LINE
  5
2EE
  8
LAYER01
  6
CONTINUOUS
 62
     7
 10
926.10326199999986
 20
2414.653092
 30
0.0
 11
936.47295599999995
 21
2425.0227850000001
 31
0.0
  0
LINE
  5
2EF
  8
LAYER01
  6
CONTINUOUS
 62
     7
 10
925.01737100000025
 20
2404.7283649999999
 30
0.0
 11
945.31179099999986
 21
2425.0227850000001
 31
0.0
  0
LINE
  5
2F0
  8
LAYER01
  6
CONTINUOUS
 62
     7
 10
923.93147899999985
 20
2394.8036390000002
 30
0.0
 11
947.46877400000005
 21
2418.3409339999998
 31
0.0
  0
LINE
  5
2F1
  8
LAYER01
  6
CONTINUOUS
 62
     7
 10
922.84558699999991
 20
2384.8789120000001
 30
0.0
 11
946.42075999999986
 21
2408.4540860000002
 31
0.0
  0
LINE
  5
2F2
  8
LAYER01
  6
CONTINUOUS
 62
     7
 10
921.75969600000008
 20
2374.9541859999999
 30
0.0
 11
945.37274600000012
 21
2398.5672370000002
 31
0.0
  0
LINE
  5
2F3
  8
LAYER01
  6
CONTINUOUS
 62
     7
 10
920.6738039999999
 20
2365.0294589999999
 30
0.0
 11
944.32473300000004
 21
2388.6803880000002
 31
0.0
  0
LINE
  5
2F4
  8
LAYER01
  6
CONTINUOUS
 62
     7
 10
895.11771300000009
 20
2312.9568640000002
 30
0.0
 11
941.18069100000014
 21
2359.0198420000002
 31
0.0
  0
LINE
  5
2F5
  8
LAYER01
  6
CONTINUOUS
 62
     7
 10
905.89953300000002
 20
2314.8998489999999
 30
0.0
 11
938.57417399999997
 21
2347.57449
 31
0.0
  0
LINE
  5
2F6
  8
LAYER01
  6
CONTINUOUS
 62
     7
 10
653.148549
 20
2470.2797369999998
 30
0.0
 11
1059.522534
 21
2470.2797369999998
 31
0.0
  0
ARC
  5
2F7
  8
LAYER01
  6
CONTINUOUS
 62
     7
 10
890.25515800000005
 20
2363.3473670000012
 30
0.0
 40
51.100000000000001
 50
270.0
 51
354.21325999999999
  0
ARC
  5
2F8
  8
LAYER01
  6
CONTINUOUS
 62
     7
 10
890.25515800000005
 20
2363.3473670000012
 30
0.0
 40
61.100000000000001
 50
291.844382
 51
354.21325999999999
  0
LINE
  5
2F9
  8
LAYER01
  6
CONTINUOUS
 62
     7
 10
885.56938099999991
 20
2312.2473670000008
 30
0.0
 11
942.2287050000001
 21
2368.9066910000001
 31
0.0
  0
LINE
  5
2FA
  8
LAYER01
  6
CONTINUOUS
 62
     7
 10
917.811284
 20
2353.3281050000001
 30
0.0
 11
943.27671899999984
 21
2378.7935389999998
 31
0.0
  0
LINE
  5
2FB
  8
LAYER01
  6
CONTINUOUS
 62
     7
 10
928.92914900000005
 20
2441.7118310000001
 30
0.0
 11
949.953125
 21
2441.7118310000001
 31
0.0
  0
LINE
  5
2FC
  8
LAYER01
  6
CONTINUOUS
 62
     7
 10
929.18667799999992
 20
2444.2530120000001
 30
0.0
 11
942.49420099999998
 21
2457.5605350000001
 31
0.0
  0
LINE
  5
2FD
  8
LAYER01
  6
CONTINUOUS
 62
     7
 10
935.48433299999988
 20
2441.7118310000001
 30
0.0
 11
951.33303599999988
 21
2457.5605350000001
 31
0.0
  0
INSERT
  5
2FE
  8
LAYER01
  2
AKZ_WEB-G24
 10
0.0
 20
0.0
 30
0.0
  0
DIMENSION
  5
2FF
  8
LAYER01
 62
     7
  2
*D24
 10
793.00128899999993
 20
2138.933348
 30
0.0
 11
853.37145099999987
 21
2188.933348
 31
0.0
  1
%%C<>
 13
912.98966999999993
 23
2285.2797370000012
 33
0.0
 14
793.00128899999993
 24
2285.2797370000012
 34
0.0
  0
LINE
  5
300
  8
LAYER01
  6
CONTINUOUS
 62
     7
 10
927.1891539999998
 20
2424.5778180000002
 30
0.0
 11
927.63412100000005
 21
2425.0227850000001
 31
0.0
  0
LINE
  5
301
  8
LAYER01
  6
CONTINUOUS
 62
     7
 10
930.07967299999996
 20
2453.0646649999999
 30
0.0
 11
920.37007899999992
 21
2362.2549549999999
 31
0.0
  0
INSERT
  5
302
  8
LAYER01
  2
AKZ_WEB-G26
 10
0.0
 20
0.0
 30
0.0
  0
DIMENSION
  5
303
  8
LAYER01
 62
     7
  2
*D26
 10
522.85963200000003
 20
2470.4314140000001
 30
0.0
 11
472.85963199999998
 21
2430.5774820000001
 31
0.0
 53
90.0
 13
623.383644
 23
2390.4314140000001
 33
0.0
 14
623.383644
 24
2470.4314140000001
 34
0.0
 50
90.0
  0
LINE
  5
304
  8
LAYER01
  6
CONTINUOUS
 62
     7
 10
636.46242999999993
 20
2390.4314140000001
 30
0.0
 11
690.22979899999996
 21
2390.4314140000001
 31
0.0
  0
LINE
  5
305
  8
LAYER01
  6
CONTINUOUS
 62
     7
 10
623.383644
 20
2390.4314140000001
 30
0.0
 11
636.46242999999993
 21
2390.4314140000001
 31
0.0
  0
LINE
  5
306
  8
LAYER01
  6
CONTINUOUS
 62
     7
 10
623.383644
 20
2390.4314140000001
 30
0.0
 11
623.383644
 21
2465.2797369999998
 31
0.0
  0
LINE
  5
307
  8
LAYER01
  6
CONTINUOUS
 62
     7
 10
636.46242999999993
 20
2390.4314140000001
 30
0.0
 11
636.66663099999994
 21
2455.1132579999999
 31
0.0
  0
ARC
  5
308
  8
LAYER01
  6
CONTINUOUS
 62
     7
 10
628.38364399999989
 20
2465.2797369999998
 30
0.0
 40
5.0
 50
90.0
 51
180.0
  0
ARC
  5
309
  8
LAYER01
  6
CONTINUOUS
 62
     7
 10
653.148549
 20
2467.2797370000012
 30
0.0
 40
3.0
 50
18.564610999999999
 51
90.0
  0
ARC
  5
30A
  8
LAYER01
  6
CONTINUOUS
 62
     7
 10
639.66661599999986
 20
2455.103787
 30
0.0
 40
3.0
 50
90.0
 51
179.819118
  0
LINE
  5
30B
  8
LAYER01
  6
CONTINUOUS
 62
     7
 10
639.66661599999986
 20
2458.103787
 30
0.0
 11
644.571415
 21
2458.103787
 31
0.0
  0
ARC
  5
30C
  8
LAYER01
  6
CONTINUOUS
 62
     7
 10
644.571415
 20
2455.103787
 30
0.0
 40
3.0
 50
22.970147000000001
 51
90.0
  0
LINE
  5
30D
  8
LAYER01
  6
CONTINUOUS
 62
     7
 10
628.38364399999989
 20
2470.2797369999998
 30
0.0
 11
653.148549
 21
2470.2797369999998
 31
0.0
  0
ARC
  5
30E
  8
LAYER01
  6
CONTINUOUS
 62
     7
 10
842.42409299999986
 20
2530.8478760000012
 30
0.0
 40
196.66506899999999
 50
198.56461100000001
 51
263.94567799999999
  0
ARC
  5
30F
  8
LAYER01
  6
CONTINUOUS
 62
     7
 10
853.34538499999985
 20
2543.5947310000001
 30
0.0
 40
223.75364999999999
 50
202.970147
 51
254.354186
  0
ARC
  5
310
  8
LAYER01
  6
CONTINUOUS
 62
     7
 10
890.52095800000006
 20
2365.2600200000002
 30
0.0
 40
30.0
 50
270.0
 51
354.21325999999999
  0
ARC
  5
311
  8
LAYER01
  6
CONTINUOUS
 62
     7
 10
935.05419300000005
 20
2452.5605350000001
 30
0.0
 40
5.0
 50
90.0
 51
174.21325999999999
  0
LINE
  5
312
  8
LAYER01
  6
CONTINUOUS
 62
     7
 10
875.99548000000004
 20
2293.8346310000002
 30
0.0
 11
884.40821600000015
 21
2302.2473669999999
 31
0.0
  0
LINE
  5
313
  8
LAYER01
  6
CONTINUOUS
 62
     7
 10
876.27941999999996
 20
2285.2797370000012
 30
0.0
 11
893.56332399999985
 21
2302.5636399999999
 31
0.0
  0
LINE
  5
314
  8
LAYER01
  6
CONTINUOUS
 62
     7
 10
885.11825499999998
 20
2285.2797370000012
 30
0.0
 11
903.75926399999992
 21
2303.9207460000011
 31
0.0
  0
LINE
  5
315
  8
LAYER01
  6
CONTINUOUS
 62
     7
 10
893.95708999999988
 20
2285.2797370000012
 30
0.0
 11
912.98966999999993
 21
2304.3123169999999
 31
0.0
  0
LINE
  5
316
  8
LAYER01
  6
CONTINUOUS
 62
     7
 10
902.7959239999999
 20
2285.2797370000012
 30
0.0
 11
912.98966999999993
 21
2295.4734819999999
 31
0.0
  0
LINE
  5
317
  8
LAYER01
  6
CONTINUOUS
 62
     7
 10
911.63475900000003
 20
2285.2797370000012
 30
0.0
 11
912.98966999999993
 21
2286.6346469999999
 31
0.0
  0
LINE
  5
318
  8
LAYER01
  6
CONTINUOUS
 62
     7
 10
793.00128899999993
 20
2285.2797370000012
 30
0.0
 11
912.98966999999993
 21
2285.2797370000012
 31
0.0
  0
LINE
  5
319
  8
LAYER01
  6
CONTINUOUS
 62
     7
 10
875.99548000000004
 20
2285.2797370000012
 30
0.0
 11
875.99548000000004
 21
2324.618289
 31
0.0
  0
LINE
  5
31A
  8
LAYER01
  6
CONTINUOUS
 62
     7
 10
829.99548000000004
 20
2285.2797370000012
 30
0.0
 11
829.99548000000004
 21
2324.618289
 31
0.0
  0
LINE
  5
31B
  8
LAYER01
  6
CONTINUOUS
 62
     7
 10
829.99548000000004
 20
2324.618289
 30
0.0
 11
875.99548000000004
 21
2324.618289
 31
0.0
  0
LINE
  5
31C
  8
LAYER01
  6
CONTINUOUS
 62
     7
 10
890.25515800000005
 20
2302.2473669999999
 30
0.0
 11
875.99548000000004
 21
2302.2473669999999
 31
0.0
  0
ARC
  5
31D
  8
LAYER01
  6
CONTINUOUS
 62
     7
 10
890.25515800000005
 20
2363.3473670000012
 30
0.0
 40
61.100000000000001
 50
270.0
 51
291.844382
  0
LINE
  5
31E
  8
LAYER01
  6
CONTINUOUS
 62
     7
 10
912.98966999999993
 20
2285.2797370000012
 30
0.0
 11
912.98966999999993
 21
2306.6344760000011
 31
0.0
  0
LINE
  5
31F
  8
LAYER01
  6
CONTINUOUS
 62
     7
 10
890.25515800000005
 20
2312.2473670000008
 30
0.0
 11
875.99548000000004
 21
2312.2473670000008
 31
0.0
  0
LINE
  5
320
  8
LAYER01
  6
CONTINUOUS
 62
     7
 10
793.00128899999993
 20
2285.2797370000012
 30
0.0
 11
793.00128899999993
 21
2328.131774
 31
0.0
  0
LINE
  5
321
  8
LAYER01
  6
CONTINUOUS
 62
     7
 10
852.99548000000004
 20
2276.2095509999999
 30
0.0
 11
852.99548000000004
 21
2339.6920479999999
 31
0.0
  0
LINE
  5
322
  8
LAYER01
  6
CONTINUOUS
 62
     7
 10
875.99548000000004
 20
2320.3511350000008
 30
0.0
 11
891.00883499999998
 21
2335.3644899999999
 31
0.0
  0
LINE
  5
323
  8
LAYER01
  6
CONTINUOUS
 62
     7
 10
876.73054600000012
 20
2312.2473670000008
 30
0.0
 11
902.25607400000013
 21
2337.7728950000001
 31
0.0
  0
LINE
  5
324
  8
LAYER01
  6
CONTINUOUS
 62
     7
 10
829.99548000000004
 20
2324.618289
 30
0.0
 11
821.68156699999986
 21
2335.2797369999998
 31
0.0
  0
LINE
  5
325
  8
LAYER01
  6
CONTINUOUS
 62
     7
 10
875.99548000000004
 20
2324.618289
 30
0.0
 11
884.30939199999989
 21
2335.2797369999998
 31
0.0
  0
LINE
  5
326
  8
LAYER01
  6
CONTINUOUS
 62
     7
 10
884.30939199999989
 20
2335.2797369999998
 30
0.0
 11
821.68156699999986
 21
2335.2797369999998
 31
0.0
  0
LINE
  5
327
  8
LAYER01
  6
CONTINUOUS
 62
     7
 10
890.52095800000006
 20
2335.2600200000002
 30
0.0
 11
884.30939199999989
 21
2335.2797369999998
 31
0.0
  0
LINE
  5
328
  8
KERA5
  6
CONTINUOUS
 62
   252
 10
1060.7912940000001
 20
2496.3081149999998
 30
0.0
 11
1064.9715550000001
 21
2500.4883759999998
 31
0.0
  0
LINE
  5
329
  8
LAYER01
  6
CONTINUOUS
 62
     7
 10
1036.664182
 20
2445.664499
 30
0.0
 11
1048.5602180000001
 21
2457.5605350000001
 31
0.0
  0
LINE
  5
32A
  8
LAYER01
  6
CONTINUOUS
 62
     7
 10
987.99548000000004
 20
2434.4246889999999
 30
0.0
 11
987.99548000000004
 21
2464.3637399999998
 31
0.0
  0
LINE
  5
32B
  8
LAYER01
  6
CONTINUOUS
 62
     7
 10
1005.49548
 20
2449.8511350000008
 30
0.0
 11
1013.204879
 21
2457.5605350000001
 31
0.0
  0
LINE
  5
32C
  8
LAYER01
  6
CONTINUOUS
 62
     7
 10
1010.147678
 20
2445.664499
 30
0.0
 11
1022.043714
 21
2457.5605350000001
 31
0.0
  0
LINE
  5
32D
  8
LAYER01
  6
CONTINUOUS
 62
     7
 10
1018.9865129999999
 20
2445.664499
 30
0.0
 11
1030.8825489999999
 21
2457.5605350000001
 31
0.0
  0
LINE
  5
32E
  8
LAYER01
  6
CONTINUOUS
 62
     7
 10
1027.8253480000001
 20
2445.664499
 30
0.0
 11
1039.7213830000001
 21
2457.5605350000001
 31
0.0
  0
LINE
  5
32F
  8
LAYER01
  6
CONTINUOUS
 62
     7
 10
944.32316700000013
 20
2441.7118310000001
 30
0.0
 11
960.1718699999999
 21
2457.5605350000001
 31
0.0
  0
LINE
  5
330
  8
LAYER01
  6
CONTINUOUS
 62
     7
 10
957.11466999999993
 20
2445.664499
 30
0.0
 11
969.01070499999992
 21
2457.5605350000001
 31
0.0
  0
LINE
  5
331
  8
LAYER01
  6
CONTINUOUS
 62
     7
 10
965.95350399999995
 20
2445.664499
 30
0.0
 11
970.49548000000004
 21
2450.2064740000001
 31
0.0
  0
LINE
  5
332
  8
LAYER01
  6
CONTINUOUS
 62
     7
 10
1060.3383650000001
 20
2487.0163510000002
 30
0.0
 11
1072.99548
 21
2499.6734660000002
 31
0.0
  0
LINE
  5
333
  8
LAYER01
  6
CONTINUOUS
 62
     7
 10
1059.8854349999999
 20
2477.7245870000002
 30
0.0
 11
1072.99548
 21
2490.8346310000002
 31
0.0
  0
LINE
  5
334
  8
LAYER01
  6
CONTINUOUS
 62
     7
 10
1059.4325060000001
 20
2468.4328220000002
 30
0.0
 11
1072.99548
 21
2481.9957960000002
 31
0.0
  0
LINE
  5
335
  8
LAYER01
  6
CONTINUOUS
 62
     7
 10
1045.503017
 20
2445.664499
 30
0.0
 11
1072.99548
 21
2473.1569610000001
 31
0.0
  0
LINE
  5
336
  8
LAYER01
  6
CONTINUOUS
 62
     7
 10
1054.341852
 20
2445.664499
 30
0.0
 11
1072.99548
 21
2464.318127
 31
0.0
  0
LINE
  5
337
  8
LAYER01
  6
CONTINUOUS
 62
     7
 10
1063.180687
 20
2445.664499
 30
0.0
 11
1072.99548
 21
2455.479292
 31
0.0
  0
LINE
  5
338
  8
LAYER01
  6
CONTINUOUS
 62
     7
 10
1072.0195209999999
 20
2445.664499
 30
0.0
 11
1072.99548
 21
2446.640457
 31
0.0
  0
LINE
  5
339
  8
LAYER01
  6
CONTINUOUS
 62
     7
 10
1072.99548
 20
2445.664499
 30
0.0
 11
1072.99548
 21
2390.4314140000001
 31
0.0
  0
LINE
  5
33A
  8
LAYER01
  6
CONTINUOUS
 62
     7
 10
955.10819800000013
 20
2390.4314140000001
 30
0.0
 11
1072.99548
 21
2390.4314140000001
 31
0.0
  0
LINE
  5
33B
  8
LAYER01
  6
CONTINUOUS
 62
     7
 10
950.07835999999998
 20
2442.9632339999998
 30
0.0
 11
941.09475599999996
 21
2358.1951560000002
 31
0.0
  0
LINE
  5
33C
  8
LAYER01
  6
CONTINUOUS
 62
     7
 10
960.13436099999979
 20
2442.9632339999998
 30
0.0
 11
951.03906700000005
 21
2357.141271
 31
0.0
  0
LINE
  5
33D
  8
LAYER01
  6
CONTINUOUS
 62
     7
 10
950.07835999999998
 20
2442.9632339999998
 30
0.0
 11
960.13436099999979
 21
2442.9632339999998
 31
0.0
  0
ARC
  5
33E
  8
LAYER01
  6
CONTINUOUS
 62
     7
 10
953.06344899999999
 20
2442.664499
 30
0.0
 40
3.0
 50
90.0
 51
174.285112
  0
LINE
  5
33F
  8
LAYER01
  6
CONTINUOUS
 62
     7
 10
970.49548000000004
 20
2445.664499
 30
0.0
 11
970.49548000000004
 21
2457.5605350000001
 31
0.0
  0
INSERT
  5
5F6
  8
LAYER01
  2
TRIGO-G1
 10
-4642.8315356127514
 20
-396.54429665121143
 30
0.0
  0
POLYLINE
  5
5F7
  8
LAYER01
  6
CONTINUOUS
 62
     7
 66
     1
 10
0.0
 20
0.0
 30
0.0
 70
     1
  0
VERTEX
  5
81E
  8
LAYER01
  6
CONTINUOUS
 62
     7
 10
-1885.7014612810869
 20
402.25041330688219
 30
0.0
  0
VERTEX
  5
81F
  8
LAYER01
  6
CONTINUOUS
 62
     7
 10
-1885.7014612810869
 20
3159.9263743068818
 30
0.0
  0
VERTEX
  5
820
  8
LAYER01
  6
CONTINUOUS
 62
     7
 10
2084.1397577189132
 20
3159.9263743068818
 30
0.0
  0
VERTEX
  5
821
  8
LAYER01
  6
CONTINUOUS
 62
     7
 10
2084.1397577189132
 20
402.25041330688219
 30
0.0
  0
SEQEND
  5
822
  8
LAYER01
  6
CONTINUOUS
 62
     7
  0
INSERT
  5
5F8
  8
LAYER01
  2
TRIGO-G10
 10
-1499.6441842810871
 20
1129.639959306882
 30
0.0
  0
TEXT
  5
5F9
  8
LAYER01
  6
STRICHPUNKTIERT
 62
     7
 10
697.66914871891231
 20
1029.0740383068819
 30
0.0
 40
60.0
  1
http://www.varicor.org
  0
TEXT
  5
5FA
  8
LAYER01
  6
VERDECKT
 62
     1
 10
1434.749370718913
 20
720.12556030688222
 30
0.0
 40
32.5
  1
A. Sprenger GmbH
  7
SIMPLEX
  0
TEXT
  5
5FB
  8
LAYER01
  6
CONTINUOUS
 62
     7
 10
1424.2061677189131
 20
921.39372930688216
 30
0.0
 40
9.75
  1
Diese Zeichnung ist geistiges Eigentum der A. Sprenger GmbH
  7
SIMPLEX
  0
TEXT
  5
5FC
  8
LAYER01
  6
CONTINUOUS
 62
     7
 10
1424.2061677189131
 20
904.67944330688226
 30
0.0
 40
9.75
  1
und urheberrechtlich geschützt. Ohne unsere Zustimmung darf 
  7
SIMPLEX
  0
TEXT
  5
5FD
  8
LAYER01
  6
CONTINUOUS
 62
     7
 10
1424.2061677189131
 20
887.96515730688225
 30
0.0
 40
9.75
  1
sie in keiner Form verwendet oder Dritten zugänglich gemacht
  7
SIMPLEX
  0
TEXT
  5
5FE
  8
LAYER01
  6
CONTINUOUS
 62
     7
 10
1424.2061677189131
 20
871.25087230688223
 30
0.0
 40
9.75
  1
werden. (§106 Urheberrecht)
  7
SIMPLEX
  0
TEXT
  5
5FF
  8
LAYER01
  6
VERDECKT
 62
     1
 10
1434.749370718913
 20
592.48781030688224
 30
0.0
 40
45.499999999999993
  1
Akzent Integra
  7
SIMPLEX
  0
TEXT
  5
600
  8
LAYER01
  6
VERDECKT
 62
     1
 10
1133.5834887189119
 20
644.87532230688225
 30
0.0
 40
13.0
  1
Jan. 2015
  7
SIMPLEX
  0
TEXT
  5
601
  8
LAYER01
  6
VERDECKT
 62
     1
 10
1258.587791718913
 20
644.82782430688235
 30
0.0
 40
13.0
  1
b.s.
  7
SIMPLEX
  0
TEXT
  5
602
  8
LAYER01
  6
VERDECKT
 62
     1
 10
1520.4762167189131
 20
803.94736530688226
 30
0.0
 40
13.0
  1
1 : 10 (DIN A3)
  7
SIMPLEX
  0
TEXT
  5
603
  8
LAYER01
  6
VERDECKT
 62
     1
 10
1855.5233887189131
 20
803.94736530688226
 30
0.0
 40
13.0
  1
trigo.skd
  7
SIMPLEX
  0
ENDSEC
  0
EOF
