  0
SECTION
  2
HEADER
  9
$ACADVER
  1
AC1009
  9
$INSBASE
 10
0.0
 20
0.0
 30
0.0
  9
$EXTMIN
 10
-915.52938599999982
 20
-566.07073500000001
 30
0.0
  9
$EXTMAX
 10
3020.7429889999999
 20
2177.5929769999998
 30
0.0
  9
$LIMMIN
 10
-1050.6005500000001
 20
-671.60626300000001
  9
$LIMMAX
 10
3149.3994499999999
 20
2298.3937369999999
  9
$ORTHOMODE
 70
     1
  9
$REGENMODE
 70
     1
  9
$FILLMODE
 70
     1
  9
$QTEXTMODE
 70
     0
  9
$MIRRTEXT
 70
     0
  9
$DRAGMODE
 70
     2
  9
$LTSCALE
 40
50.0
  9
$OSMODE
 70
    37
  9
$ATTMODE
 70
     1
  9
$TEXTSIZE
 40
0.2
  9
$TRACEWID
 40
0.05
  9
$TEXTSTYLE
  7
STANDARD
  9
$CLAYER
  8
LAYER01
  9
$CELTYPE
  6
CONTINUOUS
  9
$CECOLOR
 62
     1
  9
$DIMSCALE
 40
1.0
  9
$DIMASZ
 40
0.18
  9
$DIMEXO
 40
0.0625
  9
$DIMDLI
 40
0.38
  9
$DIMRND
 40
0.0
  9
$DIMDLE
 40
0.0
  9
$DIMEXE
 40
0.18
  9
$DIMTP
 40
0.0
  9
$DIMTM
 40
0.0
  9
$DIMTXT
 40
0.18
  9
$DIMCEN
 40
0.09
  9
$DIMTSZ
 40
0.0
  9
$DIMTOL
 70
     0
  9
$DIMLIM
 70
     0
  9
$DIMTIH
 70
     1
  9
$DIMTOH
 70
     1
  9
$DIMSE1
 70
     0
  9
$DIMSE2
 70
     0
  9
$DIMTAD
 70
     0
  9
$DIMZIN
 70
     0
  9
$DIMBLK
  1

  9
$DIMASO
 70
     1
  9
$DIMSHO
 70
     1
  9
$DIMPOST
  1

  9
$DIMAPOST
  1

  9
$DIMALT
 70
     0
  9
$DIMALTD
 70
     2
  9
$DIMALTF
 40
25.399999999999999
  9
$DIMLFAC
 40
1.0
  9
$DIMTOFL
 70
     0
  9
$DIMTVP
 40
0.0
  9
$DIMTIX
 70
     0
  9
$DIMSOXD
 70
     0
  9
$DIMSAH
 70
     0
  9
$DIMBLK1
  1

  9
$DIMBLK2
  1

  9
$DIMSTYLE
  2
STANDARD
  9
$DIMCLRD
 70
     0
  9
$DIMCLRE
 70
     0
  9
$DIMCLRT
 70
     0
  9
$DIMTFAC
 40
1.0
  9
$DIMGAP
 40
0.09
  9
$LUNITS
 70
     2
  9
$LUPREC
 70
     4
  9
$SKETCHINC
 40
0.1
  9
$FILLETRAD
 40
8.0
  9
$AUNITS
 70
     0
  9
$AUPREC
 70
     0
  9
$MENU
  1
acad
  9
$ELEVATION
 40
0.0
  9
$PELEVATION
 40
0.0
  9
$THICKNESS
 40
0.0
  9
$LIMCHECK
 70
     0
  9
$BLIPMODE
 70
     0
  9
$CHAMFERA
 40
0.0
  9
$CHAMFERB
 40
0.0
  9
$SKPOLY
 70
     0
  9
$TDCREATE
 40
11378513.41914521
  9
$TDUPDATE
 40
2456512.7099003131
  9
$TDINDWG
 40
0.001115463
  9
$TDUSRTIMER
 40
0.001114919
  9
$USRTIMER
 70
     1
  9
$ANGBASE
 50
0.0
  9
$ANGDIR
 70
     0
  9
$PDMODE
 70
     0
  9
$PDSIZE
 40
0.0
  9
$PLINEWID
 40
0.0
  9
$COORDS
 70
     1
  9
$SPLFRAME
 70
     0
  9
$SPLINETYPE
 70
     6
  9
$SPLINESEGS
 70
    10
  9
$ATTDIA
 70
     0
  9
$ATTREQ
 70
     1
  9
$HANDLING
 70
     1
  9
$HANDSEED
  5
13C2
  9
$SURFTAB1
 70
     6
  9
$SURFTAB2
 70
     6
  9
$SURFTYPE
 70
     6
  9
$SURFU
 70
     6
  9
$SURFV
 70
     6
  9
$UCSNAME
  2

  9
$UCSORG
 10
0.0
 20
0.0
 30
0.0
  9
$UCSXDIR
 10
1.0
 20
0.0
 30
0.0
  9
$UCSYDIR
 10
0.0
 20
1.0
 30
0.0
  9
$PUCSNAME
  2

  9
$PUCSORG
 10
0.0
 20
0.0
 30
0.0
  9
$PUCSXDIR
 10
1.0
 20
0.0
 30
0.0
  9
$PUCSYDIR
 10
0.0
 20
1.0
 30
0.0
  9
$USERI1
 70
     0
  9
$USERI2
 70
     0
  9
$USERI3
 70
     0
  9
$USERI4
 70
     0
  9
$USERI5
 70
     0
  9
$USERR1
 40
0.0
  9
$USERR2
 40
0.0
  9
$USERR3
 40
0.0
  9
$USERR4
 40
0.0
  9
$USERR5
 40
0.0
  9
$WORLDVIEW
 70
     1
  9
$SHADEDGE
 70
     3
  9
$SHADEDIF
 70
    70
  9
$TILEMODE
 70
     1
  9
$MAXACTVP
 70
    64
  9
$PLIMCHECK
 70
     0
  9
$PEXTMIN
 10
1.0000000000000000E+020
 20
1.0000000000000000E+020
 30
1.0000000000000000E+020
  9
$PEXTMAX
 10
-1.0000000000000000E+020
 20
-1.0000000000000000E+020
 30
-1.0000000000000000E+020
  9
$PLIMMIN
 10
0.0
 20
0.0
  9
$PLIMMAX
 10
12.0
 20
9.0
  9
$UNITMODE
 70
     0
  9
$VISRETAIN
 70
     1
  9
$PLINEGEN
 70
     0
  9
$PSLTSCALE
 70
     1
  0
ENDSEC
  0
SECTION
  2
TABLES
  0
TABLE
  2
VPORT
 70
     1
  0
VPORT
  2
*ACTIVE
 70
     0
 10
0.0
 20
0.0
 11
1.0
 21
1.0
 12
1471.251149368122
 22
939.95989207384923
 13
0.0
 23
0.0
 14
1.0
 24
1.0
 15
0.0
 25
0.0
 16
0.0
 26
0.0
 36
1.0
 17
0.0
 27
0.0
 37
0.0
 40
4809.5139698091843
 41
1.4020618556701021
 42
50.0
 43
0.0
 44
0.0
 50
0.0
 51
0.0
 71
     0
 72
   100
 73
     1
 74
     1
 75
     0
 76
     0
 77
     0
 78
     0
  0
ENDTAB
  0
TABLE
  2
LTYPE
 70
    11
  0
LTYPE
  2
CONTINUOUS
 70
     0
  3
Solid line
 72
    65
 73
     0
 40
0.0
  0
LTYPE
  2
GESTRICHELT
 70
     0
  3
__ __ __ __ __ __ __ __ __ __ __ __ __ __ __
 72
    65
 73
     2
 40
0.75
 49
0.5
 49
-0.25
  0
LTYPE
  2
VERDECKT
 70
     0
  3
_ _ _ _ _ _ _ _ _ _ _ _ _ _ _ _ _ _ _ _ _ _ 
 72
    65
 73
     2
 40
0.25
 49
0.125
 49
-0.125
  0
LTYPE
  2
MITTELLINIE
 70
     0
  3
____ _ ____ _ ____ _ ____ _ ____ _ ____ _ __
 72
    65
 73
     4
 40
2.0
 49
1.25
 49
-0.25
 49
0.25
 49
-0.25
  0
LTYPE
  2
PHANTOM
 70
     0
  3
_____ _ _ _____ _ _ _____ _ _ _____ _ _ ____
 72
    65
 73
     6
 40
2.5
 49
1.25
 49
-0.25
 49
0.25
 49
-0.25
 49
0.25
 49
-0.25
  0
LTYPE
  2
PUNKTIERT
 70
     0
  3
............................................
 72
    65
 73
     2
 40
0.25
 49
0.0
 49
-0.25
  0
LTYPE
  2
STRICHPUNKTIERT
 70
     0
  3
__ . __ . __ . __ . __ . __ . __ . __ . __ .
 72
    65
 73
     4
 40
1.0
 49
0.5
 49
-0.25
 49
0.0
 49
-0.25
  0
LTYPE
  2
RAND
 70
     0
  3
__ __ . __ __ . __ __ . __ __ . __ __ . __ _
 72
    65
 73
     6
 40
1.75
 49
0.5
 49
-0.25
 49
0.5
 49
-0.25
 49
0.0
 49
-0.25
  0
LTYPE
  2
TRENNLINIE
 70
     0
  3
__ . . __ . . __ . . __ . . __ . . __ . . __
 72
    65
 73
     6
 40
1.25
 49
0.5
 49
-0.25
 49
0.0
 49
-0.25
 49
0.0
 49
-0.25
  0
LTYPE
  2
ENG_PUNKTIERT
 70
     0
  3
Schließen                                   
 72
    65
 73
     2
 40
0.1
 49
0.05
 49
-0.05
  0
LTYPE
  2
CLOSE
 70
     0
  3
                                            
 72
    65
 73
     0
 40
0.0
  0
ENDTAB
  0
TABLE
  2
LAYER
 70
   254
  0
LAYER
  2
0
 70
     0
 62
     7
  6
CONTINUOUS
  0
LAYER
  2
LAYER01
 70
     0
 62
     7
  6
CONTINUOUS
  0
LAYER
  2
LAYER02
 70
     0
 62
     7
  6
CONTINUOUS
  0
LAYER
  2
LAYER03
 70
     0
 62
     7
  6
CONTINUOUS
  0
LAYER
  2
LAYER04
 70
     0
 62
     7
  6
CONTINUOUS
  0
LAYER
  2
LAYER05
 70
     0
 62
     7
  6
CONTINUOUS
  0
LAYER
  2
LAYER06
 70
     0
 62
     7
  6
CONTINUOUS
  0
LAYER
  2
LAYER07
 70
     0
 62
     7
  6
CONTINUOUS
  0
LAYER
  2
LAYER08
 70
     0
 62
     7
  6
CONTINUOUS
  0
LAYER
  2
LAYER09
 70
     0
 62
     7
  6
CONTINUOUS
  0
LAYER
  2
LAYER10
 70
     0
 62
     7
  6
CONTINUOUS
  0
LAYER
  2
2
 70
     0
 62
     7
  6
CONTINUOUS
  0
LAYER
  2
5
 70
     0
 62
     7
  6
CONTINUOUS
  0
LAYER
  2
RAUMAUFM
 70
     0
 62
     7
  6
CONTINUOUS
  0
LAYER
  2
EINRICHT
 70
     0
 62
     7
  6
CONTINUOUS
  0
LAYER
  2
HILFE
 70
     0
 62
     7
  6
CONTINUOUS
  0
LAYER
  2
SCHNITTE
 70
     0
 62
     7
  6
CONTINUOUS
  0
LAYER
  2
SCHRAFF1
 70
     0
 62
     7
  6
CONTINUOUS
  0
LAYER
  2
SCHRAFF2
 70
     0
 62
     7
  6
CONTINUOUS
  0
LAYER
  2
BEMASS-1
 70
     0
 62
     7
  6
CONTINUOUS
  0
LAYER
  2
BEMASS-2
 70
     0
 62
     7
  6
CONTINUOUS
  0
LAYER
  2
TEXT
 70
     0
 62
     7
  6
CONTINUOUS
  0
LAYER
  2
SYMBOLE
 70
     0
 62
     7
  6
CONTINUOUS
  0
LAYER
  2
RAHMEN
 70
     0
 62
     7
  6
CONTINUOUS
  0
LAYER
  2
SCHRIFTF
 70
     0
 62
     7
  6
CONTINUOUS
  0
LAYER
  2
ACHSEN
 70
     0
 62
     7
  6
CONTINUOUS
  0
LAYER
  2
ZEICHN
 70
     0
 62
     7
  6
CONTINUOUS
  0
LAYER
  2
7
 70
     0
 62
     7
  6
CONTINUOUS
  0
LAYER
  2
1
 70
     0
 62
     7
  6
CONTINUOUS
  0
LAYER
  2
6
 70
     0
 62
     7
  6
CONTINUOUS
  0
LAYER
  2
4
 70
     0
 62
     7
  6
CONTINUOUS
  0
LAYER
  2
GRUNDEBENE
 70
     0
 62
     7
  6
CONTINUOUS
  0
LAYER
  2
GRUNDRISS
 70
     0
 62
     7
  6
CONTINUOUS
  0
LAYER
  2
BEMASSUNGGRUNDRISS
 70
     0
 62
     7
  6
CONTINUOUS
  0
LAYER
  2
WANDELEMENTE
 70
     0
 62
     7
  6
CONTINUOUS
  0
LAYER
  2
KUECHE
 70
     0
 62
     7
  6
CONTINUOUS
  0
LAYER
  2
THEKEBROETCHEN
 70
     0
 62
     7
  6
CONTINUOUS
  0
LAYER
  2
CENTERLINIE
 70
     0
 62
     7
  6
CONTINUOUS
  0
LAYER
  2
UMRISSE
 70
     0
 62
     7
  6
CONTINUOUS
  0
LAYER
  2
MAUER
 70
     0
 62
     7
  6
CONTINUOUS
  0
LAYER
  2
SCHRAFFUR
 70
     0
 62
     7
  6
CONTINUOUS
  0
LAYER
  2
MASSLINIE
 70
     0
 62
     7
  6
CONTINUOUS
  0
LAYER
  2
PV
 70
     0
 62
     7
  6
CONTINUOUS
  0
LAYER
  2
BESCHRIFTUNG
 70
     0
 62
     7
  6
CONTINUOUS
  0
LAYER
  2
AS
 70
     0
 62
     7
  6
CONTINUOUS
  0
LAYER
  2
PL
 70
     0
 62
     7
  6
CONTINUOUS
  0
LAYER
  2
UK
 70
     0
 62
     7
  6
CONTINUOUS
  0
LAYER
  2
TEXT3
 70
     0
 62
     7
  6
CONTINUOUS
  0
LAYER
  2
TEXT7
 70
     0
 62
     7
  6
CONTINUOUS
  0
LAYER
  2
BEPL1
 70
     0
 62
     7
  6
CONTINUOUS
  0
LAYER
  2
BEPL2
 70
     0
 62
     7
  6
CONTINUOUS
  0
LAYER
  2
BEPL2V
 70
     0
 62
     7
  6
CONTINUOUS
  0
LAYER
  2
BEPL4
 70
     0
 62
     7
  6
CONTINUOUS
  0
LAYER
  2
BEPL
 70
     0
 62
     7
  6
CONTINUOUS
  0
LAYER
  2
UK1
 70
     0
 62
     7
  6
CONTINUOUS
  0
LAYER
  2
UK2
 70
     0
 62
     7
  6
CONTINUOUS
  0
LAYER
  2
UK2V
 70
     0
 62
     7
  6
CONTINUOUS
  0
LAYER
  2
UK3
 70
     0
 62
     7
  6
CONTINUOUS
  0
LAYER
  2
TEXT2
 70
     0
 62
     7
  6
CONTINUOUS
  0
LAYER
  2
HILF2S
 70
     0
 62
     7
  6
CONTINUOUS
  0
LAYER
  2
UK1V
 70
     0
 62
     7
  6
CONTINUOUS
  0
LAYER
  2
GAIN_ZRA
 70
     0
 62
     7
  6
CONTINUOUS
  0
LAYER
  2
GAIN_ZSF
 70
     0
 62
     7
  6
CONTINUOUS
  0
LAYER
  2
RAHM4
 70
     0
 62
     7
  6
CONTINUOUS
  0
LAYER
  2
KORPUSBAND
 70
     0
 62
     7
  6
CONTINUOUS
  0
LAYER
  2
E---LGPL--------
 70
     0
 62
     7
  6
CONTINUOUS
  0
LAYER
  2
E---NPFL--------
 70
     0
 62
     7
  6
CONTINUOUS
  0
LAYER
  2
E---PLNKTXT-----
 70
     0
 62
     7
  6
CONTINUOUS
  0
LAYER
  2
E---PLNK--------
 70
     0
 62
     7
  6
CONTINUOUS
  0
LAYER
  2
E---PLNR--------
 70
     0
 62
     7
  6
CONTINUOUS
  0
LAYER
  2
D547_ARCHICAD
 70
     0
 62
     7
  6
CONTINUOUS
  0
LAYER
  2
D547_E---TEXT--------
 70
     0
 62
     7
  6
CONTINUOUS
  0
LAYER
  2
E---LEGD--------
 70
     0
 62
     7
  6
CONTINUOUS
  0
LAYER
  2
D43_ARCHICAD
 70
     0
 62
     7
  6
CONTINUOUS
  0
LAYER
  2
D43_FENSTER_VON_B---FASS--
 70
     0
 62
     7
  6
CONTINUOUS
  0
LAYER
  2
D43_E---SCHN--------
 70
     0
 62
     7
  6
CONTINUOUS
  0
LAYER
  2
D43_B---MW-N--------
 70
     0
 62
     7
  6
CONTINUOUS
  0
LAYER
  2
D43_B---DECK--------
 70
     0
 62
     7
  6
CONTINUOUS
  0
LAYER
  2
D43_B---MW-S--------
 70
     0
 62
     7
  6
CONTINUOUS
  0
LAYER
  2
D43_B---MW----------
 70
     0
 62
     7
  6
CONTINUOUS
  0
LAYER
  2
D43_B---FASS--------
 70
     0
 62
     7
  6
CONTINUOUS
  0
LAYER
  2
D43_E---RASG--------
 70
     0
 62
     7
  6
CONTINUOUS
  0
LAYER
  2
D40_ARCHICAD
 70
     0
 62
     7
  6
CONTINUOUS
  0
LAYER
  2
D40_E---MW--------
 70
     0
 62
     7
  6
CONTINUOUS
  0
LAYER
  2
D40_E---FASSKON-----
 70
     0
 62
     7
  6
CONTINUOUS
  0
LAYER
  2
D40_TÜREN_VON_B---MW-N----
 70
     0
 62
     7
  6
CONTINUOUS
  0
LAYER
  2
D40_E---MW-L------
 70
     0
 62
     7
  6
CONTINUOUS
  0
LAYER
  2
D40_TÜREN_VON_B---MW------
 70
     0
 62
     7
  6
CONTINUOUS
  0
LAYER
  2
D40_E---VERM--------
 70
     0
 62
     7
  6
CONTINUOUS
  0
LAYER
  2
D40_FENSTER_VON_E---MW-L--
 70
     0
 62
     7
  6
CONTINUOUS
  0
LAYER
  2
D40_FENSTER_VON_B---MW-N--
 70
     0
 62
     7
  6
CONTINUOUS
  0
LAYER
  2
D40_E---SCHN--------
 70
     0
 62
     7
  6
CONTINUOUS
  0
LAYER
  2
D40_E---AUFZ--------
 70
     0
 62
     7
  6
CONTINUOUS
  0
LAYER
  2
D40_E---DECK--------
 70
     0
 62
     7
  6
CONTINUOUS
  0
LAYER
  2
D40_E---RAUMINF-----
 70
     0
 62
     7
  6
CONTINUOUS
  0
LAYER
  2
D40_E---TEXT--------
 70
     0
 62
     7
  6
CONTINUOUS
  0
LAYER
  2
D40_B---TEXT--------
 70
     0
 62
     7
  6
CONTINUOUS
  0
LAYER
  2
D40_B---MW-N--------
 70
     0
 62
     7
  6
CONTINUOUS
  0
LAYER
  2
D40_B---DECK--------
 70
     0
 62
     7
  6
CONTINUOUS
  0
LAYER
  2
D40_B---AUFZ--------
 70
     0
 62
     7
  6
CONTINUOUS
  0
LAYER
  2
D40_B---MW-S--------
 70
     0
 62
     7
  6
CONTINUOUS
  0
LAYER
  2
D40_B---MW----------
 70
     0
 62
     7
  6
CONTINUOUS
  0
LAYER
  2
D40_E---MOEB--------
 70
     0
 62
     7
  6
CONTINUOUS
  0
LAYER
  2
D40_B---UMGB--------
 70
     0
 62
     7
  6
CONTINUOUS
  0
LAYER
  2
D40_B---FASS--------
 70
     0
 62
     7
  6
CONTINUOUS
  0
LAYER
  2
D40_E---DACH--------
 70
     0
 62
     7
  6
CONTINUOUS
  0
LAYER
  2
D40_E---BODE--------
 70
     0
 62
     7
  6
CONTINUOUS
  0
LAYER
  2
D40_E---TREP--------
 70
     0
 62
     7
  6
CONTINUOUS
  0
LAYER
  2
D40_E---RASG--------
 70
     0
 62
     7
  6
CONTINUOUS
  0
LAYER
  2
D40_B---MW-K--------
 70
     0
 62
     7
  6
CONTINUOUS
  0
LAYER
  2
D40_E---FASSGLA-----
 70
     0
 62
     7
  6
CONTINUOUS
  0
LAYER
  2
D40_B---VERM--------
 70
     0
 62
     7
  6
CONTINUOUS
  0
LAYER
  2
D40_E---UMGBGSG-----
 70
     0
 62
     7
  6
CONTINUOUS
  0
LAYER
  2
D40_E---RASF--------
 70
     0
 62
     7
  6
CONTINUOUS
  0
LAYER
  2
D40_E---PFLA--------
 70
     0
 62
     7
  6
CONTINUOUS
  0
LAYER
  2
D40_E---KONS-ST-----
 70
     0
 62
     7
  6
CONTINUOUS
  0
LAYER
  2
D40_E---WERB--------
 70
     0
 62
     7
  6
CONTINUOUS
  0
LAYER
  2
D40_E---TUERINF-----
 70
     0
 62
     7
  6
CONTINUOUS
  0
LAYER
  2
D40_E---WOLK--------
 70
     0
 62
     7
  6
CONTINUOUS
  0
LAYER
  2
D40_B---MW-L--------
 70
     0
 62
     7
  6
CONTINUOUS
  0
LAYER
  2
D40_B---SANI--------
 70
     0
 62
     7
  6
CONTINUOUS
  0
LAYER
  2
D40_E---SANI--------
 70
     0
 62
     7
  6
CONTINUOUS
  0
LAYER
  2
D40_E---MW-K------
 70
     0
 62
     7
  6
CONTINUOUS
  0
LAYER
  2
D40_E---OBJE--------
 70
     0
 62
     7
  6
CONTINUOUS
  0
LAYER
  2
D40_E---ASPR--------
 70
     0
 62
     7
  6
CONTINUOUS
  0
LAYER
  2
D40_E---VERMTGA-----
 70
     0
 62
     7
  6
CONTINUOUS
  0
LAYER
  2
D40_E---PARK--------
 70
     0
 62
     7
  6
CONTINUOUS
  0
LAYER
  2
D40_E---ISOL--------
 70
     0
 62
     7
  6
CONTINUOUS
  0
LAYER
  2
D40_E---TUER--------
 70
     0
 62
     7
  6
CONTINUOUS
  0
LAYER
  2
D40_E---MW--BRA---
 70
     0
 62
     7
  6
CONTINUOUS
  0
LAYER
  2
D41_ARCHICAD
 70
     0
 62
     7
  6
CONTINUOUS
  0
LAYER
  2
D41_E---MW--------
 70
     0
 62
     7
  6
CONTINUOUS
  0
LAYER
  2
D41_E---FASSKON-----
 70
     0
 62
     7
  6
CONTINUOUS
  0
LAYER
  2
D41_TÜREN_VON_B---MW-N----
 70
     0
 62
     7
  6
CONTINUOUS
  0
LAYER
  2
D41_E---MW-L------
 70
     0
 62
     7
  6
CONTINUOUS
  0
LAYER
  2
D41_TÜREN_VON_B---MW------
 70
     0
 62
     7
  6
CONTINUOUS
  0
LAYER
  2
D41_E---VERM--------
 70
     0
 62
     7
  6
CONTINUOUS
  0
LAYER
  2
D41_FENSTER_VON_E---MW-L--
 70
     0
 62
     7
  6
CONTINUOUS
  0
LAYER
  2
D41_FENSTER_VON_B---MW-N--
 70
     0
 62
     7
  6
CONTINUOUS
  0
LAYER
  2
D41_E---SCHN--------
 70
     0
 62
     7
  6
CONTINUOUS
  0
LAYER
  2
D41_E---AUFZ--------
 70
     0
 62
     7
  6
CONTINUOUS
  0
LAYER
  2
D41_E---DECK--------
 70
     0
 62
     7
  6
CONTINUOUS
  0
LAYER
  2
D41_E---RAUMINF-----
 70
     0
 62
     7
  6
CONTINUOUS
  0
LAYER
  2
D41_E---TEXT--------
 70
     0
 62
     7
  6
CONTINUOUS
  0
LAYER
  2
D41_B---TEXT--------
 70
     0
 62
     7
  6
CONTINUOUS
  0
LAYER
  2
D41_B---MW-N--------
 70
     0
 62
     7
  6
CONTINUOUS
  0
LAYER
  2
D41_B---DECK--------
 70
     0
 62
     7
  6
CONTINUOUS
  0
LAYER
  2
D41_B---AUFZ--------
 70
     0
 62
     7
  6
CONTINUOUS
  0
LAYER
  2
D41_B---MW-S--------
 70
     0
 62
     7
  6
CONTINUOUS
  0
LAYER
  2
D41_B---MW----------
 70
     0
 62
     7
  6
CONTINUOUS
  0
LAYER
  2
D41_E---MOEB--------
 70
     0
 62
     7
  6
CONTINUOUS
  0
LAYER
  2
D41_B---UMGB--------
 70
     0
 62
     7
  6
CONTINUOUS
  0
LAYER
  2
D41_B---FASS--------
 70
     0
 62
     7
  6
CONTINUOUS
  0
LAYER
  2
D41_E---DACH--------
 70
     0
 62
     7
  6
CONTINUOUS
  0
LAYER
  2
D41_E---BODE--------
 70
     0
 62
     7
  6
CONTINUOUS
  0
LAYER
  2
D41_E---TREP--------
 70
     0
 62
     7
  6
CONTINUOUS
  0
LAYER
  2
D41_E---RASG--------
 70
     0
 62
     7
  6
CONTINUOUS
  0
LAYER
  2
D41_B---MW-K--------
 70
     0
 62
     7
  6
CONTINUOUS
  0
LAYER
  2
D41_E---FASSGLA-----
 70
     0
 62
     7
  6
CONTINUOUS
  0
LAYER
  2
D41_B---VERM--------
 70
     0
 62
     7
  6
CONTINUOUS
  0
LAYER
  2
D41_E---UMGBGSG-----
 70
     0
 62
     7
  6
CONTINUOUS
  0
LAYER
  2
D41_E---RASF--------
 70
     0
 62
     7
  6
CONTINUOUS
  0
LAYER
  2
D41_E---PFLA--------
 70
     0
 62
     7
  6
CONTINUOUS
  0
LAYER
  2
D41_E---KONS-ST-----
 70
     0
 62
     7
  6
CONTINUOUS
  0
LAYER
  2
D41_E---WERB--------
 70
     0
 62
     7
  6
CONTINUOUS
  0
LAYER
  2
D41_E---TUERINF-----
 70
     0
 62
     7
  6
CONTINUOUS
  0
LAYER
  2
D41_E---WOLK--------
 70
     0
 62
     7
  6
CONTINUOUS
  0
LAYER
  2
D41_B---MW-L--------
 70
     0
 62
     7
  6
CONTINUOUS
  0
LAYER
  2
D41_B---SANI--------
 70
     0
 62
     7
  6
CONTINUOUS
  0
LAYER
  2
D41_E---SANI--------
 70
     0
 62
     7
  6
CONTINUOUS
  0
LAYER
  2
D41_E---MW-K------
 70
     0
 62
     7
  6
CONTINUOUS
  0
LAYER
  2
D41_E---OBJE--------
 70
     0
 62
     7
  6
CONTINUOUS
  0
LAYER
  2
D41_E---ASPR--------
 70
     0
 62
     7
  6
CONTINUOUS
  0
LAYER
  2
D41_E---VERMTGA-----
 70
     0
 62
     7
  6
CONTINUOUS
  0
LAYER
  2
D41_E---PARK--------
 70
     0
 62
     7
  6
CONTINUOUS
  0
LAYER
  2
D41_E---ISOL--------
 70
     0
 62
     7
  6
CONTINUOUS
  0
LAYER
  2
D41_E---TUER--------
 70
     0
 62
     7
  6
CONTINUOUS
  0
LAYER
  2
D41_E---MW--BRA---
 70
     0
 62
     7
  6
CONTINUOUS
  0
LAYER
  2
D42_ARCHICAD
 70
     0
 62
     7
  6
CONTINUOUS
  0
LAYER
  2
D42_FENSTER_VON_B---FASS--
 70
     0
 62
     7
  6
CONTINUOUS
  0
LAYER
  2
D42_E---SCHN--------
 70
     0
 62
     7
  6
CONTINUOUS
  0
LAYER
  2
D42_B---MW-N--------
 70
     0
 62
     7
  6
CONTINUOUS
  0
LAYER
  2
D42_B---DECK--------
 70
     0
 62
     7
  6
CONTINUOUS
  0
LAYER
  2
D42_B---MW-S--------
 70
     0
 62
     7
  6
CONTINUOUS
  0
LAYER
  2
D42_B---MW----------
 70
     0
 62
     7
  6
CONTINUOUS
  0
LAYER
  2
D42_B---FASS--------
 70
     0
 62
     7
  6
CONTINUOUS
  0
LAYER
  2
D42_E---RASG--------
 70
     0
 62
     7
  6
CONTINUOUS
  0
LAYER
  2
CONSTRUCTION_CLASS
 70
     0
 62
     7
  6
CONTINUOUS
  0
LAYER
  2
PATTERN_CLASS
 70
     0
 62
     7
  6
CONTINUOUS
  0
LAYER
  2
KONSTRUKTION
 70
     0
 62
     7
  6
CONTINUOUS
  0
LAYER
  2
BEMAßUNG
 70
     0
 62
     7
  6
CONTINUOUS
  0
LAYER
  2
HILFSGEOMETRIE
 70
     0
 62
     7
  6
CONTINUOUS
  0
LAYER
  2
UNSICHTBAR
 70
     0
 62
     7
  6
CONTINUOUS
  0
LAYER
  2
LOGO
 70
     0
 62
     7
  6
CONTINUOUS
  0
LAYER
  2
VERWALTUNG
 70
     0
 62
     7
  6
CONTINUOUS
  0
LAYER
  2
UNSICHTBARE_GEWINDE
 70
     0
 62
     7
  6
CONTINUOUS
  0
LAYER
  2
SICHTBARE_GEWINDE
 70
     0
 62
     7
  6
CONTINUOUS
  0
LAYER
  2
DEFPOINTS
 70
     0
 62
     7
  6
CONTINUOUS
  0
LAYER
  2
THICK
 70
     0
 62
     7
  6
CONTINUOUS
  0
LAYER
  2
HIDDEN
 70
     0
 62
     7
  6
CONTINUOUS
  0
LAYER
  2
SCHRAFFURGRUNDRISS
 70
     0
 62
     7
  6
CONTINUOUS
  0
LAYER
  2
BEMASSUNG_GRUNDRISS
 70
     0
 62
     7
  6
CONTINUOUS
  0
LAYER
  2
STATIK
 70
     0
 62
     7
  6
CONTINUOUS
  0
LAYER
  2
TÜREN
 70
     0
 62
     7
  6
CONTINUOUS
  0
LAYER
  2
SANITÄR
 70
     0
 62
     7
  6
CONTINUOUS
  0
LAYER
  2
BEMASSUNG_GIPSKARTON
 70
     0
 62
     7
  6
CONTINUOUS
  0
LAYER
  2
EINRICHTUNGEN
 70
     0
 62
     7
  6
CONTINUOUS
  0
LAYER
  2
BECKEN
 70
     0
 62
     7
  6
CONTINUOUS
  0
LAYER
  2
BELEUCHTUNG
 70
     0
 62
     7
  6
CONTINUOUS
  0
LAYER
  2
BESCHRIFTUNGEN
 70
     0
 62
     7
  6
CONTINUOUS
  0
LAYER
  2
ELEKTRO_1__DOSEN_SCHALTER
 70
     0
 62
     7
  6
CONTINUOUS
  0
LAYER
  2
DEFAULT_1
 70
     0
 62
     7
  6
CONTINUOUS
  0
LAYER
  2
AM_0
 70
     0
 62
     7
  6
CONTINUOUS
  0
LAYER
  2
FRAME0_7
 70
     0
 62
     7
  6
CONTINUOUS
  0
LAYER
  2
AM_BOR
 70
     0
 62
     7
  6
CONTINUOUS
  0
LAYER
  2
RAHM2
 70
     0
 62
     7
  6
CONTINUOUS
  0
LAYER
  2
RAHM3
 70
     0
 62
     7
  6
CONTINUOUS
  0
LAYER
  2
FRAME0_5
 70
     0
 62
     7
  6
CONTINUOUS
  0
LAYER
  2
8
 70
     0
 62
     7
  6
CONTINUOUS
  0
LAYER
  2
AM_5
 70
     0
 62
     7
  6
CONTINUOUS
  0
LAYER
  2
AM_7
 70
     0
 62
     7
  6
CONTINUOUS
  0
LAYER
  2
HILFSLINIEN
 70
     0
 62
     7
  6
CONTINUOUS
  0
LAYER
  2
DRAWING_TEMPLATE
 70
     0
 62
     7
  6
CONTINUOUS
  0
LAYER
  2
TECHNOBOX_EXTERNALREFSYMBO
 70
     0
 62
     7
  6
CONTINUOUS
  0
LAYER
  2
TECHNOBOX_POLYCLIPSYMBOL_L
 70
     0
 62
     7
  6
CONTINUOUS
  0
LAYER
  2
100
 70
     0
 62
     7
  6
CONTINUOUS
  0
LAYER
  2
101
 70
     0
 62
     7
  6
CONTINUOUS
  0
LAYER
  2
KONTUR
 70
     0
 62
     7
  6
CONTINUOUS
  0
LAYER
  2
MITTELLINIE
 70
     0
 62
     7
  6
CONTINUOUS
  0
LAYER
  2
GESTRICHELT
 70
     0
 62
     7
  6
CONTINUOUS
  0
LAYER
  2
HILFSLINIE
 70
     0
 62
     7
  6
CONTINUOUS
  0
LAYER
  2
TEXT-25
 70
     0
 62
     7
  6
CONTINUOUS
  0
LAYER
  2
TEXT35
 70
     0
 62
     7
  6
CONTINUOUS
  0
LAYER
  2
TEXT-50
 70
     0
 62
     7
  6
CONTINUOUS
  0
LAYER
  2
TEXT-70
 70
     0
 62
     7
  6
CONTINUOUS
  0
LAYER
  2
ANSICHTSFENSTER
 70
     0
 62
     7
  6
CONTINUOUS
  0
LAYER
  2
KERA0
 70
     0
 62
     7
  6
CONTINUOUS
  0
LAYER
  2
KERA1
 70
     0
 62
     7
  6
CONTINUOUS
  0
LAYER
  2
KERA2
 70
     0
 62
     7
  6
CONTINUOUS
  0
LAYER
  2
KERA3
 70
     0
 62
     7
  6
CONTINUOUS
  0
LAYER
  2
KERA4
 70
     0
 62
     7
  6
CONTINUOUS
  0
LAYER
  2
KERA5
 70
     0
 62
     7
  6
CONTINUOUS
  0
LAYER
  2
KERA6
 70
     0
 62
     7
  6
CONTINUOUS
  0
LAYER
  2
KERA7
 70
     0
 62
     7
  6
CONTINUOUS
  0
LAYER
  2
20
 70
     0
 62
     7
  6
CONTINUOUS
  0
LAYER
  2
50
 70
     0
 62
     7
  6
CONTINUOUS
  0
LAYER
  2
EBENE_1
 70
     0
 62
     7
  6
CONTINUOUS
  0
LAYER
  2
EBENE_2
 70
     0
 62
     7
  6
CONTINUOUS
  0
LAYER
  2
EBENE_5
 70
     0
 62
     7
  6
CONTINUOUS
  0
LAYER
  2
3
 70
     0
 62
     7
  6
CONTINUOUS
  0
LAYER
  2
GEB-KONTUR-A
 70
     0
 62
     7
  6
CONTINUOUS
  0
LAYER
  2
GEB-SYMETRIE
 70
     0
 62
     7
  6
CONTINUOUS
  0
LAYER
  2
GEB-ART-NR
 70
     0
 62
     7
  6
CONTINUOUS
  0
LAYER
  2
PROJECTION
 70
     0
 62
     7
  6
CONTINUOUS
  0
ENDTAB
  0
TABLE
  2
STYLE
 70
     3
  0
STYLE
  2
STANDARD
 70
     0
 40
0.0
 41
1.0
 50
0.0
 71
     0
 42
0.2
  3
txt
  4

  0
STYLE
  2
ANNOTATIVE
 70
     0
 40
0.0
 41
1.0
 50
0.0
 71
     0
 42
0.2
  3
txt
  4

  0
STYLE
  2
SIMPLEX
 70
     0
 40
0.0
 41
1.0
 50
0.0
 71
     0
 42
0.0
  3
simplex
  4

  0
ENDTAB
  0
TABLE
  2
VIEW
 70
     0
  0
ENDTAB
  0
TABLE
  2
UCS
 70
     0
  0
ENDTAB
  0
TABLE
  2
APPID
 70
     4
  0
APPID
  2
ACAD
 70
     0
  0
APPID
  2
ACADANNOTATIVE
 70
     0
  0
APPID
  2
ACAD_MLEADERVER
 70
     0
  0
APPID
  2
DCO15
 70
     0
  0
ENDTAB
  0
TABLE
  2
DIMSTYLE
 70
     2
  0
DIMSTYLE
  2
STANDARD
 70
     0
  3

  4

  5

  6

  7

 40
1.0
 41
0.18
 42
0.0625
 43
0.38
 44
0.18
 45
0.0
 46
0.0
 47
0.0
 48
0.0
140
0.18
141
0.09
142
0.0
143
25.399999999999999
144
1.0
145
0.0
146
1.0
147
0.09
 71
     0
 72
     0
 73
     1
 74
     1
 75
     0
 76
     0
 77
     0
 78
     0
170
     0
171
     2
172
     0
173
     0
174
     0
175
     0
176
     0
177
     0
178
     0
  0
DIMSTYLE
  2
ANNOTATIVE
 70
     0
  3

  4

  5

  6

  7

 40
1.0
 41
0.18
 42
0.0625
 43
0.38
 44
0.18
 45
0.0
 46
0.0
 47
0.0
 48
0.0
140
0.18
141
0.09
142
0.0
143
25.399999999999999
144
1.0
145
0.0
146
1.0
147
0.09
 71
     0
 72
     0
 73
     1
 74
     1
 75
     0
 76
     0
 77
     0
 78
     0
170
     0
171
     2
172
     0
173
     0
174
     0
175
     0
176
     0
177
     0
178
     0
  0
ENDTAB
  0
ENDSEC
  0
SECTION
  2
BLOCKS
  0
BLOCK
  8
0
  2
$MODEL_SPACE
 70
     0
 10
0.0
 20
0.0
 30
0.0
  3
$MODEL_SPACE
  1

  0
ENDBLK
  5
E83
  8
0
  0
BLOCK
 67
     1
  8
0
  2
$PAPER_SPACE
 70
     0
 10
0.0
 20
0.0
 30
0.0
  3
$PAPER_SPACE
  1

  0
ENDBLK
  5
E7F
 67
     1
  8
0
  0
BLOCK
  8
0
  2
*D2
 70
     1
 10
0.0
 20
0.0
 30
0.0
  3
*D2
  1

  0
LINE
  5
185
  8
LAYER01
 62
     1
 10
-19.297688000000001
 20
1384.4992380000001
 30
0.0
 11
-369.31554499999999
 21
1034.4813819999999
 31
0.0
  0
LINE
  5
186
  8
LAYER01
 62
     1
 10
22.879214999999999
 20
1342.3223350000001
 30
0.0
 11
-29.90429000000001
 21
1395.1058399999999
 31
0.0
  0
LINE
  5
187
  8
LAYER01
 62
     1
 10
-327.138642
 20
992.3044779999999
 30
0.0
 11
-379.922147
 21
1045.0879829999999
 31
0.0
  0
SOLID
  5
188
  8
LAYER01
 62
     1
 10
-39.096564999999998
 20
1370.3569890000001
 30
0.0
 11
-19.297688000000001
 21
1384.4992380000001
 31
0.0
 12
-33.439937
 22
1364.700362
 32
0.0
 13
-33.439937
 23
1364.700362
 33
0.0
  0
SOLID
  5
189
  8
LAYER01
 62
     1
 10
-355.17329599999999
 20
1054.280258
 30
0.0
 11
-369.31554499999999
 21
1034.4813819999999
 31
0.0
 12
-349.51666799999998
 22
1048.62363
 32
0.0
 13
-349.51666799999998
 23
1048.62363
 33
0.0
  0
TEXT
  5
18A
  8
LAYER01
  6
STRICHPUNKTIERT
 62
     1
 10
-232.18733700000001
 20
1192.822793
 30
0.0
 40
30.0
  1
495
 50
45.0
  7
SIMPLEX
  0
POINT
  5
18B
  8
LAYER01
 62
     1
 10
31.364497
 20
1333.837053
 30
0.0
  0
POINT
  5
18C
  8
LAYER01
 62
     1
 10
-318.65336000000002
 20
983.81919700000003
 30
0.0
  0
POINT
  5
18D
  8
LAYER01
 62
     1
 10
-369.31554499999999
 20
1034.4813819999999
 30
0.0
  0
ENDBLK
  5
18E
  8
0
  0
BLOCK
  8
0
  2
*D3
 70
     1
 10
0.0
 20
0.0
 30
0.0
  3
*D3
  1

  0
LINE
  5
191
  8
LAYER01
 62
     1
 10
-446.01246400000002
 20
1111.1783
 30
0.0
 11
4.005392999999998
 21
1561.1961570000001
 31
0.0
  0
LINE
  5
192
  8
LAYER01
 62
     1
 10
-327.138642
 20
992.3044779999999
 30
0.0
 11
-456.61906499999998
 21
1121.7849020000001
 31
0.0
  0
LINE
  5
193
  8
LAYER01
 62
     1
 10
122.879215
 20
1442.3223350000001
 30
0.0
 11
-6.6012089999999981
 21
1571.8027589999999
 31
0.0
  0
SOLID
  5
194
  8
LAYER01
 62
     1
 10
-426.21358699999979
 20
1125.320549
 30
0.0
 11
-446.01246400000002
 21
1111.1783
 31
0.0
 12
-431.87021499999997
 22
1130.977177
 32
0.0
 13
-431.87021499999997
 23
1130.977177
 33
0.0
  0
SOLID
  5
195
  8
LAYER01
 62
     1
 10
-10.136856
 20
1541.3972799999999
 30
0.0
 11
4.005392999999998
 21
1561.1961570000001
 31
0.0
 12
-15.793483999999999
 22
1547.0539080000001
 32
0.0
 13
-15.793483999999999
 23
1547.0539080000001
 33
0.0
  0
TEXT
  5
196
  8
LAYER01
  6
STRICHPUNKTIERT
 62
     1
 10
-258.37917900000002
 20
1320.0247879999999
 30
0.0
 40
30.0
  1
636
 50
45.0
  7
SIMPLEX
  0
POINT
  5
197
  8
LAYER01
 62
     1
 10
-318.65336000000002
 20
983.81919700000003
 30
0.0
  0
POINT
  5
198
  8
LAYER01
 62
     1
 10
131.364497
 20
1433.837053
 30
0.0
  0
POINT
  5
199
  8
LAYER01
 62
     1
 10
4.005392999999998
 20
1561.1961570000001
 30
0.0
  0
ENDBLK
  5
19A
  8
0
  0
BLOCK
  8
0
  2
*D4
 70
     1
 10
0.0
 20
0.0
 30
0.0
  3
*D4
  1

  0
LINE
  5
19D
  8
LAYER01
 62
     1
 10
581.38235299999985
 20
579.53341299999977
 30
0.0
 11
-318.61764699999998
 21
579.53341299999977
 31
0.0
  0
LINE
  5
19E
  8
LAYER01
 62
     1
 10
581.38235299999985
 20
821.83705299999986
 30
0.0
 11
581.38235299999985
 21
564.533413
 31
0.0
  0
LINE
  5
19F
  8
LAYER01
 62
     1
 10
-318.61764699999998
 20
821.83705299999986
 30
0.0
 11
-318.61764699999998
 21
564.533413
 31
0.0
  0
SOLID
  5
1A0
  8
LAYER01
 62
     1
 10
557.38235300000008
 20
583.53325299999995
 30
0.0
 11
581.38235299999985
 21
579.53341299999977
 31
0.0
 12
557.38235300000008
 22
575.53357300000005
 32
0.0
 13
557.38235300000008
 23
575.53357300000005
 33
0.0
  0
SOLID
  5
1A1
  8
LAYER01
 62
     1
 10
-294.61764700000009
 20
583.53325299999995
 30
0.0
 11
-318.61764699999998
 21
579.53341299999977
 31
0.0
 12
-294.61764700000009
 22
575.53357300000005
 32
0.0
 13
-294.61764700000009
 23
575.53357300000005
 33
0.0
  0
TEXT
  5
1A2
  8
LAYER01
  6
STRICHPUNKTIERT
 62
     1
 10
92.810924999999969
 20
594.53341299999988
 30
0.0
 40
30.0
  1
900
  7
SIMPLEX
  0
POINT
  5
1A3
  8
LAYER01
 62
     1
 10
581.38235299999985
 20
833.83705299999986
 30
0.0
  0
POINT
  5
1A4
  8
LAYER01
 62
     1
 10
-318.61764699999998
 20
833.83705299999986
 30
0.0
  0
POINT
  5
1A5
  8
LAYER01
 62
     1
 10
-318.61764699999998
 20
579.53341299999977
 30
0.0
  0
ENDBLK
  5
1A6
  8
0
  0
BLOCK
  8
0
  2
*D5
 70
     1
 10
0.0
 20
0.0
 30
0.0
  3
*D5
  1

  0
LINE
  5
1A9
  8
LAYER01
 62
     1
 10
1395.6335469999999
 20
1193.9501359999999
 30
0.0
 11
1500.5891300000001
 21
1193.9501359999999
 31
0.0
  0
LINE
  5
1AA
  8
LAYER01
 62
     1
 10
1395.6335469999999
 20
1132.471395
 30
0.0
 11
1395.6335469999999
 21
1208.9501359999999
 31
0.0
  0
LINE
  5
1AB
  8
LAYER01
 62
     1
 10
1500.5891300000001
 20
1132.471395
 30
0.0
 11
1500.5891300000001
 21
1208.9501359999999
 31
0.0
  0
SOLID
  5
1AC
  8
LAYER01
 62
     1
 10
1419.6335469999999
 20
1189.950296
 30
0.0
 11
1395.6335469999999
 21
1193.9501359999999
 31
0.0
 12
1419.6335469999999
 22
1197.9499760000001
 32
0.0
 13
1419.6335469999999
 23
1197.9499760000001
 33
0.0
  0
SOLID
  5
1AD
  8
LAYER01
 62
     1
 10
1476.5891300000001
 20
1189.950296
 30
0.0
 11
1500.5891300000001
 21
1193.9501359999999
 31
0.0
 12
1476.5891300000001
 22
1197.9499760000001
 32
0.0
 13
1476.5891300000001
 23
1197.9499760000001
 33
0.0
  0
TEXT
  5
1AE
  8
LAYER01
  6
STRICHPUNKTIERT
 62
     1
 10
1412.3970529999999
 20
1208.9501359999999
 30
0.0
 40
30.0
  1
105
  7
SIMPLEX
  0
POINT
  5
1AF
  8
LAYER01
 62
     1
 10
1395.6335469999999
 20
1120.471395
 30
0.0
  0
POINT
  5
1B0
  8
LAYER01
 62
     1
 10
1500.5891300000001
 20
1120.471395
 30
0.0
  0
POINT
  5
1B1
  8
LAYER01
 62
     1
 10
1500.5891300000001
 20
1193.9501359999999
 30
0.0
  0
ENDBLK
  5
1B2
  8
0
  0
BLOCK
  8
0
  2
*D6
 70
     1
 10
0.0
 20
0.0
 30
0.0
  3
*D6
  1

  0
LINE
  5
1B5
  8
LAYER01
 62
     1
 10
1555.637003
 20
871.21201900000005
 30
0.0
 11
1395.637003
 21
871.21201900000005
 31
0.0
  0
LINE
  5
1B6
  8
LAYER01
 62
     1
 10
1555.637003
 20
901.43184799999995
 30
0.0
 11
1555.637003
 21
856.21201899999983
 31
0.0
  0
LINE
  5
1B7
  8
LAYER01
 62
     1
 10
1395.637003
 20
901.43184799999995
 30
0.0
 11
1395.637003
 21
856.21201899999983
 31
0.0
  0
SOLID
  5
1B8
  8
LAYER01
 62
     1
 10
1531.637003
 20
875.211859
 30
0.0
 11
1555.637003
 21
871.21201900000005
 31
0.0
 12
1531.637003
 22
867.21217899999965
 32
0.0
 13
1531.637003
 23
867.21217899999965
 33
0.0
  0
SOLID
  5
1B9
  8
LAYER01
 62
     1
 10
1419.637003
 20
875.211859
 30
0.0
 11
1395.637003
 21
871.21201900000005
 31
0.0
 12
1419.637003
 22
867.21217899999965
 32
0.0
 13
1419.637003
 23
867.21217899999965
 33
0.0
  0
TEXT
  5
1BA
  8
LAYER01
  6
STRICHPUNKTIERT
 62
     1
 10
1439.922718
 20
886.21201899999983
 30
0.0
 40
30.0
  1
160
  7
SIMPLEX
  0
POINT
  5
1BB
  8
LAYER01
 62
     1
 10
1555.637003
 20
913.43184799999995
 30
0.0
  0
POINT
  5
1BC
  8
LAYER01
 62
     1
 10
1395.637003
 20
913.43184799999995
 30
0.0
  0
POINT
  5
1BD
  8
LAYER01
 62
     1
 10
1395.637003
 20
871.21201900000005
 30
0.0
  0
ENDBLK
  5
1BE
  8
0
  0
BLOCK
  8
0
  2
*D7
 70
     1
 10
0.0
 20
0.0
 30
0.0
  3
*D7
  1

  0
LINE
  5
1C1
  8
LAYER01
 62
     1
 10
1395.6335469999999
 20
1134.9929979999999
 30
0.0
 11
1347.6335469999999
 21
1134.9929979999999
 31
0.0
  0
LINE
  5
1C2
  8
LAYER01
 62
     1
 10
1440.6335469999999
 20
1134.9929979999999
 30
0.0
 11
1488.6335469999999
 21
1134.9929979999999
 31
0.0
  0
LINE
  5
1C3
  8
LAYER01
 62
     1
 10
1395.6335469999999
 20
1125.0711630000001
 30
0.0
 11
1395.6335469999999
 21
1149.9929979999999
 31
0.0
  0
LINE
  5
1C4
  8
LAYER01
 62
     1
 10
1440.6335469999999
 20
1125.0711630000001
 30
0.0
 11
1440.6335469999999
 21
1149.9929979999999
 31
0.0
  0
SOLID
  5
1C5
  8
LAYER01
 62
     1
 10
1371.6335469999999
 20
1130.993158
 30
0.0
 11
1395.6335469999999
 21
1134.9929979999999
 31
0.0
 12
1371.6335469999999
 22
1138.9928379999999
 32
0.0
 13
1371.6335469999999
 23
1138.9928379999999
 33
0.0
  0
SOLID
  5
1C6
  8
LAYER01
 62
     1
 10
1464.6335469999999
 20
1130.993158
 30
0.0
 11
1440.6335469999999
 21
1134.9929979999999
 31
0.0
 12
1464.6335469999999
 22
1138.9928379999999
 32
0.0
 13
1464.6335469999999
 23
1138.9928379999999
 33
0.0
  0
TEXT
  5
1C7
  8
LAYER01
  6
STRICHPUNKTIERT
 62
     1
 10
1447.6067350000001
 20
1149.9929979999999
 30
0.0
 40
30.0
  1
45
  7
SIMPLEX
  0
POINT
  5
1C8
  8
LAYER01
 62
     1
 10
1395.6335469999999
 20
1113.0711630000001
 30
0.0
  0
POINT
  5
1C9
  8
LAYER01
 62
     1
 10
1440.6335469999999
 20
1113.0711630000001
 30
0.0
  0
POINT
  5
1CA
  8
LAYER01
 62
     1
 10
1440.6335469999999
 20
1134.9929979999999
 30
0.0
  0
ENDBLK
  5
1CB
  8
0
  0
BLOCK
  8
0
  2
PASSO-G7
 70
     0
 10
0.0
 20
0.0
 30
0.0
  3
PASSO-G7
  1

  0
ENDBLK
  5
1CE
  8
0
  0
BLOCK
  8
0
  2
PASSO-G9
 70
     0
 10
0.0
 20
0.0
 30
0.0
  3
PASSO-G9
  1

  0
TEXT
  5
1D1
  8
LAYER01
  6
VERDECKT
 62
     1
 10
1681.760843
 20
-181.97451100000001
 30
0.0
 40
12.0
  1
A. Sprenger GmbH
  7
SIMPLEX
  0
TEXT
  5
1D2
  8
LAYER01
  6
VERDECKT
 62
     1
 10
1681.760843
 20
-202.545939
 30
0.0
 40
12.0
  1
Berner Str. 10
  7
SIMPLEX
  0
TEXT
  5
1D3
  8
LAYER01
  6
VERDECKT
 62
     1
 10
1681.760843
 20
-223.117368
 30
0.0
 40
12.0
  1
60437 Frankfurt
  7
SIMPLEX
  0
TEXT
  5
1D4
  8
LAYER01
  6
VERDECKT
 62
     1
 10
1681.760843
 20
-243.688796
 30
0.0
 40
12.0
  1
Tel.: 069 - 507 27 41
  7
SIMPLEX
  0
TEXT
  5
1D5
  8
LAYER01
  6
VERDECKT
 62
     1
 10
1681.760843
 20
-264.26022499999999
 30
0.0
 40
12.0
  1
Fax: 069 - 507 72 91
  7
SIMPLEX
  0
TEXT
  5
1D6
  8
LAYER01
  6
VERDECKT
 62
     1
 10
1681.760843
 20
-284.8316529999999
 30
0.0
 40
12.0
  1
info@varicor.org
  7
SIMPLEX
  0
ENDBLK
  5
1D7
  8
0
  0
BLOCK
  8
0
  2
PASSO-G8
 70
     0
 10
0.0
 20
0.0
 30
0.0
  3
PASSO-G8
  1

  0
TEXT
  5
1DA
  8
LAYER01
  6
CONTINUOUS
 62
     1
 10
2942.7429889999999
 20
-464.07073499999979
 30
0.0
 40
12.0
  1
Blatt
  7
SIMPLEX
  0
LINE
  5
1DB
  8
LAYER01
  6
CONTINUOUS
 62
     1
 10
1664.7429890000001
 20
-380.07073500000001
 30
0.0
 11
2384.7429889999999
 21
-380.07073500000001
 31
0.0
  0
LINE
  5
1DC
  8
LAYER01
  6
CONTINUOUS
 62
     1
 10
1664.7429890000001
 20
-410.07073500000001
 30
0.0
 11
2384.7429889999999
 21
-410.07073500000001
 31
0.0
  0
LINE
  5
1DD
  8
LAYER01
  6
CONTINUOUS
 62
     1
 10
1664.7429890000001
 20
-440.07073499999979
 30
0.0
 11
3020.7429889999999
 21
-440.07073499999979
 31
0.0
  0
LINE
  5
1DE
  8
LAYER01
  6
CONTINUOUS
 62
     1
 10
1664.7429890000001
 20
-530.07073500000001
 30
0.0
 11
3020.7429889999999
 21
-530.07073500000001
 31
0.0
  0
LINE
  5
1DF
  8
LAYER01
  6
CONTINUOUS
 62
     1
 10
1664.7429890000001
 20
-290.07073500000001
 30
0.0
 11
3020.7429889999999
 21
-290.07073500000001
 31
0.0
  0
POLYLINE
  5
1E0
  8
LAYER01
  6
CONTINUOUS
 62
     1
 66
     1
 10
0.0
 20
0.0
 30
0.0
 70
     1
  0
VERTEX
  5
11C9
  8
LAYER01
  6
CONTINUOUS
 62
     1
 10
1664.7429890000001
 20
-566.07073500000001
 30
0.0
  0
VERTEX
  5
11CA
  8
LAYER01
  6
CONTINUOUS
 62
     1
 10
1664.7429890000001
 20
-164.07073500000001
 30
0.0
  0
VERTEX
  5
11CB
  8
LAYER01
  6
CONTINUOUS
 62
     1
 10
3020.7429889999999
 20
-164.07073500000001
 30
0.0
  0
VERTEX
  5
11CC
  8
LAYER01
  6
CONTINUOUS
 62
     1
 10
3020.7429889999999
 20
-566.07073500000001
 30
0.0
  0
SEQEND
  5
11CD
  8
LAYER01
  6
CONTINUOUS
 62
     1
  0
LINE
  5
1E6
  8
LAYER01
  6
CONTINUOUS
 62
     1
 10
1664.7429890000001
 20
-320.07073500000001
 30
0.0
 11
2384.7429889999999
 21
-320.07073500000001
 31
0.0
  0
LINE
  5
1E7
  8
LAYER01
  6
CONTINUOUS
 62
     1
 10
1664.7429890000001
 20
-350.07073500000001
 30
0.0
 11
2384.7429889999999
 21
-350.07073500000001
 31
0.0
  0
LINE
  5
1E8
  8
LAYER01
  6
CONTINUOUS
 62
     1
 10
2054.7429889999999
 20
-164.07073500000001
 30
0.0
 11
2054.7429889999999
 21
-566.07073500000001
 31
0.0
  0
INSERT
  5
1E9
  8
LAYER01
  2
PASSO-G9
 10
0.0
 20
0.0
 30
0.0
  0
LINE
  5
1EA
  8
LAYER01
  6
CONTINUOUS
 62
     1
 10
1664.7429890000001
 20
-500.07073499999979
 30
0.0
 11
2054.7429889999999
 21
-500.07073499999979
 31
0.0
  0
LINE
  5
1EB
  8
LAYER01
  6
CONTINUOUS
 62
     1
 10
1664.7429890000001
 20
-470.07073500000001
 30
0.0
 11
2054.7429889999999
 21
-470.07073500000001
 31
0.0
  0
LINE
  5
1EC
  8
LAYER01
  6
CONTINUOUS
 62
     1
 10
1718.7429890000001
 20
-290.07073500000001
 30
0.0
 11
1718.7429890000001
 21
-566.07073500000001
 31
0.0
  0
TEXT
  5
1ED
  8
LAYER01
  6
CONTINUOUS
 62
     1
 10
1674.822107
 20
-554.0707349999999
 30
0.0
 40
11.4
  1
Zust
  7
SIMPLEX
  0
LINE
  5
1EE
  8
LAYER01
  6
CONTINUOUS
 62
     1
 10
1908.084527
 20
-566.07073500000001
 30
0.0
 11
1908.084527
 21
-290.07073500000001
 31
0.0
  0
LINE
  5
1EF
  8
LAYER01
  6
CONTINUOUS
 62
     1
 10
2000.7429890000001
 20
-290.07073500000001
 30
0.0
 11
2000.7429890000001
 21
-566.07073500000001
 31
0.0
  0
TEXT
  5
1F0
  8
LAYER01
  6
CONTINUOUS
 62
     1
 10
1771.6972390000001
 20
-554.0707349999999
 30
0.0
 40
11.4
  1
Änderung
  7
SIMPLEX
  0
TEXT
  5
1F1
  8
LAYER01
  6
CONTINUOUS
 62
     1
 10
1924.9679619999999
 20
-554.0707349999999
 30
0.0
 40
11.4
  1
Datum
  7
SIMPLEX
  0
TEXT
  5
1F2
  8
LAYER01
  6
CONTINUOUS
 62
     1
 10
2005.259673
 20
-554.0707349999999
 30
0.0
 40
11.4
  1
Name
  7
SIMPLEX
  0
LINE
  5
1F3
  8
LAYER01
  6
CONTINUOUS
 62
     1
 10
3020.7429889999999
 20
-212.07073500000001
 30
0.0
 11
2384.7429889999999
 21
-212.07073500000001
 31
0.0
  0
LINE
  5
1F4
  8
LAYER01
  6
CONTINUOUS
 62
     1
 10
2132.7429889999999
 20
-410.07073500000001
 30
0.0
 11
2132.7429889999999
 21
-290.07073500000001
 31
0.0
  0
TEXT
  5
1F5
  8
LAYER01
  6
CONTINUOUS
 62
     1
 10
2066.7429889999999
 20
-344.07073500000001
 30
0.0
 40
12.0
  1
Bearb.
  7
SIMPLEX
  0
TEXT
  5
1F6
  8
LAYER01
  6
CONTINUOUS
 62
     1
 10
2066.7429889999999
 20
-404.07073499999979
 30
0.0
 40
12.0
  1
Norm
  7
SIMPLEX
  0
TEXT
  5
1F7
  8
LAYER01
  6
CONTINUOUS
 62
     1
 10
2066.7429889999999
 20
-374.07073500000001
 30
0.0
 40
12.0
  1
Gepr.
  7
SIMPLEX
  0
TEXT
  5
1F8
  8
LAYER01
  6
CONTINUOUS
 62
     1
 10
2162.7429889999999
 20
-314.07073500000001
 30
0.0
 40
12.0
  1
Datum
  7
SIMPLEX
  0
TEXT
  5
1F9
  8
LAYER01
  6
CONTINUOUS
 62
     1
 10
2282.7429889999999
 20
-314.07073500000001
 30
0.0
 40
12.0
  1
Name
  7
SIMPLEX
  0
TEXT
  5
1FA
  8
LAYER01
  6
CONTINUOUS
 62
     1
 10
2990.7429889999999
 20
-524.07073500000001
 30
0.0
 40
12.0
  1
Bl.
  7
SIMPLEX
  0
LINE
  5
1FB
  8
LAYER01
  6
CONTINUOUS
 62
     1
 10
2384.7429889999999
 20
-566.07073500000001
 30
0.0
 11
2384.7429889999999
 21
-164.07073500000001
 31
0.0
  0
LINE
  5
1FC
  8
LAYER01
  6
CONTINUOUS
 62
     1
 10
2246.7429889999999
 20
-440.07073499999979
 30
0.0
 11
2246.7429889999999
 21
-164.07073500000001
 31
0.0
  0
LINE
  5
1FD
  8
LAYER01
  6
CONTINUOUS
 62
     1
 10
2762.7429889999999
 20
-164.07073500000001
 30
0.0
 11
2762.7429889999999
 21
-212.07073500000001
 31
0.0
  0
TEXT
  5
1FE
  8
LAYER01
  6
CONTINUOUS
 62
     1
 10
2397.8157879999999
 20
-194.706738
 30
0.0
 40
12.0
  1
Maßstab
  7
SIMPLEX
  0
LINE
  5
1FF
  8
LAYER01
  6
CONTINUOUS
 62
     1
 10
2930.7429889999999
 20
-440.07073499999979
 30
0.0
 11
2930.7429889999999
 21
-530.07073500000001
 31
0.0
  0
LINE
  5
200
  8
LAYER01
  6
CONTINUOUS
 62
     1
 10
2930.7429889999999
 20
-500.07073499999979
 30
0.0
 11
3020.7429889999999
 21
-500.07073499999979
 31
0.0
  0
ENDBLK
  5
201
  8
0
  0
BLOCK
  8
0
  2
*D11
 70
     1
 10
0.0
 20
0.0
 30
0.0
  3
*D11
  1

  0
LINE
  5
204
  8
LAYER01
 62
     1
 10
231.364497
 20
1502.7110029999999
 30
0.0
 11
31.364497
 21
1502.7110029999999
 31
0.0
  0
LINE
  5
205
  8
LAYER01
 62
     1
 10
231.364497
 20
1345.837053
 30
0.0
 11
231.364497
 21
1517.7110029999999
 31
0.0
  0
LINE
  5
206
  8
LAYER01
 62
     1
 10
31.364497
 20
1345.837053
 30
0.0
 11
31.364497
 21
1517.7110029999999
 31
0.0
  0
SOLID
  5
207
  8
LAYER01
 62
     1
 10
207.364497
 20
1506.7108430000001
 30
0.0
 11
231.364497
 21
1502.7110029999999
 31
0.0
 12
207.364497
 22
1498.7111629999999
 32
0.0
 13
207.364497
 23
1498.7111629999999
 33
0.0
  0
SOLID
  5
208
  8
LAYER01
 62
     1
 10
55.364497
 20
1506.7108430000001
 30
0.0
 11
31.364497
 21
1502.7110029999999
 31
0.0
 12
55.364497
 22
1498.7111629999999
 32
0.0
 13
55.364497
 23
1498.7111629999999
 33
0.0
  0
TEXT
  5
209
  8
LAYER01
  6
STRICHPUNKTIERT
 62
     1
 10
92.793068000000005
 20
1517.7110029999999
 30
0.0
 40
30.0
  1
200
  7
SIMPLEX
  0
POINT
  5
20A
  8
LAYER01
 62
     1
 10
231.364497
 20
1333.837053
 30
0.0
  0
POINT
  5
20B
  8
LAYER01
 62
     1
 10
31.364497
 20
1333.837053
 30
0.0
  0
POINT
  5
20C
  8
LAYER01
 62
     1
 10
31.364497
 20
1502.7110029999999
 30
0.0
  0
ENDBLK
  5
20D
  8
0
  0
BLOCK
  8
0
  2
*D12
 70
     1
 10
0.0
 20
0.0
 30
0.0
  3
*D12
  1

  0
LINE
  5
210
  8
LAYER01
 62
     1
 10
719.52584000000002
 20
1433.837053
 30
0.0
 11
719.52584000000002
 21
833.83705299999986
 31
0.0
  0
LINE
  5
211
  8
LAYER01
 62
     1
 10
593.38235299999985
 20
1433.837053
 30
0.0
 11
734.52584000000002
 21
1433.837053
 31
0.0
  0
LINE
  5
212
  8
LAYER01
 62
     1
 10
593.38235299999985
 20
833.83705299999986
 30
0.0
 11
734.52584000000002
 21
833.83705299999986
 31
0.0
  0
SOLID
  5
213
  8
LAYER01
 62
     1
 10
715.52600000000007
 20
1409.837053
 30
0.0
 11
719.52584000000002
 21
1433.837053
 31
0.0
 12
723.52567999999985
 22
1409.837053
 32
0.0
 13
723.52567999999985
 23
1409.837053
 33
0.0
  0
SOLID
  5
214
  8
LAYER01
 62
     1
 10
715.52600000000007
 20
857.83705299999986
 30
0.0
 11
719.52584000000002
 21
833.83705299999986
 31
0.0
 12
723.52567999999985
 22
857.83705299999986
 32
0.0
 13
723.52567999999985
 23
857.83705299999986
 33
0.0
  0
TEXT
  5
215
  8
LAYER01
  6
STRICHPUNKTIERT
 62
     1
 10
704.52584000000002
 20
1095.265625
 30
0.0
 40
30.0
  1
600
 50
90.0
  7
SIMPLEX
  0
POINT
  5
216
  8
LAYER01
 62
     1
 10
581.38235299999985
 20
1433.837053
 30
0.0
  0
POINT
  5
217
  8
LAYER01
 62
     1
 10
581.38235299999985
 20
833.83705299999986
 30
0.0
  0
POINT
  5
218
  8
LAYER01
 62
     1
 10
719.52584000000002
 20
833.83705299999986
 30
0.0
  0
ENDBLK
  5
219
  8
0
  0
BLOCK
  8
0
  2
*D13
 70
     1
 10
0.0
 20
0.0
 30
0.0
  3
*D13
  1

  0
LINE
  5
21C
  8
LAYER01
 62
     1
 10
431.40020999999979
 20
687.89419699999985
 30
0.0
 11
-168.67121700000001
 21
687.89419699999985
 31
0.0
  0
LINE
  5
21D
  8
LAYER01
 62
     1
 10
431.40020999999979
 20
821.83705299999986
 30
0.0
 11
431.40020999999979
 21
672.89419699999996
 31
0.0
  0
LINE
  5
21E
  8
LAYER01
 62
     1
 10
-168.67121700000001
 20
821.83705299999986
 30
0.0
 11
-168.67121700000001
 21
672.89419699999996
 31
0.0
  0
SOLID
  5
21F
  8
LAYER01
 62
     1
 10
407.40021000000002
 20
691.89403700000003
 30
0.0
 11
431.40020999999979
 21
687.89419699999985
 31
0.0
 12
407.40021000000002
 22
683.89435700000001
 32
0.0
 13
407.40021000000002
 23
683.89435700000001
 33
0.0
  0
SOLID
  5
220
  8
LAYER01
 62
     1
 10
-144.67121700000001
 20
691.89403700000003
 30
0.0
 11
-168.67121700000001
 21
687.89419699999985
 31
0.0
 12
-144.67121700000001
 22
683.89435700000001
 32
0.0
 13
-144.67121700000001
 23
683.89435700000001
 33
0.0
  0
TEXT
  5
221
  8
LAYER01
  6
STRICHPUNKTIERT
 62
     1
 10
92.793068000000005
 20
702.89419699999985
 30
0.0
 40
30.0
  1
600
  7
SIMPLEX
  0
POINT
  5
222
  8
LAYER01
 62
     1
 10
431.40020999999979
 20
833.83705299999986
 30
0.0
  0
POINT
  5
223
  8
LAYER01
 62
     1
 10
-168.67121700000001
 20
833.83705299999986
 30
0.0
  0
POINT
  5
224
  8
LAYER01
 62
     1
 10
-168.67121700000001
 20
687.89419699999985
 30
0.0
  0
ENDBLK
  5
225
  8
0
  0
BLOCK
  8
0
  2
*D14
 70
     1
 10
0.0
 20
0.0
 30
0.0
  3
*D14
  1

  0
LINE
  5
228
  8
LAYER01
 62
     1
 10
368.86449699999997
 20
770.9238889999998
 30
0.0
 11
-106.135503
 21
770.9238889999998
 31
0.0
  0
LINE
  5
229
  8
LAYER01
 62
     1
 10
368.86449699999997
 20
821.83705299999986
 30
0.0
 11
368.86449699999997
 21
755.92388899999969
 31
0.0
  0
LINE
  5
22A
  8
LAYER01
 62
     1
 10
-106.135503
 20
821.83705299999986
 30
0.0
 11
-106.135503
 21
755.92388899999969
 31
0.0
  0
SOLID
  5
22B
  8
LAYER01
 62
     1
 10
344.86449699999997
 20
774.92372899999987
 30
0.0
 11
368.86449699999997
 21
770.9238889999998
 31
0.0
 12
344.86449699999997
 22
766.92404899999985
 32
0.0
 13
344.86449699999997
 23
766.92404899999985
 33
0.0
  0
SOLID
  5
22C
  8
LAYER01
 62
     1
 10
-82.135502999999986
 20
774.92372899999987
 30
0.0
 11
-106.135503
 21
770.9238889999998
 31
0.0
 12
-82.135502999999986
 22
766.92404899999985
 32
0.0
 13
-82.135502999999986
 23
766.92404899999985
 33
0.0
  0
TEXT
  5
22D
  8
LAYER01
  6
STRICHPUNKTIERT
 62
     1
 10
92.793068000000005
 20
785.9238889999998
 30
0.0
 40
30.0
  1
475
  7
SIMPLEX
  0
POINT
  5
22E
  8
LAYER01
 62
     1
 10
368.86449699999997
 20
833.83705299999986
 30
0.0
  0
POINT
  5
22F
  8
LAYER01
 62
     1
 10
-106.135503
 20
833.83705299999986
 30
0.0
  0
POINT
  5
230
  8
LAYER01
 62
     1
 10
-106.135503
 20
770.9238889999998
 30
0.0
  0
ENDBLK
  5
231
  8
0
  0
BLOCK
  8
0
  2
*D15
 70
     1
 10
0.0
 20
0.0
 30
0.0
  3
*D15
  1

  0
LINE
  5
234
  8
LAYER01
 62
     1
 10
140.44824700000001
 20
1273.8792639999999
 30
0.0
 11
155.67102399999999
 21
1248.812623
 31
0.0
  0
LINE
  5
235
  8
LAYER01
 62
     1
 10
155.67102399999999
 20
1248.812623
 30
0.0
 11
195.82130000000001
 21
1248.812623
 31
0.0
  0
SOLID
  5
236
  8
LAYER01
 62
     1
 10
149.48717500000001
 20
1251.28952
 30
0.0
 11
140.44824700000001
 21
1273.8792639999999
 31
0.0
 12
156.324748
 22
1255.441926
 32
0.0
 13
156.324748
 23
1255.441926
 33
0.0
  0
TEXT
  5
237
  8
LAYER01
  6
CONTINUOUS
 62
     1
 10
210.82130000000001
 20
1233.812623
 30
0.0
 40
30.0
  1
%%c35
  7
SIMPLEX
  0
POINT
  5
238
  8
LAYER01
 62
     1
 10
131.364497
 20
1288.837053
 30
0.0
  0
POINT
  5
239
  8
LAYER01
 62
     1
 10
155.67102399999999
 20
1248.812623
 30
0.0
  0
ENDBLK
  5
23A
  8
0
  0
BLOCK
  8
0
  2
*D16
 70
     1
 10
0.0
 20
0.0
 30
0.0
  3
*D16
  1

  0
LINE
  5
23D
  8
LAYER01
 62
     1
 10
143.642448
 20
1154.3883539999999
 30
0.0
 11
159.01688100000001
 21
1130.0347220000001
 31
0.0
  0
LINE
  5
23E
  8
LAYER01
 62
     1
 10
159.01688100000001
 20
1130.0347220000001
 30
0.0
 11
185.78373099999999
 21
1130.0347220000001
 31
0.0
  0
SOLID
  5
23F
  8
LAYER01
 62
     1
 10
153.07197600000001
 20
1131.9588490000001
 30
0.0
 11
143.642448
 21
1154.3883539999999
 31
0.0
 12
159.83647099999999
 22
1136.22927
 32
0.0
 13
159.83647099999999
 23
1136.22927
 33
0.0
  0
TEXT
  5
240
  8
LAYER01
  6
CONTINUOUS
 62
     1
 10
200.78373099999999
 20
1115.0347220000001
 30
0.0
 40
30.0
  1
%%c46
  7
SIMPLEX
  0
POINT
  5
241
  8
LAYER01
 62
     1
 10
131.364497
 20
1173.837053
 30
0.0
  0
POINT
  5
242
  8
LAYER01
 62
     1
 10
159.01688100000001
 20
1130.0347220000001
 30
0.0
  0
ENDBLK
  5
243
  8
0
  0
BLOCK
  8
0
  2
*D17
 70
     1
 10
0.0
 20
0.0
 30
0.0
  3
*D17
  1

  0
LINE
  5
246
  8
LAYER01
 62
     1
 10
639.31071399999985
 20
833.83705299999986
 30
0.0
 11
639.31071399999985
 21
1333.837053
 31
0.0
  0
LINE
  5
247
  8
LAYER01
 62
     1
 10
593.38235299999985
 20
833.83705299999986
 30
0.0
 11
654.31071399999996
 21
833.83705299999986
 31
0.0
  0
LINE
  5
248
  8
LAYER01
 62
     1
 10
593.38235299999985
 20
1333.837053
 30
0.0
 11
654.31071399999996
 21
1333.837053
 31
0.0
  0
SOLID
  5
249
  8
LAYER01
 62
     1
 10
643.31055400000002
 20
857.83705299999986
 30
0.0
 11
639.31071399999985
 21
833.83705299999986
 31
0.0
 12
635.31087400000001
 22
857.83705299999986
 32
0.0
 13
635.31087400000001
 23
857.83705299999986
 33
0.0
  0
SOLID
  5
24A
  8
LAYER01
 62
     1
 10
643.31055400000002
 20
1309.837053
 30
0.0
 11
639.31071399999985
 21
1333.837053
 31
0.0
 12
635.31087400000001
 22
1309.837053
 32
0.0
 13
635.31087400000001
 23
1309.837053
 33
0.0
  0
TEXT
  5
24B
  8
LAYER01
  6
STRICHPUNKTIERT
 62
     1
 10
624.31071399999985
 20
1045.265625
 30
0.0
 40
30.0
  1
500
 50
90.0
  7
SIMPLEX
  0
POINT
  5
24C
  8
LAYER01
 62
     1
 10
581.38235299999985
 20
833.83705299999986
 30
0.0
  0
POINT
  5
24D
  8
LAYER01
 62
     1
 10
581.38235299999985
 20
1333.837053
 30
0.0
  0
POINT
  5
24E
  8
LAYER01
 62
     1
 10
639.31071399999985
 20
1333.837053
 30
0.0
  0
ENDBLK
  5
24F
  8
0
  0
BLOCK
  8
0
  2
*D18
 70
     1
 10
0.0
 20
0.0
 30
0.0
  3
*D18
  1

  0
LINE
  5
252
  8
LAYER01
 62
     1
 10
1288.7796949999999
 20
1048.2655130000001
 30
0.0
 11
1288.7796949999999
 21
1000.2655130000001
 31
0.0
  0
LINE
  5
253
  8
LAYER01
 62
     1
 10
1288.7796949999999
 20
1088.264977
 30
0.0
 11
1288.7796949999999
 21
1136.264977
 31
0.0
  0
LINE
  5
254
  8
LAYER01
 62
     1
 10
1382.6709169999999
 20
1048.2655130000001
 30
0.0
 11
1273.7796949999999
 21
1048.2655130000001
 31
0.0
  0
LINE
  5
255
  8
LAYER01
 62
     1
 10
1382.6709169999999
 20
1088.264977
 30
0.0
 11
1273.7796949999999
 21
1088.264977
 31
0.0
  0
SOLID
  5
256
  8
LAYER01
 62
     1
 10
1292.7795349999999
 20
1024.2655130000001
 30
0.0
 11
1288.7796949999999
 21
1048.2655130000001
 31
0.0
 12
1284.779855
 22
1024.2655130000001
 32
0.0
 13
1284.779855
 23
1024.2655130000001
 33
0.0
  0
SOLID
  5
257
  8
LAYER01
 62
     1
 10
1292.7795349999999
 20
1112.264977
 30
0.0
 11
1288.7796949999999
 21
1088.264977
 31
0.0
 12
1284.779855
 22
1112.264977
 32
0.0
 13
1284.779855
 23
1112.264977
 33
0.0
  0
TEXT
  5
258
  8
LAYER01
  6
STRICHPUNKTIERT
 62
     1
 10
1273.7796949999999
 20
1151.264977
 30
0.0
 40
30.0
  1
40
 50
90.0
  7
SIMPLEX
  0
POINT
  5
259
  8
LAYER01
 62
     1
 10
1394.6709169999999
 20
1048.2655130000001
 30
0.0
  0
POINT
  5
25A
  8
LAYER01
 62
     1
 10
1394.6709169999999
 20
1088.264977
 30
0.0
  0
POINT
  5
25B
  8
LAYER01
 62
     1
 10
1288.7796949999999
 20
1088.264977
 30
0.0
  0
ENDBLK
  5
25C
  8
0
  0
BLOCK
  8
0
  2
*D19
 70
     1
 10
0.0
 20
0.0
 30
0.0
  3
*D19
  1

  0
LINE
  5
25F
  8
LAYER01
 62
     1
 10
1230.3777419999999
 20
1088.264977
 30
0.0
 11
1230.3777419999999
 21
938.53939200000002
 31
0.0
  0
LINE
  5
260
  8
LAYER01
 62
     1
 10
1373.454422
 20
1088.264977
 30
0.0
 11
1215.3777419999999
 21
1088.264977
 31
0.0
  0
LINE
  5
261
  8
LAYER01
 62
     1
 10
1373.454422
 20
938.53939200000002
 30
0.0
 11
1215.3777419999999
 21
938.53939200000002
 31
0.0
  0
SOLID
  5
262
  8
LAYER01
 62
     1
 10
1226.3779019999999
 20
1064.264977
 30
0.0
 11
1230.3777419999999
 21
1088.264977
 31
0.0
 12
1234.3775820000001
 22
1064.264977
 32
0.0
 13
1234.3775820000001
 23
1064.264977
 33
0.0
  0
SOLID
  5
263
  8
LAYER01
 62
     1
 10
1226.3779019999999
 20
962.53939200000002
 30
0.0
 11
1230.3777419999999
 21
938.53939200000002
 31
0.0
 12
1234.3775820000001
 22
962.53939200000002
 32
0.0
 13
1234.3775820000001
 23
962.53939200000002
 33
0.0
  0
TEXT
  5
264
  8
LAYER01
  6
STRICHPUNKTIERT
 62
     1
 10
1215.3777419999999
 20
977.68789900000002
 30
0.0
 40
30.0
  1
150
 50
90.0
  7
SIMPLEX
  0
POINT
  5
265
  8
LAYER01
 62
     1
 10
1385.454422
 20
1088.264977
 30
0.0
  0
POINT
  5
266
  8
LAYER01
 62
     1
 10
1385.454422
 20
938.53939200000002
 30
0.0
  0
POINT
  5
267
  8
LAYER01
 62
     1
 10
1230.3777419999999
 20
938.53939200000002
 30
0.0
  0
ENDBLK
  5
268
  8
0
  0
BLOCK
  8
0
  2
*D20
 70
     1
 10
0.0
 20
0.0
 30
0.0
  3
*D20
  1

  0
LINE
  5
26B
  8
LAYER01
 62
     1
 10
1855.0957410000001
 20
1194.356096
 30
0.0
 11
1807.0957410000001
 21
1194.356096
 31
0.0
  0
LINE
  5
26C
  8
LAYER01
 62
     1
 10
1895.6106279999999
 20
1194.356096
 30
0.0
 11
1943.6106279999999
 21
1194.356096
 31
0.0
  0
LINE
  5
26D
  8
LAYER01
 62
     1
 10
1855.0957410000001
 20
1132.471395
 30
0.0
 11
1855.0957410000001
 21
1209.356096
 31
0.0
  0
LINE
  5
26E
  8
LAYER01
 62
     1
 10
1895.6106279999999
 20
1132.471395
 30
0.0
 11
1895.6106279999999
 21
1209.356096
 31
0.0
  0
SOLID
  5
26F
  8
LAYER01
 62
     1
 10
1831.0957410000001
 20
1190.356256
 30
0.0
 11
1855.0957410000001
 21
1194.356096
 31
0.0
 12
1831.0957410000001
 22
1198.3559359999999
 32
0.0
 13
1831.0957410000001
 23
1198.3559359999999
 33
0.0
  0
SOLID
  5
270
  8
LAYER01
 62
     1
 10
1919.6106279999999
 20
1190.356256
 30
0.0
 11
1895.6106279999999
 21
1194.356096
 31
0.0
 12
1919.6106279999999
 22
1198.3559359999999
 32
0.0
 13
1919.6106279999999
 23
1198.3559359999999
 33
0.0
  0
TEXT
  5
271
  8
LAYER01
  6
STRICHPUNKTIERT
 62
     1
 10
1958.6106279999999
 20
1209.356096
 30
0.0
 40
30.0
  1
40
  7
SIMPLEX
  0
POINT
  5
272
  8
LAYER01
 62
     1
 10
1855.0957410000001
 20
1120.471395
 30
0.0
  0
POINT
  5
273
  8
LAYER01
 62
     1
 10
1895.6106279999999
 20
1120.471395
 30
0.0
  0
POINT
  5
274
  8
LAYER01
 62
     1
 10
1895.6106279999999
 20
1194.356096
 30
0.0
  0
ENDBLK
  5
275
  8
0
  0
BLOCK
  8
0
  2
*D21
 70
     1
 10
0.0
 20
0.0
 30
0.0
  3
*D21
  1

  0
LINE
  5
278
  8
LAYER01
 62
     1
 10
1500.5891300000001
 20
1194.356096
 30
0.0
 11
1855.0957410000001
 21
1194.356096
 31
0.0
  0
LINE
  5
279
  8
LAYER01
 62
     1
 10
1500.5891300000001
 20
1132.471395
 30
0.0
 11
1500.5891300000001
 21
1209.356096
 31
0.0
  0
LINE
  5
27A
  8
LAYER01
 62
     1
 10
1855.0957410000001
 20
1132.471395
 30
0.0
 11
1855.0957410000001
 21
1209.356096
 31
0.0
  0
SOLID
  5
27B
  8
LAYER01
 62
     1
 10
1524.5891300000001
 20
1190.356256
 30
0.0
 11
1500.5891300000001
 21
1194.356096
 31
0.0
 12
1524.5891300000001
 22
1198.3559359999999
 32
0.0
 13
1524.5891300000001
 23
1198.3559359999999
 33
0.0
  0
SOLID
  5
27C
  8
LAYER01
 62
     1
 10
1831.0957410000001
 20
1190.356256
 30
0.0
 11
1855.0957410000001
 21
1194.356096
 31
0.0
 12
1831.0957410000001
 22
1198.3559359999999
 32
0.0
 13
1831.0957410000001
 23
1198.3559359999999
 33
0.0
  0
TEXT
  5
27D
  8
LAYER01
  6
STRICHPUNKTIERT
 62
     1
 10
1639.2710070000001
 20
1209.356096
 30
0.0
 40
30.0
  1
355
  7
SIMPLEX
  0
POINT
  5
27E
  8
LAYER01
 62
     1
 10
1500.5891300000001
 20
1120.471395
 30
0.0
  0
POINT
  5
27F
  8
LAYER01
 62
     1
 10
1855.0957410000001
 20
1120.471395
 30
0.0
  0
POINT
  5
280
  8
LAYER01
 62
     1
 10
1855.0957410000001
 20
1194.356096
 30
0.0
  0
ENDBLK
  5
281
  8
0
  0
BLOCK
  8
0
  2
*D22
 70
     1
 10
0.0
 20
0.0
 30
0.0
  3
*D22
  1

  0
LINE
  5
284
  8
LAYER01
 62
     1
 10
1968.412832
 20
1048.16256
 30
0.0
 11
1968.412832
 21
998.31612299999995
 31
0.0
  0
LINE
  5
285
  8
LAYER01
 62
     1
 10
1926.8261259999999
 20
1048.16256
 30
0.0
 11
1983.412832
 21
1048.16256
 31
0.0
  0
LINE
  5
286
  8
LAYER01
 62
     1
 10
1926.8261259999999
 20
998.31612299999995
 30
0.0
 11
1983.412832
 21
998.31612299999995
 31
0.0
  0
SOLID
  5
287
  8
LAYER01
 62
     1
 10
1964.412992
 20
1024.16256
 30
0.0
 11
1968.412832
 21
1048.16256
 31
0.0
 12
1972.4126719999999
 22
1024.16256
 32
0.0
 13
1972.4126719999999
 23
1024.16256
 33
0.0
  0
SOLID
  5
288
  8
LAYER01
 62
     1
 10
1964.412992
 20
1022.3161229999999
 30
0.0
 11
1968.412832
 21
998.31612299999995
 31
0.0
 12
1972.4126719999999
 22
1022.3161229999999
 32
0.0
 13
1972.4126719999999
 23
1022.3161229999999
 33
0.0
  0
TEXT
  5
289
  8
LAYER01
  6
STRICHPUNKTIERT
 62
     1
 10
1953.412832
 20
998.95362699999998
 30
0.0
 40
30.0
  1
50
 50
90.0
  7
SIMPLEX
  0
POINT
  5
28A
  8
LAYER01
 62
     1
 10
1914.8261259999999
 20
1048.16256
 30
0.0
  0
POINT
  5
28B
  8
LAYER01
 62
     1
 10
1914.8261259999999
 20
998.31612299999995
 30
0.0
  0
POINT
  5
28C
  8
LAYER01
 62
     1
 10
1968.412832
 20
998.31612299999995
 30
0.0
  0
ENDBLK
  5
28D
  8
0
  0
BLOCK
  8
0
 62
     7
  2
WMF0
 70
     0
 10
0.0
 20
0.0
 30
0.0
  3
WMF0
  1

  0
POLYLINE
  5
9F0
  8
LAYER01
 62
     7
 66
     1
 10
0.0
 20
0.0
 30
0.0
 70
     1
  0
VERTEX
  5
11E4
  8
LAYER01
 62
     7
 10
2458.2645046842372
 20
7351.0038575557674
 30
0.0
  0
VERTEX
  5
11E5
  8
LAYER01
 62
     7
 10
2628.7570429123371
 20
7351.0038575557674
 30
0.0
  0
VERTEX
  5
11E6
  8
LAYER01
 62
     7
 10
2842.8639513848352
 20
6863.3158993684092
 30
0.0
  0
VERTEX
  5
11E7
  8
LAYER01
 62
     7
 10
3056.9708598573329
 20
7351.0038575557674
 30
0.0
  0
VERTEX
  5
11E8
  8
LAYER01
 62
     7
 10
3235.3932835844162
 20
7351.0038575557674
 30
0.0
  0
VERTEX
  5
11E9
  8
LAYER01
 62
     7
 10
2842.8639513848352
 20
6478.7164526678098
 30
0.0
  0
VERTEX
  5
11EA
  8
LAYER01
 62
     7
 10
2458.2645046842372
 20
7351.0038575557674
 30
0.0
  0
VERTEX
  5
11EB
  8
LAYER01
 62
     7
 10
2458.2645046842372
 20
7351.0038575557674
 30
0.0
  0
SEQEND
  5
11EC
  8
LAYER01
 62
     7
  0
POLYLINE
  5
9F1
  8
LAYER01
 62
     7
 66
     1
 10
0.0
 20
0.0
 30
0.0
 70
     1
  0
VERTEX
  5
11ED
  8
LAYER01
 62
     7
 10
3041.1110888593689
 20
6756.2624451321599
 30
0.0
  0
VERTEX
  5
11EE
  8
LAYER01
 62
     7
 10
3100.5852301017312
 20
6895.0354413643372
 30
0.0
  0
VERTEX
  5
11EF
  8
LAYER01
 62
     7
 10
3358.3065088186272
 20
6895.0354413643372
 30
0.0
  0
VERTEX
  5
11F0
  8
LAYER01
 62
     7
 10
3227.4633980854328
 20
7180.5113193276648
 30
0.0
  0
VERTEX
  5
11F1
  8
LAYER01
 62
     7
 10
3302.7973103257568
 20
7362.8986858042381
 30
0.0
  0
VERTEX
  5
11F2
  8
LAYER01
 62
     7
 10
3655.67721503043
 20
6617.4894488999853
 30
0.0
  0
VERTEX
  5
11F3
  8
LAYER01
 62
     7
 10
3655.67721503043
 20
7351.0038575557674
 30
0.0
  0
VERTEX
  5
11F4
  8
LAYER01
 62
     7
 10
4127.5054022198219
 20
7351.0038575557674
 30
0.0
  0
VERTEX
  5
11F5
  8
LAYER01
 62
     7
 10
4127.5054022198219
 20
7351.0038575557674
 30
0.0
  0
VERTEX
  5
11F6
  8
LAYER01
 62
     7
 10
4171.1197724642179
 20
7343.0739720567844
 30
0.0
  0
VERTEX
  5
11F7
  8
LAYER01
 62
     7
 10
4210.7691999591279
 20
7327.2142010588213
 30
0.0
  0
VERTEX
  5
11F8
  8
LAYER01
 62
     7
 10
4246.4536847045429
 20
7299.4596018123866
 30
0.0
  0
VERTEX
  5
11F9
  8
LAYER01
 62
     7
 10
4278.1732267004691
 20
7271.705002565951
 30
0.0
  0
VERTEX
  5
11FA
  8
LAYER01
 62
     7
 10
4305.9278259469047
 20
7236.0205178205333
 30
0.0
  0
VERTEX
  5
11FB
  8
LAYER01
 62
     7
 10
4325.7525396943593
 20
7196.3710903256278
 30
0.0
  0
VERTEX
  5
11FC
  8
LAYER01
 62
     7
 10
4341.6123106923224
 20
7148.7917773317413
 30
0.0
  0
VERTEX
  5
11FD
  8
LAYER01
 62
     7
 10
4345.577253441812
 20
7105.1774070873416
 30
0.0
  0
VERTEX
  5
11FE
  8
LAYER01
 62
     7
 10
4345.577253441812
 20
7105.1774070873416
 30
0.0
  0
VERTEX
  5
11FF
  8
LAYER01
 62
     7
 10
4345.577253441812
 20
7057.5980940934542
 30
0.0
  0
VERTEX
  5
1200
  8
LAYER01
 62
     7
 10
4337.6473679428309
 20
7017.948666598546
 30
0.0
  0
VERTEX
  5
1201
  8
LAYER01
 62
     7
 10
4321.7875969448678
 20
6978.2992391036396
 30
0.0
  0
VERTEX
  5
1202
  8
LAYER01
 62
     7
 10
4301.9628831974142
 20
6942.6147543582238
 30
0.0
  0
VERTEX
  5
1203
  8
LAYER01
 62
     7
 10
4274.2082839509794
 20
6910.8952123622976
 30
0.0
  0
VERTEX
  5
1204
  8
LAYER01
 62
     7
 10
4242.4887419550541
 20
6883.1406131158628
 30
0.0
  0
VERTEX
  5
1205
  8
LAYER01
 62
     7
 10
4206.8042572096356
 20
6863.3158993684092
 30
0.0
  0
VERTEX
  5
1206
  8
LAYER01
 62
     7
 10
4163.1898869652387
 20
6847.4561283704461
 30
0.0
  0
VERTEX
  5
1207
  8
LAYER01
 62
     7
 10
4416.9462229326446
 20
6510.4359946637369
 30
0.0
  0
VERTEX
  5
1208
  8
LAYER01
 62
     7
 10
4416.9462229326446
 20
7351.0038575557674
 30
0.0
  0
VERTEX
  5
1209
  8
LAYER01
 62
     7
 10
4583.4738184112539
 20
7351.0038575557674
 30
0.0
  0
VERTEX
  5
120A
  8
LAYER01
 62
     7
 10
4583.4738184112539
 20
6502.5061091647531
 30
0.0
  0
VERTEX
  5
120B
  8
LAYER01
 62
     7
 10
4226.628970957091
 20
6502.5061091647531
 30
0.0
  0
VERTEX
  5
120C
  8
LAYER01
 62
     7
 10
3881.6789517513998
 20
6942.6147543582238
 30
0.0
  0
VERTEX
  5
120D
  8
LAYER01
 62
     7
 10
4056.1364327289889
 20
6942.6147543582238
 30
0.0
  0
VERTEX
  5
120E
  8
LAYER01
 62
     7
 10
4056.1364327289889
 20
6942.6147543582238
 30
0.0
  0
VERTEX
  5
120F
  8
LAYER01
 62
     7
 10
4079.926089225934
 20
6946.5796971077143
 30
0.0
  0
VERTEX
  5
1210
  8
LAYER01
 62
     7
 10
4103.7157457228786
 20
6954.5095826066963
 30
0.0
  0
VERTEX
  5
1211
  8
LAYER01
 62
     7
 10
4123.5404594703332
 20
6966.4044108551689
 30
0.0
  0
VERTEX
  5
1212
  8
LAYER01
 62
     7
 10
4143.3651732177859
 20
6982.264181853131
 30
0.0
  0
VERTEX
  5
1213
  8
LAYER01
 62
     7
 10
4155.2600014662594
 20
7002.0888956005829
 30
0.0
  0
VERTEX
  5
1214
  8
LAYER01
 62
     7
 10
4167.1548297147283
 20
7025.878552097528
 30
0.0
  0
VERTEX
  5
1215
  8
LAYER01
 62
     7
 10
4175.0847152137121
 20
7049.6682085944713
 30
0.0
  0
VERTEX
  5
1216
  8
LAYER01
 62
     7
 10
4175.0847152137121
 20
7077.4228078409069
 30
0.0
  0
VERTEX
  5
1217
  8
LAYER01
 62
     7
 10
4175.0847152137121
 20
7077.4228078409069
 30
0.0
  0
VERTEX
  5
1218
  8
LAYER01
 62
     7
 10
4175.0847152137121
 20
7101.212464337852
 30
0.0
  0
VERTEX
  5
1219
  8
LAYER01
 62
     7
 10
4167.1548297147283
 20
7125.0021208347962
 30
0.0
  0
VERTEX
  5
121A
  8
LAYER01
 62
     7
 10
4159.224944215749
 20
7148.7917773317413
 30
0.0
  0
VERTEX
  5
121B
  8
LAYER01
 62
     7
 10
4143.3651732177859
 20
7168.6164910791931
 30
0.0
  0
VERTEX
  5
121C
  8
LAYER01
 62
     7
 10
4127.5054022198219
 20
7184.4762620771562
 30
0.0
  0
VERTEX
  5
121D
  8
LAYER01
 62
     7
 10
4103.7157457228786
 20
7196.3710903256278
 30
0.0
  0
VERTEX
  5
121E
  8
LAYER01
 62
     7
 10
4079.926089225934
 20
7204.3009758246117
 30
0.0
  0
VERTEX
  5
121F
  8
LAYER01
 62
     7
 10
4056.1364327289889
 20
7208.2659185741013
 30
0.0
  0
VERTEX
  5
1220
  8
LAYER01
 62
     7
 10
3834.099638757511
 20
7208.2659185741013
 30
0.0
  0
VERTEX
  5
1221
  8
LAYER01
 62
     7
 10
3834.099638757511
 20
6502.5061091647531
 30
0.0
  0
VERTEX
  5
1222
  8
LAYER01
 62
     7
 10
3548.6237607941812
 20
6502.5061091647531
 30
0.0
  0
VERTEX
  5
1223
  8
LAYER01
 62
     7
 10
3429.6754783094589
 20
6756.2624451321599
 30
0.0
  0
VERTEX
  5
1224
  8
LAYER01
 62
     7
 10
3041.1110888593689
 20
6756.2624451321599
 30
0.0
  0
VERTEX
  5
1225
  8
LAYER01
 62
     7
 10
3041.1110888593689
 20
6756.2624451321599
 30
0.0
  0
SEQEND
  5
1226
  8
LAYER01
 62
     7
  0
POLYLINE
  5
9F2
  8
LAYER01
 62
     7
 66
     1
 10
0.0
 20
0.0
 30
0.0
 70
     1
  0
VERTEX
  5
1227
  8
LAYER01
 62
     7
 10
5352.6727118124491
 20
7295.4946590628952
 30
0.0
  0
VERTEX
  5
1228
  8
LAYER01
 62
     7
 10
5245.6192575762007
 20
7160.6866055802111
 30
0.0
  0
VERTEX
  5
1229
  8
LAYER01
 62
     7
 10
5245.6192575762007
 20
7160.6866055802111
 30
0.0
  0
VERTEX
  5
122A
  8
LAYER01
 62
     7
 10
5209.9347728307857
 20
7184.4762620771562
 30
0.0
  0
VERTEX
  5
122B
  8
LAYER01
 62
     7
 10
5174.250288085369
 20
7204.3009758246117
 30
0.0
  0
VERTEX
  5
122C
  8
LAYER01
 62
     7
 10
5134.6008605904626
 20
7216.1958040730824
 30
0.0
  0
VERTEX
  5
122D
  8
LAYER01
 62
     7
 10
5090.9864903460648
 20
7216.1958040730824
 30
0.0
  0
VERTEX
  5
122E
  8
LAYER01
 62
     7
 10
5090.9864903460648
 20
7216.1958040730824
 30
0.0
  0
VERTEX
  5
122F
  8
LAYER01
 62
     7
 10
5063.2318910996291
 20
7216.1958040730824
 30
0.0
  0
VERTEX
  5
1230
  8
LAYER01
 62
     7
 10
5035.4772918531944
 20
7212.2308613235937
 30
0.0
  0
VERTEX
  5
1231
  8
LAYER01
 62
     7
 10
5007.7226926067578
 20
7204.3009758246117
 30
0.0
  0
VERTEX
  5
1232
  8
LAYER01
 62
     7
 10
4979.9680933603249
 20
7192.4061475761382
 30
0.0
  0
VERTEX
  5
1233
  8
LAYER01
 62
     7
 10
4956.1784368633807
 20
7180.5113193276648
 30
0.0
  0
VERTEX
  5
1234
  8
LAYER01
 62
     7
 10
4936.3537231159271
 20
7164.6515483297017
 30
0.0
  0
VERTEX
  5
1235
  8
LAYER01
 62
     7
 10
4912.5640666189829
 20
7148.7917773317413
 30
0.0
  0
VERTEX
  5
1236
  8
LAYER01
 62
     7
 10
4896.7042956210198
 20
7128.9670635842867
 30
0.0
  0
VERTEX
  5
1237
  8
LAYER01
 62
     7
 10
4876.8795818735662
 20
7105.1774070873416
 30
0.0
  0
VERTEX
  5
1238
  8
LAYER01
 62
     7
 10
4864.9847536250936
 20
7081.3877505903993
 30
0.0
  0
VERTEX
  5
1239
  8
LAYER01
 62
     7
 10
4849.1249826271314
 20
7057.5980940934542
 30
0.0
  0
VERTEX
  5
123A
  8
LAYER01
 62
     7
 10
4837.2301543786589
 20
7033.8084375965091
 30
0.0
  0
VERTEX
  5
123B
  8
LAYER01
 62
     7
 10
4829.3002688796769
 20
7006.0538383500743
 30
0.0
  0
VERTEX
  5
123C
  8
LAYER01
 62
     7
 10
4825.3353261301863
 20
6978.2992391036396
 30
0.0
  0
VERTEX
  5
123D
  8
LAYER01
 62
     7
 10
4821.3703833806958
 20
6950.5446398572049
 30
0.0
  0
VERTEX
  5
123E
  8
LAYER01
 62
     7
 10
4817.4054406312061
 20
6918.8250978612787
 30
0.0
  0
VERTEX
  5
123F
  8
LAYER01
 62
     7
 10
4817.4054406312061
 20
6918.8250978612787
 30
0.0
  0
VERTEX
  5
1240
  8
LAYER01
 62
     7
 10
4821.3703833806958
 20
6891.0704986148439
 30
0.0
  0
VERTEX
  5
1241
  8
LAYER01
 62
     7
 10
4825.3353261301863
 20
6863.3158993684092
 30
0.0
  0
VERTEX
  5
1242
  8
LAYER01
 62
     7
 10
4829.3002688796769
 20
6835.5613001219781
 30
0.0
  0
VERTEX
  5
1243
  8
LAYER01
 62
     7
 10
4841.1950971281503
 20
6811.7716436250303
 30
0.0
  0
VERTEX
  5
1244
  8
LAYER01
 62
     7
 10
4849.1249826271314
 20
6787.9819871280861
 30
0.0
  0
VERTEX
  5
1245
  8
LAYER01
 62
     7
 10
4864.9847536250936
 20
6764.1923306311428
 30
0.0
  0
VERTEX
  5
1246
  8
LAYER01
 62
     7
 10
4880.8445246230567
 20
6740.4026741341977
 30
0.0
  0
VERTEX
  5
1247
  8
LAYER01
 62
     7
 10
4896.7042956210198
 20
6720.5779603867441
 30
0.0
  0
VERTEX
  5
1248
  8
LAYER01
 62
     7
 10
4916.5290093684744
 20
6700.7532466392904
 30
0.0
  0
VERTEX
  5
1249
  8
LAYER01
 62
     7
 10
4936.3537231159271
 20
6684.8934756413273
 30
0.0
  0
VERTEX
  5
124A
  8
LAYER01
 62
     7
 10
4960.1433796128722
 20
6672.9986473928557
 30
0.0
  0
VERTEX
  5
124B
  8
LAYER01
 62
     7
 10
4983.9330361098146
 20
6661.103819144384
 30
0.0
  0
VERTEX
  5
124C
  8
LAYER01
 62
     7
 10
5011.6876353562502
 20
6649.2089908959097
 30
0.0
  0
VERTEX
  5
124D
  8
LAYER01
 62
     7
 10
5035.4772918531944
 20
6641.2791053969304
 30
0.0
  0
VERTEX
  5
124E
  8
LAYER01
 62
     7
 10
5063.2318910996291
 20
6637.3141626474389
 30
0.0
  0
VERTEX
  5
124F
  8
LAYER01
 62
     7
 10
5094.9514330955544
 20
6637.3141626474389
 30
0.0
  0
VERTEX
  5
1250
  8
LAYER01
 62
     7
 10
5094.9514330955544
 20
6637.3141626474389
 30
0.0
  0
VERTEX
  5
1251
  8
LAYER01
 62
     7
 10
5138.5658033399532
 20
6641.2791053969304
 30
0.0
  0
VERTEX
  5
1252
  8
LAYER01
 62
     7
 10
5174.250288085369
 20
6649.2089908959097
 30
0.0
  0
VERTEX
  5
1253
  8
LAYER01
 62
     7
 10
5209.9347728307857
 20
6669.0337046433651
 30
0.0
  0
VERTEX
  5
1254
  8
LAYER01
 62
     7
 10
5245.6192575762007
 20
6692.8233611403102
 30
0.0
  0
VERTEX
  5
1255
  8
LAYER01
 62
     7
 10
5348.7077690629603
 20
6554.0503649081338
 30
0.0
  0
VERTEX
  5
1256
  8
LAYER01
 62
     7
 10
5348.7077690629603
 20
6554.0503649081338
 30
0.0
  0
VERTEX
  5
1257
  8
LAYER01
 62
     7
 10
5289.2336278206003
 20
6518.365880162718
 30
0.0
  0
VERTEX
  5
1258
  8
LAYER01
 62
     7
 10
5257.5140858246741
 20
6506.4710519142454
 30
0.0
  0
VERTEX
  5
1259
  8
LAYER01
 62
     7
 10
5229.7594865782394
 20
6494.5762236657738
 30
0.0
  0
VERTEX
  5
125A
  8
LAYER01
 62
     7
 10
5198.0399445823132
 20
6486.6463381667909
 30
0.0
  0
VERTEX
  5
125B
  8
LAYER01
 62
     7
 10
5166.3204025863879
 20
6482.6813954173012
 30
0.0
  0
VERTEX
  5
125C
  8
LAYER01
 62
     7
 10
5094.9514330955544
 20
6478.7164526678098
 30
0.0
  0
VERTEX
  5
125D
  8
LAYER01
 62
     7
 10
5094.9514330955544
 20
6478.7164526678098
 30
0.0
  0
VERTEX
  5
125E
  8
LAYER01
 62
     7
 10
5047.372120101667
 20
6482.6813954173012
 30
0.0
  0
VERTEX
  5
125F
  8
LAYER01
 62
     7
 10
5003.7577498572691
 20
6490.6112809162832
 30
0.0
  0
VERTEX
  5
1260
  8
LAYER01
 62
     7
 10
4960.1433796128722
 20
6498.5411664152653
 30
0.0
  0
VERTEX
  5
1261
  8
LAYER01
 62
     7
 10
4920.493952117964
 20
6514.4009374132283
 30
0.0
  0
VERTEX
  5
1262
  8
LAYER01
 62
     7
 10
4880.8445246230567
 20
6534.2256511606811
 30
0.0
  0
VERTEX
  5
1263
  8
LAYER01
 62
     7
 10
4845.16003987764
 20
6554.0503649081338
 30
0.0
  0
VERTEX
  5
1264
  8
LAYER01
 62
     7
 10
4809.4755551322241
 20
6581.8049641545704
 30
0.0
  0
VERTEX
  5
1265
  8
LAYER01
 62
     7
 10
4777.756013136298
 20
6609.5595634010042
 30
0.0
  0
VERTEX
  5
1266
  8
LAYER01
 62
     7
 10
4746.0364711403727
 20
6641.2791053969304
 30
0.0
  0
VERTEX
  5
1267
  8
LAYER01
 62
     7
 10
4722.2468146434294
 20
6676.9635901423471
 30
0.0
  0
VERTEX
  5
1268
  8
LAYER01
 62
     7
 10
4698.4571581464834
 20
6712.648074887763
 30
0.0
  0
VERTEX
  5
1269
  8
LAYER01
 62
     7
 10
4678.6324443990288
 20
6752.2975023826693
 30
0.0
  0
VERTEX
  5
126A
  8
LAYER01
 62
     7
 10
4666.737616150559
 20
6791.9469298775748
 30
0.0
  0
VERTEX
  5
126B
  8
LAYER01
 62
     7
 10
4654.8427879020883
 20
6835.5613001219781
 30
0.0
  0
VERTEX
  5
126C
  8
LAYER01
 62
     7
 10
4646.9129024031063
 20
6879.1756703663723
 30
0.0
  0
VERTEX
  5
126D
  8
LAYER01
 62
     7
 10
4642.947959653613
 20
6926.7549833602607
 30
0.0
  0
VERTEX
  5
126E
  8
LAYER01
 62
     7
 10
4642.947959653613
 20
6926.7549833602607
 30
0.0
  0
VERTEX
  5
126F
  8
LAYER01
 62
     7
 10
4646.9129024031063
 20
6970.3693536046603
 30
0.0
  0
VERTEX
  5
1270
  8
LAYER01
 62
     7
 10
4654.8427879020883
 20
7017.948666598546
 30
0.0
  0
VERTEX
  5
1271
  8
LAYER01
 62
     7
 10
4662.7726734010676
 20
7057.5980940934542
 30
0.0
  0
VERTEX
  5
1272
  8
LAYER01
 62
     7
 10
4678.6324443990288
 20
7101.212464337852
 30
0.0
  0
VERTEX
  5
1273
  8
LAYER01
 62
     7
 10
4698.4571581464834
 20
7140.8618918327593
 30
0.0
  0
VERTEX
  5
1274
  8
LAYER01
 62
     7
 10
4718.2818718939379
 20
7176.5463765781742
 30
0.0
  0
VERTEX
  5
1275
  8
LAYER01
 62
     7
 10
4746.0364711403727
 20
7212.2308613235937
 30
0.0
  0
VERTEX
  5
1276
  8
LAYER01
 62
     7
 10
4773.7910703868083
 20
7243.950403319518
 30
0.0
  0
VERTEX
  5
1277
  8
LAYER01
 62
     7
 10
4805.5106123827327
 20
7271.705002565951
 30
0.0
  0
VERTEX
  5
1278
  8
LAYER01
 62
     7
 10
4841.1950971281503
 20
7299.4596018123866
 30
0.0
  0
VERTEX
  5
1279
  8
LAYER01
 62
     7
 10
4876.8795818735662
 20
7319.2843155598421
 30
0.0
  0
VERTEX
  5
127A
  8
LAYER01
 62
     7
 10
4916.5290093684744
 20
7339.1090293072939
 30
0.0
  0
VERTEX
  5
127B
  8
LAYER01
 62
     7
 10
4956.1784368633807
 20
7354.9688003052588
 30
0.0
  0
VERTEX
  5
127C
  8
LAYER01
 62
     7
 10
4999.7928071077777
 20
7366.8636285537268
 30
0.0
  0
VERTEX
  5
127D
  8
LAYER01
 62
     7
 10
5047.372120101667
 20
7370.8285713032201
 30
0.0
  0
VERTEX
  5
127E
  8
LAYER01
 62
     7
 10
5090.9864903460648
 20
7374.7935140527079
 30
0.0
  0
VERTEX
  5
127F
  8
LAYER01
 62
     7
 10
5090.9864903460648
 20
7374.7935140527079
 30
0.0
  0
VERTEX
  5
1280
  8
LAYER01
 62
     7
 10
5162.3554598368992
 20
7370.8285713032201
 30
0.0
  0
VERTEX
  5
1281
  8
LAYER01
 62
     7
 10
5198.0399445823132
 20
7366.8636285537268
 30
0.0
  0
VERTEX
  5
1282
  8
LAYER01
 62
     7
 10
5229.7594865782394
 20
7358.9337430547457
 30
0.0
  0
VERTEX
  5
1283
  8
LAYER01
 62
     7
 10
5257.5140858246741
 20
7347.0389148062732
 30
0.0
  0
VERTEX
  5
1284
  8
LAYER01
 62
     7
 10
5289.2336278206003
 20
7335.1440865578052
 30
0.0
  0
VERTEX
  5
1285
  8
LAYER01
 62
     7
 10
5320.9531698165256
 20
7315.3193728103488
 30
0.0
  0
VERTEX
  5
1286
  8
LAYER01
 62
     7
 10
5352.6727118124491
 20
7295.4946590628952
 30
0.0
  0
VERTEX
  5
1287
  8
LAYER01
 62
     7
 10
5352.6727118124491
 20
7295.4946590628952
 30
0.0
  0
SEQEND
  5
1288
  8
LAYER01
 62
     7
  0
POLYLINE
  5
9F3
  8
LAYER01
 62
     7
 66
     1
 10
0.0
 20
0.0
 30
0.0
 70
     1
  0
VERTEX
  5
1289
  8
LAYER01
 62
     7
 10
5737.2721585130503
 20
7370.8285713032201
 30
0.0
  0
VERTEX
  5
128A
  8
LAYER01
 62
     7
 10
5737.2721585130503
 20
7370.8285713032201
 30
0.0
  0
VERTEX
  5
128B
  8
LAYER01
 62
     7
 10
5693.6577882686533
 20
7366.8636285537268
 30
0.0
  0
VERTEX
  5
128C
  8
LAYER01
 62
     7
 10
5646.0784752747632
 20
7362.8986858042381
 30
0.0
  0
VERTEX
  5
128D
  8
LAYER01
 62
     7
 10
5606.429047779855
 20
7351.0038575557674
 30
0.0
  0
VERTEX
  5
128E
  8
LAYER01
 62
     7
 10
5562.814677535458
 20
7335.1440865578052
 30
0.0
  0
VERTEX
  5
128F
  8
LAYER01
 62
     7
 10
5523.1652500405517
 20
7319.2843155598421
 30
0.0
  0
VERTEX
  5
1290
  8
LAYER01
 62
     7
 10
5487.4807652951349
 20
7295.4946590628952
 30
0.0
  0
VERTEX
  5
1291
  8
LAYER01
 62
     7
 10
5451.7962805497182
 20
7271.705002565951
 30
0.0
  0
VERTEX
  5
1292
  8
LAYER01
 62
     7
 10
5420.0767385537929
 20
7239.9854605700248
 30
0.0
  0
VERTEX
  5
1293
  8
LAYER01
 62
     7
 10
5392.3221393073582
 20
7208.2659185741013
 30
0.0
  0
VERTEX
  5
1294
  8
LAYER01
 62
     7
 10
5364.5675400609243
 20
7176.5463765781742
 30
0.0
  0
VERTEX
  5
1295
  8
LAYER01
 62
     7
 10
5340.7778835639801
 20
7140.8618918327593
 30
0.0
  0
VERTEX
  5
1296
  8
LAYER01
 62
     7
 10
5320.9531698165256
 20
7101.212464337852
 30
0.0
  0
VERTEX
  5
1297
  8
LAYER01
 62
     7
 10
5309.0583415680539
 20
7057.5980940934542
 30
0.0
  0
VERTEX
  5
1298
  8
LAYER01
 62
     7
 10
5297.1635133195814
 20
7017.948666598546
 30
0.0
  0
VERTEX
  5
1299
  8
LAYER01
 62
     7
 10
5289.2336278206003
 20
6970.3693536046603
 30
0.0
  0
VERTEX
  5
129A
  8
LAYER01
 62
     7
 10
5285.2686850711088
 20
6926.7549833602607
 30
0.0
  0
VERTEX
  5
129B
  8
LAYER01
 62
     7
 10
5285.2686850711088
 20
6926.7549833602607
 30
0.0
  0
VERTEX
  5
129C
  8
LAYER01
 62
     7
 10
5289.2336278206003
 20
6879.1756703663723
 30
0.0
  0
VERTEX
  5
129D
  8
LAYER01
 62
     7
 10
5293.1985705700909
 20
6835.5613001219781
 30
0.0
  0
VERTEX
  5
129E
  8
LAYER01
 62
     7
 10
5305.0933988185634
 20
6791.9469298775748
 30
0.0
  0
VERTEX
  5
129F
  8
LAYER01
 62
     7
 10
5320.9531698165256
 20
6752.2975023826693
 30
0.0
  0
VERTEX
  5
12A0
  8
LAYER01
 62
     7
 10
5336.8129408144878
 20
6712.648074887763
 30
0.0
  0
VERTEX
  5
12A1
  8
LAYER01
 62
     7
 10
5360.602597311432
 20
6676.9635901423471
 30
0.0
  0
VERTEX
  5
12A2
  8
LAYER01
 62
     7
 10
5384.3922538083762
 20
6641.2791053969304
 30
0.0
  0
VERTEX
  5
12A3
  8
LAYER01
 62
     7
 10
5412.1468530548118
 20
6609.5595634010042
 30
0.0
  0
VERTEX
  5
12A4
  8
LAYER01
 62
     7
 10
5443.8663950507362
 20
6577.8400214050789
 30
0.0
  0
VERTEX
  5
12A5
  8
LAYER01
 62
     7
 10
5479.5508797961529
 20
6554.0503649081338
 30
0.0
  0
VERTEX
  5
12A6
  8
LAYER01
 62
     7
 10
5515.2353645415697
 20
6530.2607084111914
 30
0.0
  0
VERTEX
  5
12A7
  8
LAYER01
 62
     7
 10
5554.8847920364769
 20
6510.4359946637369
 30
0.0
  0
VERTEX
  5
12A8
  8
LAYER01
 62
     7
 10
5594.5342195313842
 20
6494.5762236657738
 30
0.0
  0
VERTEX
  5
12A9
  8
LAYER01
 62
     7
 10
5638.1485897757821
 20
6486.6463381667909
 30
0.0
  0
VERTEX
  5
12AA
  8
LAYER01
 62
     7
 10
5681.762960020179
 20
6478.7164526678098
 30
0.0
  0
VERTEX
  5
12AB
  8
LAYER01
 62
     7
 10
5725.3773302645768
 20
6474.7515099183202
 30
0.0
  0
VERTEX
  5
12AC
  8
LAYER01
 62
     7
 10
5725.3773302645768
 20
6474.7515099183202
 30
0.0
  0
VERTEX
  5
12AD
  8
LAYER01
 62
     7
 10
5772.9566432584652
 20
6478.7164526678098
 30
0.0
  0
VERTEX
  5
12AE
  8
LAYER01
 62
     7
 10
5816.5710135028621
 20
6486.6463381667909
 30
0.0
  0
VERTEX
  5
12AF
  8
LAYER01
 62
     7
 10
5860.1853837472609
 20
6498.5411664152653
 30
0.0
  0
VERTEX
  5
12B0
  8
LAYER01
 62
     7
 10
5899.8348112421681
 20
6514.4009374132283
 30
0.0
  0
VERTEX
  5
12B1
  8
LAYER01
 62
     7
 10
5939.4842387370763
 20
6534.2256511606811
 30
0.0
  0
VERTEX
  5
12B2
  8
LAYER01
 62
     7
 10
5975.1687234824913
 20
6558.0153076576235
 30
0.0
  0
VERTEX
  5
12B3
  8
LAYER01
 62
     7
 10
6010.853208227908
 20
6581.8049641545704
 30
0.0
  0
VERTEX
  5
12B4
  8
LAYER01
 62
     7
 10
6042.5727502238333
 20
6613.5245061504938
 30
0.0
  0
VERTEX
  5
12B5
  8
LAYER01
 62
     7
 10
6070.3273494702689
 20
6645.2440481464209
 30
0.0
  0
VERTEX
  5
12B6
  8
LAYER01
 62
     7
 10
6094.1170059672131
 20
6680.9285328918368
 30
0.0
  0
VERTEX
  5
12B7
  8
LAYER01
 62
     7
 10
6113.9417197146659
 20
6716.6130176372544
 30
0.0
  0
VERTEX
  5
12B8
  8
LAYER01
 62
     7
 10
6133.7664334621204
 20
6756.2624451321599
 30
0.0
  0
VERTEX
  5
12B9
  8
LAYER01
 62
     7
 10
6149.6262044600817
 20
6799.8768153765577
 30
0.0
  0
VERTEX
  5
12BA
  8
LAYER01
 62
     7
 10
6157.5560899590637
 20
6843.4911856209546
 30
0.0
  0
VERTEX
  5
12BB
  8
LAYER01
 62
     7
 10
6161.5210327085533
 20
6887.1055558653534
 30
0.0
  0
VERTEX
  5
12BC
  8
LAYER01
 62
     7
 10
6165.4859754580457
 20
6934.6848688592418
 30
0.0
  0
VERTEX
  5
12BD
  8
LAYER01
 62
     7
 10
6165.4859754580457
 20
6934.6848688592418
 30
0.0
  0
VERTEX
  5
12BE
  8
LAYER01
 62
     7
 10
6161.5210327085533
 20
6978.2992391036396
 30
0.0
  0
VERTEX
  5
12BF
  8
LAYER01
 62
     7
 10
6153.5911472095731
 20
7021.9136093480374
 30
0.0
  0
VERTEX
  5
12C0
  8
LAYER01
 62
     7
 10
6141.6963189611024
 20
7061.5630368429456
 30
0.0
  0
VERTEX
  5
12C1
  8
LAYER01
 62
     7
 10
6129.8014907126289
 20
7101.212464337852
 30
0.0
  0
VERTEX
  5
12C2
  8
LAYER01
 62
     7
 10
6109.9767769651762
 20
7136.8969490832678
 30
0.0
  0
VERTEX
  5
12C3
  8
LAYER01
 62
     7
 10
6090.1520632177217
 20
7172.5814338286846
 30
0.0
  0
VERTEX
  5
12C4
  8
LAYER01
 62
     7
 10
6066.3624067207766
 20
7208.2659185741013
 30
0.0
  0
VERTEX
  5
12C5
  8
LAYER01
 62
     7
 10
6038.6078074743446
 20
7236.0205178205333
 30
0.0
  0
VERTEX
  5
12C6
  8
LAYER01
 62
     7
 10
6006.8882654784184
 20
7263.7751170669708
 30
0.0
  0
VERTEX
  5
12C7
  8
LAYER01
 62
     7
 10
5975.1687234824913
 20
7291.5297163134037
 30
0.0
  0
VERTEX
  5
12C8
  8
LAYER01
 62
     7
 10
5939.4842387370763
 20
7311.3544300608592
 30
0.0
  0
VERTEX
  5
12C9
  8
LAYER01
 62
     7
 10
5903.7997539916578
 20
7331.1791438083146
 30
0.0
  0
VERTEX
  5
12CA
  8
LAYER01
 62
     7
 10
5864.1503264967514
 20
7347.0389148062732
 30
0.0
  0
VERTEX
  5
12CB
  8
LAYER01
 62
     7
 10
5824.5008990018441
 20
7358.9337430547457
 30
0.0
  0
VERTEX
  5
12CC
  8
LAYER01
 62
     7
 10
5780.8865287574472
 20
7366.8636285537268
 30
0.0
  0
VERTEX
  5
12CD
  8
LAYER01
 62
     7
 10
5737.2721585130503
 20
7370.8285713032201
 30
0.0
  0
VERTEX
  5
12CE
  8
LAYER01
 62
     7
 10
5737.2721585130503
 20
7370.8285713032201
 30
0.0
  0
SEQEND
  5
12CF
  8
LAYER01
 62
     7
  0
POLYLINE
  5
9F4
  8
LAYER01
 62
     7
 66
     1
 10
0.0
 20
0.0
 30
0.0
 70
     1
  0
VERTEX
  5
12D0
  8
LAYER01
 62
     7
 10
5725.3773302645768
 20
6637.3141626474389
 30
0.0
  0
VERTEX
  5
12D1
  8
LAYER01
 62
     7
 10
5725.3773302645768
 20
6637.3141626474389
 30
0.0
  0
VERTEX
  5
12D2
  8
LAYER01
 62
     7
 10
5697.6227310181421
 20
6641.2791053969304
 30
0.0
  0
VERTEX
  5
12D3
  8
LAYER01
 62
     7
 10
5669.8681317717073
 20
6645.2440481464209
 30
0.0
  0
VERTEX
  5
12D4
  8
LAYER01
 62
     7
 10
5642.1135325252717
 20
6649.2089908959097
 30
0.0
  0
VERTEX
  5
12D5
  8
LAYER01
 62
     7
 10
5614.3589332788379
 20
6661.103819144384
 30
0.0
  0
VERTEX
  5
12D6
  8
LAYER01
 62
     7
 10
5590.56927678189
 20
6672.9986473928557
 30
0.0
  0
VERTEX
  5
12D7
  8
LAYER01
 62
     7
 10
5566.7796202849486
 20
6688.8584183908179
 30
0.0
  0
VERTEX
  5
12D8
  8
LAYER01
 62
     7
 10
5546.9549065374968
 20
6704.718189388781
 30
0.0
  0
VERTEX
  5
12D9
  8
LAYER01
 62
     7
 10
5527.1301927900431
 20
6724.5429031362328
 30
0.0
  0
VERTEX
  5
12DA
  8
LAYER01
 62
     7
 10
5507.3054790425886
 20
6744.3676168836892
 30
0.0
  0
VERTEX
  5
12DB
  8
LAYER01
 62
     7
 10
5491.4457080446264
 20
6764.1923306311428
 30
0.0
  0
VERTEX
  5
12DC
  8
LAYER01
 62
     7
 10
5479.5508797961529
 20
6787.9819871280861
 30
0.0
  0
VERTEX
  5
12DD
  8
LAYER01
 62
     7
 10
5467.6560515476813
 20
6815.7365863745208
 30
0.0
  0
VERTEX
  5
12DE
  8
LAYER01
 62
     7
 10
5455.7612232992096
 20
6839.5262428714632
 30
0.0
  0
VERTEX
  5
12DF
  8
LAYER01
 62
     7
 10
5451.7962805497182
 20
6867.2808421178988
 30
0.0
  0
VERTEX
  5
12E0
  8
LAYER01
 62
     7
 10
5443.8663950507362
 20
6895.0354413643372
 30
0.0
  0
VERTEX
  5
12E1
  8
LAYER01
 62
     7
 10
5443.8663950507362
 20
6926.7549833602607
 30
0.0
  0
VERTEX
  5
12E2
  8
LAYER01
 62
     7
 10
5443.8663950507362
 20
6926.7549833602607
 30
0.0
  0
VERTEX
  5
12E3
  8
LAYER01
 62
     7
 10
5447.8313378002258
 20
6954.5095826066963
 30
0.0
  0
VERTEX
  5
12E4
  8
LAYER01
 62
     7
 10
5451.7962805497182
 20
6982.264181853131
 30
0.0
  0
VERTEX
  5
12E5
  8
LAYER01
 62
     7
 10
5459.7261660486993
 20
7010.0187810995658
 30
0.0
  0
VERTEX
  5
12E6
  8
LAYER01
 62
     7
 10
5467.6560515476813
 20
7037.7733803459996
 30
0.0
  0
VERTEX
  5
12E7
  8
LAYER01
 62
     7
 10
5479.5508797961529
 20
7061.5630368429456
 30
0.0
  0
VERTEX
  5
12E8
  8
LAYER01
 62
     7
 10
5495.410650794116
 20
7085.3526933398889
 30
0.0
  0
VERTEX
  5
12E9
  8
LAYER01
 62
     7
 10
5511.27042179208
 20
7105.1774070873416
 30
0.0
  0
VERTEX
  5
12EA
  8
LAYER01
 62
     7
 10
5531.0951355395327
 20
7125.0021208347962
 30
0.0
  0
VERTEX
  5
12EB
  8
LAYER01
 62
     7
 10
5550.9198492869864
 20
7144.826834582248
 30
0.0
  0
VERTEX
  5
12EC
  8
LAYER01
 62
     7
 10
5570.74456303444
 20
7160.6866055802111
 30
0.0
  0
VERTEX
  5
12ED
  8
LAYER01
 62
     7
 10
5594.5342195313842
 20
7176.5463765781742
 30
0.0
  0
VERTEX
  5
12EE
  8
LAYER01
 62
     7
 10
5622.288818777819
 20
7188.4412048266468
 30
0.0
  0
VERTEX
  5
12EF
  8
LAYER01
 62
     7
 10
5646.0784752747632
 20
7196.3710903256278
 30
0.0
  0
VERTEX
  5
12F0
  8
LAYER01
 62
     7
 10
5673.8330745211979
 20
7204.3009758246117
 30
0.0
  0
VERTEX
  5
12F1
  8
LAYER01
 62
     7
 10
5701.5876737676326
 20
7208.2659185741013
 30
0.0
  0
VERTEX
  5
12F2
  8
LAYER01
 62
     7
 10
5733.3072157635588
 20
7208.2659185741013
 30
0.0
  0
VERTEX
  5
12F3
  8
LAYER01
 62
     7
 10
5733.3072157635588
 20
7208.2659185741013
 30
0.0
  0
VERTEX
  5
12F4
  8
LAYER01
 62
     7
 10
5761.0618150099936
 20
7204.3009758246117
 30
0.0
  0
VERTEX
  5
12F5
  8
LAYER01
 62
     7
 10
5788.8164142564283
 20
7200.3360330751193
 30
0.0
  0
VERTEX
  5
12F6
  8
LAYER01
 62
     7
 10
5812.6060707533707
 20
7192.4061475761382
 30
0.0
  0
VERTEX
  5
12F7
  8
LAYER01
 62
     7
 10
5840.3606699998072
 20
7184.4762620771562
 30
0.0
  0
VERTEX
  5
12F8
  8
LAYER01
 62
     7
 10
5860.1853837472609
 20
7172.5814338286846
 30
0.0
  0
VERTEX
  5
12F9
  8
LAYER01
 62
     7
 10
5883.975040244205
 20
7156.7216628307224
 30
0.0
  0
VERTEX
  5
12FA
  8
LAYER01
 62
     7
 10
5903.7997539916578
 20
7140.8618918327593
 30
0.0
  0
VERTEX
  5
12FB
  8
LAYER01
 62
     7
 10
5923.6244677391132
 20
7125.0021208347962
 30
0.0
  0
VERTEX
  5
12FC
  8
LAYER01
 62
     7
 10
5939.4842387370763
 20
7105.1774070873416
 30
0.0
  0
VERTEX
  5
12FD
  8
LAYER01
 62
     7
 10
5955.3440097350358
 20
7081.3877505903993
 30
0.0
  0
VERTEX
  5
12FE
  8
LAYER01
 62
     7
 10
5971.2037807329998
 20
7061.5630368429456
 30
0.0
  0
VERTEX
  5
12FF
  8
LAYER01
 62
     7
 10
5983.0986089814751
 20
7037.7733803459996
 30
0.0
  0
VERTEX
  5
1300
  8
LAYER01
 62
     7
 10
5991.0284944804544
 20
7010.0187810995658
 30
0.0
  0
VERTEX
  5
1301
  8
LAYER01
 62
     7
 10
5998.9583799794336
 20
6986.2291246026198
 30
0.0
  0
VERTEX
  5
1302
  8
LAYER01
 62
     7
 10
6002.923322728926
 20
6958.4745253561869
 30
0.0
  0
VERTEX
  5
1303
  8
LAYER01
 62
     7
 10
6002.923322728926
 20
6930.7199261097512
 30
0.0
  0
VERTEX
  5
1304
  8
LAYER01
 62
     7
 10
6002.923322728926
 20
6930.7199261097512
 30
0.0
  0
VERTEX
  5
1305
  8
LAYER01
 62
     7
 10
6002.923322728926
 20
6899.0003841138259
 30
0.0
  0
VERTEX
  5
1306
  8
LAYER01
 62
     7
 10
5998.9583799794336
 20
6871.2457848673903
 30
0.0
  0
VERTEX
  5
1307
  8
LAYER01
 62
     7
 10
5994.9934372299449
 20
6843.4911856209546
 30
0.0
  0
VERTEX
  5
1308
  8
LAYER01
 62
     7
 10
5983.0986089814751
 20
6819.7015291240123
 30
0.0
  0
VERTEX
  5
1309
  8
LAYER01
 62
     7
 10
5975.1687234824913
 20
6791.9469298775748
 30
0.0
  0
VERTEX
  5
130A
  8
LAYER01
 62
     7
 10
5959.3089524845291
 20
6768.1572733806324
 30
0.0
  0
VERTEX
  5
130B
  8
LAYER01
 62
     7
 10
5943.449181486566
 20
6744.3676168836892
 30
0.0
  0
VERTEX
  5
130C
  8
LAYER01
 62
     7
 10
5923.6244677391132
 20
6724.5429031362328
 30
0.0
  0
VERTEX
  5
130D
  8
LAYER01
 62
     7
 10
5903.7997539916578
 20
6704.718189388781
 30
0.0
  0
VERTEX
  5
130E
  8
LAYER01
 62
     7
 10
5883.975040244205
 20
6688.8584183908179
 30
0.0
  0
VERTEX
  5
130F
  8
LAYER01
 62
     7
 10
5860.1853837472609
 20
6672.9986473928557
 30
0.0
  0
VERTEX
  5
1310
  8
LAYER01
 62
     7
 10
5836.3957272503194
 20
6661.103819144384
 30
0.0
  0
VERTEX
  5
1311
  8
LAYER01
 62
     7
 10
5808.6411280038801
 20
6653.173933645402
 30
0.0
  0
VERTEX
  5
1312
  8
LAYER01
 62
     7
 10
5780.8865287574472
 20
6645.2440481464209
 30
0.0
  0
VERTEX
  5
1313
  8
LAYER01
 62
     7
 10
5753.1319295110097
 20
6641.2791053969304
 30
0.0
  0
VERTEX
  5
1314
  8
LAYER01
 62
     7
 10
5725.3773302645768
 20
6637.3141626474389
 30
0.0
  0
VERTEX
  5
1315
  8
LAYER01
 62
     7
 10
5725.3773302645768
 20
6637.3141626474389
 30
0.0
  0
SEQEND
  5
1316
  8
LAYER01
 62
     7
  0
POLYLINE
  5
9F5
  8
LAYER01
 62
     7
 66
     1
 10
0.0
 20
0.0
 30
0.0
 70
     1
  0
VERTEX
  5
1317
  8
LAYER01
 62
     7
 10
6042.5727502238333
 20
7351.0038575557674
 30
0.0
  0
VERTEX
  5
1318
  8
LAYER01
 62
     7
 10
6462.8566816698476
 20
7351.0038575557674
 30
0.0
  0
VERTEX
  5
1319
  8
LAYER01
 62
     7
 10
6462.8566816698476
 20
7351.0038575557674
 30
0.0
  0
VERTEX
  5
131A
  8
LAYER01
 62
     7
 10
6510.4359946637369
 20
7343.0739720567844
 30
0.0
  0
VERTEX
  5
131B
  8
LAYER01
 62
     7
 10
6554.0503649081338
 20
7323.2492583093299
 30
0.0
  0
VERTEX
  5
131C
  8
LAYER01
 62
     7
 10
6589.7348496535496
 20
7299.4596018123866
 30
0.0
  0
VERTEX
  5
131D
  8
LAYER01
 62
     7
 10
6621.4543916494758
 20
7267.7400598164604
 30
0.0
  0
VERTEX
  5
131E
  8
LAYER01
 62
     7
 10
6649.2089908959097
 20
7236.0205178205333
 30
0.0
  0
VERTEX
  5
131F
  8
LAYER01
 62
     7
 10
6669.0337046433651
 20
7196.3710903256278
 30
0.0
  0
VERTEX
  5
1320
  8
LAYER01
 62
     7
 10
6680.9285328918368
 20
7148.7917773317413
 30
0.0
  0
VERTEX
  5
1321
  8
LAYER01
 62
     7
 10
6684.8934756413273
 20
7105.1774070873416
 30
0.0
  0
VERTEX
  5
1322
  8
LAYER01
 62
     7
 10
6684.8934756413273
 20
7105.1774070873416
 30
0.0
  0
VERTEX
  5
1323
  8
LAYER01
 62
     7
 10
6680.9285328918368
 20
7057.5980940934542
 30
0.0
  0
VERTEX
  5
1324
  8
LAYER01
 62
     7
 10
6672.9986473928557
 20
7017.948666598546
 30
0.0
  0
VERTEX
  5
1325
  8
LAYER01
 62
     7
 10
6657.1388763948926
 20
6978.2992391036396
 30
0.0
  0
VERTEX
  5
1326
  8
LAYER01
 62
     7
 10
6637.3141626474389
 20
6942.6147543582238
 30
0.0
  0
VERTEX
  5
1327
  8
LAYER01
 62
     7
 10
6609.5595634010042
 20
6910.8952123622976
 30
0.0
  0
VERTEX
  5
1328
  8
LAYER01
 62
     7
 10
6581.8049641545704
 20
6887.1055558653534
 30
0.0
  0
VERTEX
  5
1329
  8
LAYER01
 62
     7
 10
6542.1555366596622
 20
6863.3158993684092
 30
0.0
  0
VERTEX
  5
132A
  8
LAYER01
 62
     7
 10
6502.5061091647531
 20
6847.4561283704461
 30
0.0
  0
VERTEX
  5
132B
  8
LAYER01
 62
     7
 10
6760.2273878816522
 20
6502.5061091647531
 30
0.0
  0
VERTEX
  5
132C
  8
LAYER01
 62
     7
 10
6561.9802504071158
 20
6502.5061091647531
 30
0.0
  0
VERTEX
  5
132D
  8
LAYER01
 62
     7
 10
6217.0302312014246
 20
6942.6147543582238
 30
0.0
  0
VERTEX
  5
132E
  8
LAYER01
 62
     7
 10
6411.3124259264687
 20
6942.6147543582238
 30
0.0
  0
VERTEX
  5
132F
  8
LAYER01
 62
     7
 10
6411.3124259264687
 20
6942.6147543582238
 30
0.0
  0
VERTEX
  5
1330
  8
LAYER01
 62
     7
 10
6435.102082423412
 20
6950.5446398572049
 30
0.0
  0
VERTEX
  5
1331
  8
LAYER01
 62
     7
 10
6454.9267961708647
 20
6958.4745253561869
 30
0.0
  0
VERTEX
  5
1332
  8
LAYER01
 62
     7
 10
6470.7865671688287
 20
6974.334296354149
 30
0.0
  0
VERTEX
  5
1333
  8
LAYER01
 62
     7
 10
6486.6463381667909
 20
6990.1940673521131
 30
0.0
  0
VERTEX
  5
1334
  8
LAYER01
 62
     7
 10
6498.5411664152653
 20
7010.0187810995658
 30
0.0
  0
VERTEX
  5
1335
  8
LAYER01
 62
     7
 10
6510.4359946637369
 20
7029.8434948470176
 30
0.0
  0
VERTEX
  5
1336
  8
LAYER01
 62
     7
 10
6514.4009374132283
 20
7053.6331513439627
 30
0.0
  0
VERTEX
  5
1337
  8
LAYER01
 62
     7
 10
6514.4009374132283
 20
7077.4228078409069
 30
0.0
  0
VERTEX
  5
1338
  8
LAYER01
 62
     7
 10
6514.4009374132283
 20
7077.4228078409069
 30
0.0
  0
VERTEX
  5
1339
  8
LAYER01
 62
     7
 10
6514.4009374132283
 20
7101.212464337852
 30
0.0
  0
VERTEX
  5
133A
  8
LAYER01
 62
     7
 10
6506.4710519142454
 20
7121.0371780853047
 30
0.0
  0
VERTEX
  5
133B
  8
LAYER01
 62
     7
 10
6498.5411664152653
 20
7140.8618918327593
 30
0.0
  0
VERTEX
  5
133C
  8
LAYER01
 62
     7
 10
6486.6463381667909
 20
7160.6866055802111
 30
0.0
  0
VERTEX
  5
133D
  8
LAYER01
 62
     7
 10
6470.7865671688287
 20
7176.5463765781742
 30
0.0
  0
VERTEX
  5
133E
  8
LAYER01
 62
     7
 10
6454.9267961708647
 20
7188.4412048266468
 30
0.0
  0
VERTEX
  5
133F
  8
LAYER01
 62
     7
 10
6431.1371396739214
 20
7200.3360330751193
 30
0.0
  0
VERTEX
  5
1340
  8
LAYER01
 62
     7
 10
6411.3124259264687
 20
7208.2659185741013
 30
0.0
  0
VERTEX
  5
1341
  8
LAYER01
 62
     7
 10
6185.3106892055002
 20
7208.2659185741013
 30
0.0
  0
VERTEX
  5
1342
  8
LAYER01
 62
     7
 10
6042.5727502238333
 20
7351.0038575557674
 30
0.0
  0
VERTEX
  5
1343
  8
LAYER01
 62
     7
 10
6042.5727502238333
 20
7351.0038575557674
 30
0.0
  0
SEQEND
  5
1344
  8
LAYER01
 62
     7
  0
POLYLINE
  5
9F6
  8
LAYER01
 62
     7
 66
     1
 10
0.0
 20
0.0
 30
0.0
 70
     1
  0
VERTEX
  5
1345
  8
LAYER01
 62
     7
 10
6867.2808421178988
 20
7140.8618918327593
 30
0.0
  0
VERTEX
  5
1346
  8
LAYER01
 62
     7
 10
6867.2808421178988
 20
7140.8618918327593
 30
0.0
  0
VERTEX
  5
1347
  8
LAYER01
 62
     7
 10
6887.1055558653534
 20
7144.826834582248
 30
0.0
  0
VERTEX
  5
1348
  8
LAYER01
 62
     7
 10
6906.9302696128061
 20
7148.7917773317413
 30
0.0
  0
VERTEX
  5
1349
  8
LAYER01
 62
     7
 10
6926.7549833602607
 20
7160.6866055802111
 30
0.0
  0
VERTEX
  5
134A
  8
LAYER01
 62
     7
 10
6942.6147543582238
 20
7172.5814338286846
 30
0.0
  0
VERTEX
  5
134B
  8
LAYER01
 62
     7
 10
6954.5095826066963
 20
7188.4412048266468
 30
0.0
  0
VERTEX
  5
134C
  8
LAYER01
 62
     7
 10
6962.4394681056774
 20
7204.3009758246117
 30
0.0
  0
VERTEX
  5
134D
  8
LAYER01
 62
     7
 10
6970.3693536046603
 20
7224.1256895720644
 30
0.0
  0
VERTEX
  5
134E
  8
LAYER01
 62
     7
 10
6970.3693536046603
 20
7247.9153460690077
 30
0.0
  0
VERTEX
  5
134F
  8
LAYER01
 62
     7
 10
6970.3693536046603
 20
7247.9153460690077
 30
0.0
  0
VERTEX
  5
1350
  8
LAYER01
 62
     7
 10
6970.3693536046603
 20
7267.7400598164604
 30
0.0
  0
VERTEX
  5
1351
  8
LAYER01
 62
     7
 10
6962.4394681056774
 20
7287.5647735639131
 30
0.0
  0
VERTEX
  5
1352
  8
LAYER01
 62
     7
 10
6954.5095826066963
 20
7303.4245445618772
 30
0.0
  0
VERTEX
  5
1353
  8
LAYER01
 62
     7
 10
6942.6147543582238
 20
7319.2843155598421
 30
0.0
  0
VERTEX
  5
1354
  8
LAYER01
 62
     7
 10
6926.7549833602607
 20
7331.1791438083146
 30
0.0
  0
VERTEX
  5
1355
  8
LAYER01
 62
     7
 10
6906.9302696128061
 20
7343.0739720567844
 30
0.0
  0
VERTEX
  5
1356
  8
LAYER01
 62
     7
 10
6887.1055558653534
 20
7347.0389148062732
 30
0.0
  0
VERTEX
  5
1357
  8
LAYER01
 62
     7
 10
6867.2808421178988
 20
7351.0038575557674
 30
0.0
  0
VERTEX
  5
1358
  8
LAYER01
 62
     7
 10
6867.2808421178988
 20
7351.0038575557674
 30
0.0
  0
VERTEX
  5
1359
  8
LAYER01
 62
     7
 10
6847.4561283704461
 20
7347.0389148062732
 30
0.0
  0
VERTEX
  5
135A
  8
LAYER01
 62
     7
 10
6827.6314146229952
 20
7343.0739720567844
 30
0.0
  0
VERTEX
  5
135B
  8
LAYER01
 62
     7
 10
6807.8067008755397
 20
7331.1791438083146
 30
0.0
  0
VERTEX
  5
135C
  8
LAYER01
 62
     7
 10
6791.9469298775748
 20
7319.2843155598421
 30
0.0
  0
VERTEX
  5
135D
  8
LAYER01
 62
     7
 10
6780.0521016291041
 20
7303.4245445618772
 30
0.0
  0
VERTEX
  5
135E
  8
LAYER01
 62
     7
 10
6772.122216130123
 20
7287.5647735639131
 30
0.0
  0
VERTEX
  5
135F
  8
LAYER01
 62
     7
 10
6764.1923306311428
 20
7267.7400598164604
 30
0.0
  0
VERTEX
  5
1360
  8
LAYER01
 62
     7
 10
6764.1923306311428
 20
7247.9153460690077
 30
0.0
  0
VERTEX
  5
1361
  8
LAYER01
 62
     7
 10
6764.1923306311428
 20
7247.9153460690077
 30
0.0
  0
VERTEX
  5
1362
  8
LAYER01
 62
     7
 10
6764.1923306311428
 20
7224.1256895720644
 30
0.0
  0
VERTEX
  5
1363
  8
LAYER01
 62
     7
 10
6772.122216130123
 20
7204.3009758246117
 30
0.0
  0
VERTEX
  5
1364
  8
LAYER01
 62
     7
 10
6780.0521016291041
 20
7188.4412048266468
 30
0.0
  0
VERTEX
  5
1365
  8
LAYER01
 62
     7
 10
6791.9469298775748
 20
7172.5814338286846
 30
0.0
  0
VERTEX
  5
1366
  8
LAYER01
 62
     7
 10
6807.8067008755397
 20
7160.6866055802111
 30
0.0
  0
VERTEX
  5
1367
  8
LAYER01
 62
     7
 10
6827.6314146229952
 20
7148.7917773317413
 30
0.0
  0
VERTEX
  5
1368
  8
LAYER01
 62
     7
 10
6847.4561283704461
 20
7144.826834582248
 30
0.0
  0
VERTEX
  5
1369
  8
LAYER01
 62
     7
 10
6867.2808421178988
 20
7140.8618918327593
 30
0.0
  0
VERTEX
  5
136A
  8
LAYER01
 62
     7
 10
6867.2808421178988
 20
7140.8618918327593
 30
0.0
  0
SEQEND
  5
136B
  8
LAYER01
 62
     7
  0
POLYLINE
  5
9F7
  8
LAYER01
 62
     7
 66
     1
 10
0.0
 20
0.0
 30
0.0
 70
     1
  0
VERTEX
  5
136C
  8
LAYER01
 62
     7
 10
6867.2808421178988
 20
7335.1440865578052
 30
0.0
  0
VERTEX
  5
136D
  8
LAYER01
 62
     7
 10
6867.2808421178988
 20
7335.1440865578052
 30
0.0
  0
VERTEX
  5
136E
  8
LAYER01
 62
     7
 10
6883.1406131158628
 20
7331.1791438083146
 30
0.0
  0
VERTEX
  5
136F
  8
LAYER01
 62
     7
 10
6899.0003841138259
 20
7327.2142010588213
 30
0.0
  0
VERTEX
  5
1370
  8
LAYER01
 62
     7
 10
6914.8601551117881
 20
7319.2843155598421
 30
0.0
  0
VERTEX
  5
1371
  8
LAYER01
 62
     7
 10
6926.7549833602607
 20
7307.3894873113659
 30
0.0
  0
VERTEX
  5
1372
  8
LAYER01
 62
     7
 10
6938.6498116087314
 20
7295.4946590628952
 30
0.0
  0
VERTEX
  5
1373
  8
LAYER01
 62
     7
 10
6946.5796971077143
 20
7279.634888064933
 30
0.0
  0
VERTEX
  5
1374
  8
LAYER01
 62
     7
 10
6954.5095826066963
 20
7263.7751170669708
 30
0.0
  0
VERTEX
  5
1375
  8
LAYER01
 62
     7
 10
6954.5095826066963
 20
7247.9153460690077
 30
0.0
  0
VERTEX
  5
1376
  8
LAYER01
 62
     7
 10
6954.5095826066963
 20
7247.9153460690077
 30
0.0
  0
VERTEX
  5
1377
  8
LAYER01
 62
     7
 10
6954.5095826066963
 20
7228.0906323215549
 30
0.0
  0
VERTEX
  5
1378
  8
LAYER01
 62
     7
 10
6946.5796971077143
 20
7212.2308613235937
 30
0.0
  0
VERTEX
  5
1379
  8
LAYER01
 62
     7
 10
6938.6498116087314
 20
7196.3710903256278
 30
0.0
  0
VERTEX
  5
137A
  8
LAYER01
 62
     7
 10
6926.7549833602607
 20
7184.4762620771562
 30
0.0
  0
VERTEX
  5
137B
  8
LAYER01
 62
     7
 10
6914.8601551117881
 20
7172.5814338286846
 30
0.0
  0
VERTEX
  5
137C
  8
LAYER01
 62
     7
 10
6899.0003841138259
 20
7164.6515483297017
 30
0.0
  0
VERTEX
  5
137D
  8
LAYER01
 62
     7
 10
6883.1406131158628
 20
7160.6866055802111
 30
0.0
  0
VERTEX
  5
137E
  8
LAYER01
 62
     7
 10
6867.2808421178988
 20
7160.6866055802111
 30
0.0
  0
VERTEX
  5
137F
  8
LAYER01
 62
     7
 10
6867.2808421178988
 20
7160.6866055802111
 30
0.0
  0
VERTEX
  5
1380
  8
LAYER01
 62
     7
 10
6851.4210711199376
 20
7160.6866055802111
 30
0.0
  0
VERTEX
  5
1381
  8
LAYER01
 62
     7
 10
6831.5963573724839
 20
7164.6515483297017
 30
0.0
  0
VERTEX
  5
1382
  8
LAYER01
 62
     7
 10
6819.7015291240123
 20
7172.5814338286846
 30
0.0
  0
VERTEX
  5
1383
  8
LAYER01
 62
     7
 10
6803.8417581260492
 20
7184.4762620771562
 30
0.0
  0
VERTEX
  5
1384
  8
LAYER01
 62
     7
 10
6795.9118726270653
 20
7196.3710903256278
 30
0.0
  0
VERTEX
  5
1385
  8
LAYER01
 62
     7
 10
6787.9819871280861
 20
7212.2308613235937
 30
0.0
  0
VERTEX
  5
1386
  8
LAYER01
 62
     7
 10
6780.0521016291041
 20
7228.0906323215549
 30
0.0
  0
VERTEX
  5
1387
  8
LAYER01
 62
     7
 10
6780.0521016291041
 20
7247.9153460690077
 30
0.0
  0
VERTEX
  5
1388
  8
LAYER01
 62
     7
 10
6780.0521016291041
 20
7247.9153460690077
 30
0.0
  0
VERTEX
  5
1389
  8
LAYER01
 62
     7
 10
6780.0521016291041
 20
7263.7751170669708
 30
0.0
  0
VERTEX
  5
138A
  8
LAYER01
 62
     7
 10
6787.9819871280861
 20
7279.634888064933
 30
0.0
  0
VERTEX
  5
138B
  8
LAYER01
 62
     7
 10
6795.9118726270653
 20
7295.4946590628952
 30
0.0
  0
VERTEX
  5
138C
  8
LAYER01
 62
     7
 10
6803.8417581260492
 20
7307.3894873113659
 30
0.0
  0
VERTEX
  5
138D
  8
LAYER01
 62
     7
 10
6819.7015291240123
 20
7319.2843155598421
 30
0.0
  0
VERTEX
  5
138E
  8
LAYER01
 62
     7
 10
6831.5963573724839
 20
7327.2142010588213
 30
0.0
  0
VERTEX
  5
138F
  8
LAYER01
 62
     7
 10
6851.4210711199376
 20
7331.1791438083146
 30
0.0
  0
VERTEX
  5
1390
  8
LAYER01
 62
     7
 10
6867.2808421178988
 20
7335.1440865578052
 30
0.0
  0
VERTEX
  5
1391
  8
LAYER01
 62
     7
 10
6867.2808421178988
 20
7335.1440865578052
 30
0.0
  0
SEQEND
  5
1392
  8
LAYER01
 62
     7
  0
POLYLINE
  5
9F8
  8
LAYER01
 62
     7
 66
     1
 10
0.0
 20
0.0
 30
0.0
 70
     1
  0
VERTEX
  5
1393
  8
LAYER01
 62
     7
 10
6883.1406131158628
 20
7239.9854605700248
 30
0.0
  0
VERTEX
  5
1394
  8
LAYER01
 62
     7
 10
6883.1406131158628
 20
7239.9854605700248
 30
0.0
  0
VERTEX
  5
1395
  8
LAYER01
 62
     7
 10
6895.0354413643372
 20
7243.950403319518
 30
0.0
  0
VERTEX
  5
1396
  8
LAYER01
 62
     7
 10
6906.9302696128061
 20
7247.9153460690077
 30
0.0
  0
VERTEX
  5
1397
  8
LAYER01
 62
     7
 10
6914.8601551117881
 20
7259.8101743174784
 30
0.0
  0
VERTEX
  5
1398
  8
LAYER01
 62
     7
 10
6914.8601551117881
 20
7271.705002565951
 30
0.0
  0
VERTEX
  5
1399
  8
LAYER01
 62
     7
 10
6914.8601551117881
 20
7271.705002565951
 30
0.0
  0
VERTEX
  5
139A
  8
LAYER01
 62
     7
 10
6914.8601551117881
 20
7287.5647735639131
 30
0.0
  0
VERTEX
  5
139B
  8
LAYER01
 62
     7
 10
6902.9653268633147
 20
7299.4596018123866
 30
0.0
  0
VERTEX
  5
139C
  8
LAYER01
 62
     7
 10
6891.0704986148439
 20
7303.4245445618772
 30
0.0
  0
VERTEX
  5
139D
  8
LAYER01
 62
     7
 10
6875.2107276168808
 20
7303.4245445618772
 30
0.0
  0
VERTEX
  5
139E
  8
LAYER01
 62
     7
 10
6827.6314146229952
 20
7303.4245445618772
 30
0.0
  0
VERTEX
  5
139F
  8
LAYER01
 62
     7
 10
6827.6314146229952
 20
7188.4412048266468
 30
0.0
  0
VERTEX
  5
13A0
  8
LAYER01
 62
     7
 10
6843.4911856209546
 20
7188.4412048266468
 30
0.0
  0
VERTEX
  5
13A1
  8
LAYER01
 62
     7
 10
6843.4911856209546
 20
7239.9854605700248
 30
0.0
  0
VERTEX
  5
13A2
  8
LAYER01
 62
     7
 10
6867.2808421178988
 20
7239.9854605700248
 30
0.0
  0
VERTEX
  5
13A3
  8
LAYER01
 62
     7
 10
6895.0354413643372
 20
7188.4412048266468
 30
0.0
  0
VERTEX
  5
13A4
  8
LAYER01
 62
     7
 10
6914.8601551117881
 20
7188.4412048266468
 30
0.0
  0
VERTEX
  5
13A5
  8
LAYER01
 62
     7
 10
6883.1406131158628
 20
7239.9854605700248
 30
0.0
  0
VERTEX
  5
13A6
  8
LAYER01
 62
     7
 10
6883.1406131158628
 20
7239.9854605700248
 30
0.0
  0
SEQEND
  5
13A7
  8
LAYER01
 62
     7
  0
POLYLINE
  5
9F9
  8
LAYER01
 62
     7
 66
     1
 10
0.0
 20
0.0
 30
0.0
 70
     1
  0
VERTEX
  5
13A8
  8
LAYER01
 62
     7
 10
6871.2457848673903
 20
7287.5647735639131
 30
0.0
  0
VERTEX
  5
13A9
  8
LAYER01
 62
     7
 10
6871.2457848673903
 20
7287.5647735639131
 30
0.0
  0
VERTEX
  5
13AA
  8
LAYER01
 62
     7
 10
6891.0704986148439
 20
7283.5998308144244
 30
0.0
  0
VERTEX
  5
13AB
  8
LAYER01
 62
     7
 10
6899.0003841138259
 20
7279.634888064933
 30
0.0
  0
VERTEX
  5
13AC
  8
LAYER01
 62
     7
 10
6899.0003841138259
 20
7271.705002565951
 30
0.0
  0
VERTEX
  5
13AD
  8
LAYER01
 62
     7
 10
6899.0003841138259
 20
7271.705002565951
 30
0.0
  0
VERTEX
  5
13AE
  8
LAYER01
 62
     7
 10
6895.0354413643372
 20
7263.7751170669708
 30
0.0
  0
VERTEX
  5
13AF
  8
LAYER01
 62
     7
 10
6887.1055558653534
 20
7259.8101743174784
 30
0.0
  0
VERTEX
  5
13B0
  8
LAYER01
 62
     7
 10
6863.3158993684092
 20
7255.8452315679897
 30
0.0
  0
VERTEX
  5
13B1
  8
LAYER01
 62
     7
 10
6843.4911856209546
 20
7255.8452315679897
 30
0.0
  0
VERTEX
  5
13B2
  8
LAYER01
 62
     7
 10
6843.4911856209546
 20
7287.5647735639131
 30
0.0
  0
VERTEX
  5
13B3
  8
LAYER01
 62
     7
 10
6871.2457848673903
 20
7287.5647735639131
 30
0.0
  0
VERTEX
  5
13B4
  8
LAYER01
 62
     7
 10
6871.2457848673903
 20
7287.5647735639131
 30
0.0
  0
SEQEND
  5
13B5
  8
LAYER01
 62
     7
  0
ENDBLK
  5
9FA
  8
0
 62
     7
  0
ENDSEC
  0
SECTION
  2
ENTITIES
  0
LINE
  5
28E
  8
LAYER01
  6
VERDECKT
 62
     5
 10
-310.16807899999998
 20
992.3044779999999
 30
0.0
 11
-163.7006539999999
 21
845.83705299999986
 31
0.0
  0
DIMENSION
  5
28F
  8
LAYER01
 62
     1
  2
*D2
 10
-369.31554499999999
 20
1034.4813819999999
 30
0.0
 11
-215.51982000000001
 21
1230.7035129999999
 31
0.0
 70
     1
 53
45.0
 13
31.364497
 23
1333.837053
 33
0.0
 14
-318.65336000000002
 24
983.81919700000003
 34
0.0
  0
DIMENSION
  5
290
  8
LAYER01
 62
     1
  2
*D3
 10
4.005392999999998
 20
1561.1961570000001
 30
0.0
 11
-242.21673899999999
 21
1357.4004319999999
 31
0.0
 70
     1
 53
45.0
 13
-318.65336000000002
 23
983.81919700000003
 33
0.0
 14
131.364497
 24
1433.837053
 34
0.0
  0
DIMENSION
  5
291
  8
LAYER01
 62
     1
  2
*D4
 10
-318.61764699999998
 20
579.53341299999977
 30
0.0
 11
131.38235299999999
 21
609.533413
 31
0.0
 13
581.38235299999985
 23
833.83705299999986
 33
0.0
 14
-318.61764699999998
 24
833.83705299999986
 34
0.0
  0
POLYLINE
  5
292
  8
1
  6
CONTINUOUS
 62
     7
 66
     1
 10
0.0
 20
0.0
 30
0.0
 70
     4
  0
VERTEX
  5
293
  8
1
 62
     7
 10
1500.5891300000001
 20
1042.6800599999999
 30
0.0
 70
    16
  0
VERTEX
  5
294
  8
1
 62
     7
 10
1500.5891300000001
 20
1042.6800599999999
 30
0.0
 70
     8
  0
VERTEX
  5
295
  8
1
 62
     7
 10
1500.527012
 20
1043.416976
 30
0.0
 70
     8
  0
VERTEX
  5
296
  8
1
 62
     7
 10
1500.3537080000001
 20
1044.1213499999999
 30
0.0
 70
     8
  0
VERTEX
  5
297
  8
1
 62
     7
 10
1500.08429
 20
1044.7876670000001
 30
0.0
 70
     8
  0
VERTEX
  5
298
  8
1
 62
     7
 10
1499.7338319999999
 20
1045.4104150000001
 30
0.0
 70
     8
  0
VERTEX
  5
299
  8
1
 62
     7
 10
1499.3174079999999
 20
1045.9840810000001
 30
0.0
 70
     8
  0
VERTEX
  5
29A
  8
1
 62
     7
 10
1498.8500899999999
 20
1046.503152
 30
0.0
 70
     8
  0
VERTEX
  5
29B
  8
1
 62
     7
 10
1498.3469520000001
 20
1046.962115
 30
0.0
 70
     8
  0
VERTEX
  5
29C
  8
1
 62
     7
 10
1497.8230679999999
 20
1047.355458
 30
0.0
 70
     8
  0
VERTEX
  5
29D
  8
1
 62
     7
 10
1497.29351
 20
1047.677666
 30
0.0
 70
     8
  0
VERTEX
  5
29E
  8
1
 62
     7
 10
1496.7733519999999
 20
1047.923227
 30
0.0
 70
     8
  0
VERTEX
  5
29F
  8
1
 62
     7
 10
1496.7733519999999
 20
1047.923227
 30
0.0
 70
     8
  0
VERTEX
  5
2A0
  8
1
 62
     7
 10
1496.521467
 20
1048.015999
 30
0.0
 70
     8
  0
VERTEX
  5
2A1
  8
1
 62
     7
 10
1496.277335
 20
1048.0902860000001
 30
0.0
 70
     8
  0
VERTEX
  5
2A2
  8
1
 62
     7
 10
1496.04259
 20
1048.14814
 30
0.0
 70
     8
  0
VERTEX
  5
2A3
  8
1
 62
     7
 10
1495.8188660000001
 20
1048.1916160000001
 30
0.0
 70
     8
  0
VERTEX
  5
2A4
  8
1
 62
     7
 10
1495.607798
 20
1048.222769
 30
0.0
 70
     8
  0
VERTEX
  5
2A5
  8
1
 62
     7
 10
1495.4110209999999
 20
1048.243651
 30
0.0
 70
     8
  0
VERTEX
  5
2A6
  8
1
 62
     7
 10
1495.2301689999999
 20
1048.2563170000001
 30
0.0
 70
     8
  0
VERTEX
  5
2A7
  8
1
 62
     7
 10
1495.0668760000001
 20
1048.2628219999999
 30
0.0
 70
     8
  0
VERTEX
  5
2A8
  8
1
 62
     7
 10
1494.9227760000001
 20
1048.265218
 30
0.0
 70
     8
  0
VERTEX
  5
2A9
  8
1
 62
     7
 10
1494.799505
 20
1048.2655600000001
 30
0.0
 70
     8
  0
VERTEX
  5
2AA
  8
1
 62
     7
 10
1494.799505
 20
1048.2655600000001
 30
0.0
 70
     8
  0
VERTEX
  5
2AB
  8
1
 62
     7
 10
1494.6980490000001
 20
1048.2655600000001
 30
0.0
 70
     8
  0
VERTEX
  5
2AC
  8
1
 62
     7
 10
1494.61681
 20
1048.2655600000001
 30
0.0
 70
     8
  0
VERTEX
  5
2AD
  8
1
 62
     7
 10
1494.553541
 20
1048.2655600000001
 30
0.0
 70
     8
  0
VERTEX
  5
2AE
  8
1
 62
     7
 10
1494.505995
 20
1048.2655600000001
 30
0.0
 70
     8
  0
VERTEX
  5
2AF
  8
1
 62
     7
 10
1494.4719270000001
 20
1048.2655600000001
 30
0.0
 70
     8
  0
VERTEX
  5
2B0
  8
1
 62
     7
 10
1494.4490900000001
 20
1048.2655600000001
 30
0.0
 70
     8
  0
VERTEX
  5
2B1
  8
1
 62
     7
 10
1494.435238
 20
1048.2655600000001
 30
0.0
 70
     8
  0
VERTEX
  5
2B2
  8
1
 62
     7
 10
1494.4281249999999
 20
1048.2655600000001
 30
0.0
 70
     8
  0
VERTEX
  5
2B3
  8
1
 62
     7
 10
1494.425504
 20
1048.2655600000001
 30
0.0
 70
     8
  0
VERTEX
  5
2B4
  8
1
 62
     7
 10
1494.4251300000001
 20
1048.2655600000001
 30
0.0
 70
     8
  0
VERTEX
  5
2B5
  8
1
 62
     7
 10
1494.4251300000001
 20
1048.2655600000001
 30
0.0
 70
     8
  0
VERTEX
  5
2B6
  8
1
 62
     7
 10
1494.4106979999999
 20
1048.2655600000001
 30
0.0
 70
     8
  0
VERTEX
  5
2B7
  8
1
 62
     7
 10
1494.309673
 20
1048.2655600000001
 30
0.0
 70
     8
  0
VERTEX
  5
2B8
  8
1
 62
     7
 10
1494.035464
 20
1048.2655580000001
 30
0.0
 70
     8
  0
VERTEX
  5
2B9
  8
1
 62
     7
 10
1493.501477
 20
1048.2655549999999
 30
0.0
 70
     8
  0
VERTEX
  5
2BA
  8
1
 62
     7
 10
1492.62112
 20
1048.2655500000001
 30
0.0
 70
     8
  0
VERTEX
  5
2BB
  8
1
 62
     7
 10
1491.3078
 20
1048.2655420000001
 30
0.0
 70
     8
  0
VERTEX
  5
2BC
  8
1
 62
     7
 10
1489.474925
 20
1048.2655319999999
 30
0.0
 70
     8
  0
VERTEX
  5
2BD
  8
1
 62
     7
 10
1487.035903
 20
1048.2655179999999
 30
0.0
 70
     8
  0
VERTEX
  5
2BE
  8
1
 62
     7
 10
1483.904141
 20
1048.2655
 30
0.0
 70
     8
  0
VERTEX
  5
2BF
  8
1
 62
     7
 10
1479.9930469999999
 20
1048.2654769999999
 30
0.0
 70
     8
  0
VERTEX
  5
2C0
  8
1
 62
     7
 10
1479.9930469999999
 20
1048.2654769999999
 30
0.0
 70
     8
  0
VERTEX
  5
2C1
  8
1
 62
     7
 10
1475.259323
 20
1048.2654500000001
 30
0.0
 70
     8
  0
VERTEX
  5
2C2
  8
1
 62
     7
 10
1469.83286
 20
1048.265418
 30
0.0
 70
     8
  0
VERTEX
  5
2C3
  8
1
 62
     7
 10
1463.8868419999999
 20
1048.265384
 30
0.0
 70
     8
  0
VERTEX
  5
2C4
  8
1
 62
     7
 10
1457.5944529999999
 20
1048.2653479999999
 30
0.0
 70
     8
  0
VERTEX
  5
2C5
  8
1
 62
     7
 10
1451.12888
 20
1048.26531
 30
0.0
 70
     8
  0
VERTEX
  5
2C6
  8
1
 62
     7
 10
1444.663307
 20
1048.265273
 30
0.0
 70
     8
  0
VERTEX
  5
2C7
  8
1
 62
     7
 10
1438.3709180000001
 20
1048.2652370000001
 30
0.0
 70
     8
  0
VERTEX
  5
2C8
  8
1
 62
     7
 10
1432.4249
 20
1048.265202
 30
0.0
 70
     8
  0
VERTEX
  5
2C9
  8
1
 62
     7
 10
1426.998437
 20
1048.265171
 30
0.0
 70
     8
  0
VERTEX
  5
2CA
  8
1
 62
     7
 10
1422.264713
 20
1048.265144
 30
0.0
 70
     8
  0
VERTEX
  5
2CB
  8
1
 62
     7
 10
1422.264713
 20
1048.265144
 30
0.0
 70
     8
  0
VERTEX
  5
2CC
  8
1
 62
     7
 10
1418.353619
 20
1048.2651209999999
 30
0.0
 70
     8
  0
VERTEX
  5
2CD
  8
1
 62
     7
 10
1415.221857
 20
1048.265103
 30
0.0
 70
     8
  0
VERTEX
  5
2CE
  8
1
 62
     7
 10
1412.782835
 20
1048.265089
 30
0.0
 70
     8
  0
VERTEX
  5
2CF
  8
1
 62
     7
 10
1410.9499599999999
 20
1048.2650779999999
 30
0.0
 70
     8
  0
VERTEX
  5
2D0
  8
1
 62
     7
 10
1409.6366399999999
 20
1048.265071
 30
0.0
 70
     8
  0
VERTEX
  5
2D1
  8
1
 62
     7
 10
1408.7562829999999
 20
1048.2650659999999
 30
0.0
 70
     8
  0
VERTEX
  5
2D2
  8
1
 62
     7
 10
1408.2222959999999
 20
1048.2650630000001
 30
0.0
 70
     8
  0
VERTEX
  5
2D3
  8
1
 62
     7
 10
1407.948087
 20
1048.2650610000001
 30
0.0
 70
     8
  0
VERTEX
  5
2D4
  8
1
 62
     7
 10
1407.8470620000001
 20
1048.2650599999999
 30
0.0
 70
     8
  0
VERTEX
  5
2D5
  8
1
 62
     7
 10
1407.8326300000001
 20
1048.2650599999999
 30
0.0
 70
     8
  0
VERTEX
  5
2D6
  8
1
 62
     7
 10
1407.8326300000001
 20
1048.2650599999999
 30
0.0
 70
     8
  0
VERTEX
  5
2D7
  8
1
 62
     7
 10
1407.832482
 20
1048.2650599999999
 30
0.0
 70
     8
  0
VERTEX
  5
2D8
  8
1
 62
     7
 10
1407.831449
 20
1048.2650599999999
 30
0.0
 70
     8
  0
VERTEX
  5
2D9
  8
1
 62
     7
 10
1407.8286430000001
 20
1048.2650599999999
 30
0.0
 70
     8
  0
VERTEX
  5
2DA
  8
1
 62
     7
 10
1407.823179
 20
1048.2650599999999
 30
0.0
 70
     8
  0
VERTEX
  5
2DB
  8
1
 62
     7
 10
1407.8141720000001
 20
1048.2650599999999
 30
0.0
 70
     8
  0
VERTEX
  5
2DC
  8
1
 62
     7
 10
1407.8007339999999
 20
1048.2650599999999
 30
0.0
 70
     8
  0
VERTEX
  5
2DD
  8
1
 62
     7
 10
1407.78198
 20
1048.2650599999999
 30
0.0
 70
     8
  0
VERTEX
  5
2DE
  8
1
 62
     7
 10
1407.7570250000001
 20
1048.2650599999999
 30
0.0
 70
     8
  0
VERTEX
  5
2DF
  8
1
 62
     7
 10
1407.7249810000001
 20
1048.2650599999999
 30
0.0
 70
     8
  0
VERTEX
  5
2E0
  8
1
 62
     7
 10
1407.6849629999999
 20
1048.2650599999999
 30
0.0
 70
     8
  0
VERTEX
  5
2E1
  8
1
 62
     7
 10
1407.6849629999999
 20
1048.2650599999999
 30
0.0
 70
     8
  0
VERTEX
  5
2E2
  8
1
 62
     7
 10
1407.63636
 20
1048.265226
 30
0.0
 70
     8
  0
VERTEX
  5
2E3
  8
1
 62
     7
 10
1407.579659
 20
1048.266382
 30
0.0
 70
     8
  0
VERTEX
  5
2E4
  8
1
 62
     7
 10
1407.5156199999999
 20
1048.2695220000001
 30
0.0
 70
     8
  0
VERTEX
  5
2E5
  8
1
 62
     7
 10
1407.4450059999999
 20
1048.2756360000001
 30
0.0
 70
     8
  0
VERTEX
  5
2E6
  8
1
 62
     7
 10
1407.3685779999989
 20
1048.285717
 30
0.0
 70
     8
  0
VERTEX
  5
2E7
  8
1
 62
     7
 10
1407.2870969999999
 20
1048.3007540000001
 30
0.0
 70
     8
  0
VERTEX
  5
2E8
  8
1
 62
     7
 10
1407.2013260000001
 20
1048.321741
 30
0.0
 70
     8
  0
VERTEX
  5
2E9
  8
1
 62
     7
 10
1407.1120249999999
 20
1048.3496680000001
 30
0.0
 70
     8
  0
VERTEX
  5
2EA
  8
1
 62
     7
 10
1407.0199560000001
 20
1048.385528
 30
0.0
 70
     8
  0
VERTEX
  5
2EB
  8
1
 62
     7
 10
1406.92588
 20
1048.43031
 30
0.0
 70
     8
  0
VERTEX
  5
2EC
  8
1
 62
     7
 10
1406.92588
 20
1048.43031
 30
0.0
 70
     8
  0
VERTEX
  5
2ED
  8
1
 62
     7
 10
1406.8306219999999
 20
1048.484661
 30
0.0
 70
     8
  0
VERTEX
  5
2EE
  8
1
 62
     7
 10
1406.7352530000001
 20
1048.547834
 30
0.0
 70
     8
  0
VERTEX
  5
2EF
  8
1
 62
     7
 10
1406.6409100000001
 20
1048.618739
 30
0.0
 70
     8
  0
VERTEX
  5
2F0
  8
1
 62
     7
 10
1406.5487270000001
 20
1048.6962820000001
 30
0.0
 70
     8
  0
VERTEX
  5
2F1
  8
1
 62
     7
 10
1406.459838
 20
1048.7793730000001
 30
0.0
 70
     8
  0
VERTEX
  5
2F2
  8
1
 62
     7
 10
1406.37538
 20
1048.8669179999999
 30
0.0
 70
     8
  0
VERTEX
  5
2F3
  8
1
 62
     7
 10
1406.2964870000001
 20
1048.957827
 30
0.0
 70
     8
  0
VERTEX
  5
2F4
  8
1
 62
     7
 10
1406.224293
 20
1049.0510059999999
 30
0.0
 70
     8
  0
VERTEX
  5
2F5
  8
1
 62
     7
 10
1406.1599349999999
 20
1049.1453650000001
 30
0.0
 70
     8
  0
VERTEX
  5
2F6
  8
1
 62
     7
 10
1406.1045469999999
 20
1049.23981
 30
0.0
 70
     8
  0
VERTEX
  5
2F7
  8
1
 62
     7
 10
1406.1045469999999
 20
1049.23981
 30
0.0
 70
     8
  0
VERTEX
  5
2F8
  8
1
 62
     7
 10
1406.058906
 20
1049.3333009999999
 30
0.0
 70
     8
  0
VERTEX
  5
2F9
  8
1
 62
     7
 10
1406.0223590000001
 20
1049.424996
 30
0.0
 70
     8
  0
VERTEX
  5
2FA
  8
1
 62
     7
 10
1405.9938970000001
 20
1049.5141060000001
 30
0.0
 70
     8
  0
VERTEX
  5
2FB
  8
1
 62
     7
 10
1405.9725080000001
 20
1049.5998380000001
 30
0.0
 70
     8
  0
VERTEX
  5
2FC
  8
1
 62
     7
 10
1405.9571820000001
 20
1049.6814039999999
 30
0.0
 70
     8
  0
VERTEX
  5
2FD
  8
1
 62
     7
 10
1405.946909
 20
1049.758012
 30
0.0
 70
     8
  0
VERTEX
  5
2FE
  8
1
 62
     7
 10
1405.9406770000001
 20
1049.8288729999999
 30
0.0
 70
     8
  0
VERTEX
  5
2FF
  8
1
 62
     7
 10
1405.9374769999999
 20
1049.893194
 30
0.0
 70
     8
  0
VERTEX
  5
300
  8
1
 62
     7
 10
1405.9362980000001
 20
1049.9501869999999
 30
0.0
 70
     8
  0
VERTEX
  5
301
  8
1
 62
     7
 10
1405.93613
 20
1049.9990600000001
 30
0.0
 70
     8
  0
VERTEX
  5
302
  8
1
 62
     7
 10
1405.93613
 20
1049.9990600000001
 30
0.0
 70
     8
  0
VERTEX
  5
303
  8
1
 62
     7
 10
1405.93613
 20
1050.0393039999999
 30
0.0
 70
     8
  0
VERTEX
  5
304
  8
1
 62
     7
 10
1405.93613
 20
1050.0715279999999
 30
0.0
 70
     8
  0
VERTEX
  5
305
  8
1
 62
     7
 10
1405.93613
 20
1050.0966249999999
 30
0.0
 70
     8
  0
VERTEX
  5
306
  8
1
 62
     7
 10
1405.93613
 20
1050.1154839999999
 30
0.0
 70
     8
  0
VERTEX
  5
307
  8
1
 62
     7
 10
1405.93613
 20
1050.1289979999999
 30
0.0
 70
     8
  0
VERTEX
  5
308
  8
1
 62
     7
 10
1405.93613
 20
1050.138056
 30
0.0
 70
     8
  0
VERTEX
  5
309
  8
1
 62
     7
 10
1405.93613
 20
1050.1435509999999
 30
0.0
 70
     8
  0
VERTEX
  5
30A
  8
1
 62
     7
 10
1405.93613
 20
1050.1463719999999
 30
0.0
 70
     8
  0
VERTEX
  5
30B
  8
1
 62
     7
 10
1405.93613
 20
1050.147412
 30
0.0
 70
     8
  0
VERTEX
  5
30C
  8
1
 62
     7
 10
1405.93613
 20
1050.1475600000001
 30
0.0
 70
     8
  0
VERTEX
  5
30D
  8
1
 62
     7
 10
1405.93613
 20
1050.1475600000001
 30
0.0
 70
     8
  0
VERTEX
  5
30E
  8
1
 62
     7
 10
1405.93613
 20
1050.1539130000001
 30
0.0
 70
     8
  0
VERTEX
  5
30F
  8
1
 62
     7
 10
1405.9361289999999
 20
1050.1983829999999
 30
0.0
 70
     8
  0
VERTEX
  5
310
  8
1
 62
     7
 10
1405.9361280000001
 20
1050.3190870000001
 30
0.0
 70
     8
  0
VERTEX
  5
311
  8
1
 62
     7
 10
1405.9361249999999
 20
1050.554142
 30
0.0
 70
     8
  0
VERTEX
  5
312
  8
1
 62
     7
 10
1405.9361199999989
 20
1050.9416639999999
 30
0.0
 70
     8
  0
VERTEX
  5
313
  8
1
 62
     7
 10
1405.9361120000001
 20
1051.5197720000001
 30
0.0
 70
     8
  0
VERTEX
  5
314
  8
1
 62
     7
 10
1405.936101
 20
1052.3265819999999
 30
0.0
 70
     8
  0
VERTEX
  5
315
  8
1
 62
     7
 10
1405.936087
 20
1053.4002109999999
 30
0.0
 70
     8
  0
VERTEX
  5
316
  8
1
 62
     7
 10
1405.9360690000001
 20
1054.7787760000001
 30
0.0
 70
     8
  0
VERTEX
  5
317
  8
1
 62
     7
 10
1405.9360469999999
 20
1056.5003939999999
 30
0.0
 70
     8
  0
VERTEX
  5
318
  8
1
 62
     7
 10
1405.9360469999999
 20
1056.5003939999999
 30
0.0
 70
     8
  0
VERTEX
  5
319
  8
1
 62
     7
 10
1405.936019
 20
1058.5841230000001
 30
0.0
 70
     8
  0
VERTEX
  5
31A
  8
1
 62
     7
 10
1405.935988
 20
1060.972788
 30
0.0
 70
     8
  0
VERTEX
  5
31B
  8
1
 62
     7
 10
1405.935954
 20
1063.590156
 30
0.0
 70
     8
  0
VERTEX
  5
31C
  8
1
 62
     7
 10
1405.935917
 20
1066.359991
 30
0.0
 70
     8
  0
VERTEX
  5
31D
  8
1
 62
     7
 10
1405.93588
 20
1069.20606
 30
0.0
 70
     8
  0
VERTEX
  5
31E
  8
1
 62
     7
 10
1405.935843
 20
1072.05213
 30
0.0
 70
     8
  0
VERTEX
  5
31F
  8
1
 62
     7
 10
1405.935806
 20
1074.8219650000001
 30
0.0
 70
     8
  0
VERTEX
  5
320
  8
1
 62
     7
 10
1405.935772
 20
1077.4393319999999
 30
0.0
 70
     8
  0
VERTEX
  5
321
  8
1
 62
     7
 10
1405.935741
 20
1079.827998
 30
0.0
 70
     8
  0
VERTEX
  5
322
  8
1
 62
     7
 10
1405.9357130000001
 20
1081.9117269999999
 30
0.0
 70
     8
  0
VERTEX
  5
323
  8
1
 62
     7
 10
1405.9357130000001
 20
1081.9117269999999
 30
0.0
 70
     8
  0
VERTEX
  5
324
  8
1
 62
     7
 10
1405.9356909999999
 20
1083.633345
 30
0.0
 70
     8
  0
VERTEX
  5
325
  8
1
 62
     7
 10
1405.935673
 20
1085.0119099999999
 30
0.0
 70
     8
  0
VERTEX
  5
326
  8
1
 62
     7
 10
1405.935659
 20
1086.085538
 30
0.0
 70
     8
  0
VERTEX
  5
327
  8
1
 62
     7
 10
1405.9356479999999
 20
1086.8923480000001
 30
0.0
 70
     8
  0
VERTEX
  5
328
  8
1
 62
     7
 10
1405.9356399999999
 20
1087.470456
 30
0.0
 70
     8
  0
VERTEX
  5
329
  8
1
 62
     7
 10
1405.935635
 20
1087.8579789999999
 30
0.0
 70
     8
  0
VERTEX
  5
32A
  8
1
 62
     7
 10
1405.9356319999999
 20
1088.093034
 30
0.0
 70
     8
  0
VERTEX
  5
32B
  8
1
 62
     7
 10
1405.9356310000001
 20
1088.2137379999999
 30
0.0
 70
     8
  0
VERTEX
  5
32C
  8
1
 62
     7
 10
1405.9356299999999
 20
1088.2582070000001
 30
0.0
 70
     8
  0
VERTEX
  5
32D
  8
1
 62
     7
 10
1405.9356299999999
 20
1088.2645600000001
 30
0.0
 70
     8
  0
VERTEX
  5
32E
  8
1
 62
     7
 10
1405.9356299999999
 20
1088.2645600000001
 30
0.0
 70
     8
  0
VERTEX
  5
32F
  8
1
 62
     7
 10
1405.9356299999999
 20
1088.2645600000001
 30
0.0
 70
     8
  0
VERTEX
  5
330
  8
1
 62
     7
 10
1405.9339070000001
 20
1088.2645600000001
 30
0.0
 70
     8
  0
VERTEX
  5
331
  8
1
 62
     7
 10
1405.9218470000001
 20
1088.264561
 30
0.0
 70
     8
  0
VERTEX
  5
332
  8
1
 62
     7
 10
1405.889111
 20
1088.264563
 30
0.0
 70
     8
  0
VERTEX
  5
333
  8
1
 62
     7
 10
1405.8253629999999
 20
1088.2645660000001
 30
0.0
 70
     8
  0
VERTEX
  5
334
  8
1
 62
     7
 10
1405.7202649999999
 20
1088.2645709999999
 30
0.0
 70
     8
  0
VERTEX
  5
335
  8
1
 62
     7
 10
1405.56348
 20
1088.264578
 30
0.0
 70
     8
  0
VERTEX
  5
336
  8
1
 62
     7
 10
1405.34467
 20
1088.2645889999999
 30
0.0
 70
     8
  0
VERTEX
  5
337
  8
1
 62
     7
 10
1405.0534970000001
 20
1088.2646030000001
 30
0.0
 70
     8
  0
VERTEX
  5
338
  8
1
 62
     7
 10
1404.6796240000001
 20
1088.264621
 30
0.0
 70
     8
  0
VERTEX
  5
339
  8
1
 62
     7
 10
1404.2127129999999
 20
1088.2646440000001
 30
0.0
 70
     8
  0
VERTEX
  5
33A
  8
1
 62
     7
 10
1404.2127129999999
 20
1088.2646440000001
 30
0.0
 70
     8
  0
VERTEX
  5
33B
  8
1
 62
     7
 10
1403.6475969999999
 20
1088.2646709999999
 30
0.0
 70
     8
  0
VERTEX
  5
33C
  8
1
 62
     7
 10
1402.9997800000001
 20
1088.2647019999999
 30
0.0
 70
     8
  0
VERTEX
  5
33D
  8
1
 62
     7
 10
1402.2899379999999
 20
1088.264737
 30
0.0
 70
     8
  0
VERTEX
  5
33E
  8
1
 62
     7
 10
1401.5387470000001
 20
1088.2647730000001
 30
0.0
 70
     8
  0
VERTEX
  5
33F
  8
1
 62
     7
 10
1400.7668799999999
 20
1088.2648099999999
 30
0.0
 70
     8
  0
VERTEX
  5
340
  8
1
 62
     7
 10
1399.995013
 20
1088.264848
 30
0.0
 70
     8
  0
VERTEX
  5
341
  8
1
 62
     7
 10
1399.2438219999999
 20
1088.2648839999999
 30
0.0
 70
     8
  0
VERTEX
  5
342
  8
1
 62
     7
 10
1398.5339799999999
 20
1088.2649180000001
 30
0.0
 70
     8
  0
VERTEX
  5
343
  8
1
 62
     7
 10
1397.8861629999999
 20
1088.26495
 30
0.0
 70
     8
  0
VERTEX
  5
344
  8
1
 62
     7
 10
1397.3210469999999
 20
1088.264977
 30
0.0
 70
     8
  0
VERTEX
  5
345
  8
1
 62
     7
 10
1397.3210469999999
 20
1088.264977
 30
0.0
 70
     8
  0
VERTEX
  5
346
  8
1
 62
     7
 10
1396.8541359999999
 20
1088.2650000000001
 30
0.0
 70
     8
  0
VERTEX
  5
347
  8
1
 62
     7
 10
1396.4802629999999
 20
1088.2650180000001
 30
0.0
 70
     8
  0
VERTEX
  5
348
  8
1
 62
     7
 10
1396.1890900000001
 20
1088.265032
 30
0.0
 70
     8
  0
VERTEX
  5
349
  8
1
 62
     7
 10
1395.97028
 20
1088.265042
 30
0.0
 70
     8
  0
VERTEX
  5
34A
  8
1
 62
     7
 10
1395.8134950000001
 20
1088.26505
 30
0.0
 70
     8
  0
VERTEX
  5
34B
  8
1
 62
     7
 10
1395.7083970000001
 20
1088.2650550000001
 30
0.0
 70
     8
  0
VERTEX
  5
34C
  8
1
 62
     7
 10
1395.6446490000001
 20
1088.265058
 30
0.0
 70
     8
  0
VERTEX
  5
34D
  8
1
 62
     7
 10
1395.611913
 20
1088.2650599999999
 30
0.0
 70
     8
  0
VERTEX
  5
34E
  8
1
 62
     7
 10
1395.5998529999999
 20
1088.2650599999999
 30
0.0
 70
     8
  0
VERTEX
  5
34F
  8
1
 62
     7
 10
1395.5981300000001
 20
1088.2650599999999
 30
0.0
 70
     8
  0
VERTEX
  5
350
  8
1
 62
     7
 10
1395.5981300000001
 20
1088.2650599999999
 30
0.0
 70
     8
  0
VERTEX
  5
351
  8
1
 62
     7
 10
1395.5981300000001
 20
1088.2650599999999
 30
0.0
 70
     8
  0
VERTEX
  5
352
  8
1
 62
     7
 10
1395.598137
 20
1088.2566609999999
 30
0.0
 70
     8
  0
VERTEX
  5
353
  8
1
 62
     7
 10
1395.5981870000001
 20
1088.1978690000001
 30
0.0
 70
     8
  0
VERTEX
  5
354
  8
1
 62
     7
 10
1395.5983209999999
 20
1088.03829
 30
0.0
 70
     8
  0
VERTEX
  5
355
  8
1
 62
     7
 10
1395.598583
 20
1087.7275299999999
 30
0.0
 70
     8
  0
VERTEX
  5
356
  8
1
 62
     7
 10
1395.599015
 20
1087.2151960000001
 30
0.0
 70
     8
  0
VERTEX
  5
357
  8
1
 62
     7
 10
1395.5996600000001
 20
1086.4508940000001
 30
0.0
 70
     8
  0
VERTEX
  5
358
  8
1
 62
     7
 10
1395.6005600000001
 20
1085.3842320000001
 30
0.0
 70
     8
  0
VERTEX
  5
359
  8
1
 62
     7
 10
1395.6017569999999
 20
1083.964815
 30
0.0
 70
     8
  0
VERTEX
  5
35A
  8
1
 62
     7
 10
1395.603294
 20
1082.1422500000001
 30
0.0
 70
     8
  0
VERTEX
  5
35B
  8
1
 62
     7
 10
1395.605213
 20
1079.8661440000001
 30
0.0
 70
     8
  0
VERTEX
  5
35C
  8
1
 62
     7
 10
1395.605213
 20
1079.8661440000001
 30
0.0
 70
     8
  0
VERTEX
  5
35D
  8
1
 62
     7
 10
1395.6075370000001
 20
1077.1112989999999
 30
0.0
 70
     8
  0
VERTEX
  5
35E
  8
1
 62
     7
 10
1395.6102000000001
 20
1073.9533060000001
 30
0.0
 70
     8
  0
VERTEX
  5
35F
  8
1
 62
     7
 10
1395.613118
 20
1070.4929529999999
 30
0.0
 70
     8
  0
VERTEX
  5
360
  8
1
 62
     7
 10
1395.616207
 20
1066.831025
 30
0.0
 70
     8
  0
VERTEX
  5
361
  8
1
 62
     7
 10
1395.6193800000001
 20
1063.0683100000001
 30
0.0
 70
     8
  0
VERTEX
  5
362
  8
1
 62
     7
 10
1395.6225529999999
 20
1059.3055959999999
 30
0.0
 70
     8
  0
VERTEX
  5
363
  8
1
 62
     7
 10
1395.625642
 20
1055.6436679999999
 30
0.0
 70
     8
  0
VERTEX
  5
364
  8
1
 62
     7
 10
1395.6285600000001
 20
1052.1833140000001
 30
0.0
 70
     8
  0
VERTEX
  5
365
  8
1
 62
     7
 10
1395.6312230000001
 20
1049.025322
 30
0.0
 70
     8
  0
VERTEX
  5
366
  8
1
 62
     7
 10
1395.6335469999999
 20
1046.270477
 30
0.0
 70
     8
  0
VERTEX
  5
367
  8
1
 62
     7
 10
1395.6335469999999
 20
1046.270477
 30
0.0
 70
     8
  0
VERTEX
  5
368
  8
1
 62
     7
 10
1395.635466
 20
1043.994371
 30
0.0
 70
     8
  0
VERTEX
  5
369
  8
1
 62
     7
 10
1395.637003
 20
1042.1718060000001
 30
0.0
 70
     8
  0
VERTEX
  5
36A
  8
1
 62
     7
 10
1395.6382000000001
 20
1040.752389
 30
0.0
 70
     8
  0
VERTEX
  5
36B
  8
1
 62
     7
 10
1395.6391000000001
 20
1039.6857259999999
 30
0.0
 70
     8
  0
VERTEX
  5
36C
  8
1
 62
     7
 10
1395.6397449999999
 20
1038.921425
 30
0.0
 70
     8
  0
VERTEX
  5
36D
  8
1
 62
     7
 10
1395.640177
 20
1038.409091
 30
0.0
 70
     8
  0
VERTEX
  5
36E
  8
1
 62
     7
 10
1395.640439
 20
1038.0983309999999
 30
0.0
 70
     8
  0
VERTEX
  5
36F
  8
1
 62
     7
 10
1395.6405729999999
 20
1037.938752
 30
0.0
 70
     8
  0
VERTEX
  5
370
  8
1
 62
     7
 10
1395.640623
 20
1037.8799590000001
 30
0.0
 70
     8
  0
VERTEX
  5
371
  8
1
 62
     7
 10
1395.6406300000001
 20
1037.87156
 30
0.0
 70
     8
  0
VERTEX
  5
372
  8
1
 62
     7
 10
1395.6406300000001
 20
1037.87156
 30
0.0
 70
     8
  0
VERTEX
  5
373
  8
1
 62
     7
 10
1395.6406300000001
 20
1037.87156
 30
0.0
 70
     8
  0
VERTEX
  5
374
  8
1
 62
     7
 10
1395.655882
 20
1037.8715649999999
 30
0.0
 70
     8
  0
VERTEX
  5
375
  8
1
 62
     7
 10
1395.762649
 20
1037.8715990000001
 30
0.0
 70
     8
  0
VERTEX
  5
376
  8
1
 62
     7
 10
1396.052445
 20
1037.8716910000001
 30
0.0
 70
     8
  0
VERTEX
  5
377
  8
1
 62
     7
 10
1396.6167849999999
 20
1037.8718699999999
 30
0.0
 70
     8
  0
VERTEX
  5
378
  8
1
 62
     7
 10
1397.547182
 20
1037.8721640000001
 30
0.0
 70
     8
  0
VERTEX
  5
379
  8
1
 62
     7
 10
1398.935152
 20
1037.8726039999999
 30
0.0
 70
     8
  0
VERTEX
  5
37A
  8
1
 62
     7
 10
1400.8722090000001
 20
1037.873218
 30
0.0
 70
     8
  0
VERTEX
  5
37B
  8
1
 62
     7
 10
1403.449867
 20
1037.874035
 30
0.0
 70
     8
  0
VERTEX
  5
37C
  8
1
 62
     7
 10
1406.759642
 20
1037.875084
 30
0.0
 70
     8
  0
VERTEX
  5
37D
  8
1
 62
     7
 10
1410.893047
 20
1037.8763939999999
 30
0.0
 70
     8
  0
VERTEX
  5
37E
  8
1
 62
     7
 10
1410.893047
 20
1037.8763939999999
 30
0.0
 70
     8
  0
VERTEX
  5
37F
  8
1
 62
     7
 10
1415.895839
 20
1037.8779790000001
 30
0.0
 70
     8
  0
VERTEX
  5
380
  8
1
 62
     7
 10
1421.630748
 20
1037.8797959999999
 30
0.0
 70
     8
  0
VERTEX
  5
381
  8
1
 62
     7
 10
1427.9147439999999
 20
1037.8817879999999
 30
0.0
 70
     8
  0
VERTEX
  5
382
  8
1
 62
     7
 10
1434.564797
 20
1037.8838949999999
 30
0.0
 70
     8
  0
VERTEX
  5
383
  8
1
 62
     7
 10
1441.39788
 20
1037.88606
 30
0.0
 70
     8
  0
VERTEX
  5
384
  8
1
 62
     7
 10
1448.230963
 20
1037.888226
 30
0.0
 70
     8
  0
VERTEX
  5
385
  8
1
 62
     7
 10
1454.881016
 20
1037.8903330000001
 30
0.0
 70
     8
  0
VERTEX
  5
386
  8
1
 62
     7
 10
1461.1650119999999
 20
1037.8923239999999
 30
0.0
 70
     8
  0
VERTEX
  5
387
  8
1
 62
     7
 10
1466.8999209999999
 20
1037.8941420000001
 30
0.0
 70
     8
  0
VERTEX
  5
388
  8
1
 62
     7
 10
1471.9027129999999
 20
1037.8957270000001
 30
0.0
 70
     8
  0
VERTEX
  5
389
  8
1
 62
     7
 10
1471.9027129999999
 20
1037.8957270000001
 30
0.0
 70
     8
  0
VERTEX
  5
38A
  8
1
 62
     7
 10
1476.036118
 20
1037.897037
 30
0.0
 70
     8
  0
VERTEX
  5
38B
  8
1
 62
     7
 10
1479.3458929999999
 20
1037.8980859999999
 30
0.0
 70
     8
  0
VERTEX
  5
38C
  8
1
 62
     7
 10
1481.9235510000001
 20
1037.8989019999999
 30
0.0
 70
     8
  0
VERTEX
  5
38D
  8
1
 62
     7
 10
1483.860608
 20
1037.8995159999999
 30
0.0
 70
     8
  0
VERTEX
  5
38E
  8
1
 62
     7
 10
1485.248578
 20
1037.899956
 30
0.0
 70
     8
  0
VERTEX
  5
38F
  8
1
 62
     7
 10
1486.178975
 20
1037.900251
 30
0.0
 70
     8
  0
VERTEX
  5
390
  8
1
 62
     7
 10
1486.7433149999999
 20
1037.9004299999999
 30
0.0
 70
     8
  0
VERTEX
  5
391
  8
1
 62
     7
 10
1487.033111
 20
1037.9005219999999
 30
0.0
 70
     8
  0
VERTEX
  5
392
  8
1
 62
     7
 10
1487.139878
 20
1037.9005549999999
 30
0.0
 70
     8
  0
VERTEX
  5
393
  8
1
 62
     7
 10
1487.1551300000001
 20
1037.90056
 30
0.0
 70
     8
  0
VERTEX
  5
394
  8
1
 62
     7
 10
1487.1551300000001
 20
1037.90056
 30
0.0
 70
     8
  0
VERTEX
  5
395
  8
1
 62
     7
 10
1487.155495
 20
1037.90056
 30
0.0
 70
     8
  0
VERTEX
  5
396
  8
1
 62
     7
 10
1487.1580489999999
 20
1037.90056
 30
0.0
 70
     8
  0
VERTEX
  5
397
  8
1
 62
     7
 10
1487.16498
 20
1037.90056
 30
0.0
 70
     8
  0
VERTEX
  5
398
  8
1
 62
     7
 10
1487.1784789999999
 20
1037.90056
 30
0.0
 70
     8
  0
VERTEX
  5
399
  8
1
 62
     7
 10
1487.200734
 20
1037.90056
 30
0.0
 70
     8
  0
VERTEX
  5
39A
  8
1
 62
     7
 10
1487.2339340000001
 20
1037.90056
 30
0.0
 70
     8
  0
VERTEX
  5
39B
  8
1
 62
     7
 10
1487.280268
 20
1037.90056
 30
0.0
 70
     8
  0
VERTEX
  5
39C
  8
1
 62
     7
 10
1487.3419249999999
 20
1037.90056
 30
0.0
 70
     8
  0
VERTEX
  5
39D
  8
1
 62
     7
 10
1487.4210929999999
 20
1037.90056
 30
0.0
 70
     8
  0
VERTEX
  5
39E
  8
1
 62
     7
 10
1487.519963
 20
1037.90056
 30
0.0
 70
     8
  0
VERTEX
  5
39F
  8
1
 62
     7
 10
1487.519963
 20
1037.90056
 30
0.0
 70
     8
  0
VERTEX
  5
3A0
  8
1
 62
     7
 10
1487.6397830000001
 20
1037.900437
 30
0.0
 70
     8
  0
VERTEX
  5
3A1
  8
1
 62
     7
 10
1487.778045
 20
1037.8995749999999
 30
0.0
 70
     8
  0
VERTEX
  5
3A2
  8
1
 62
     7
 10
1487.931298
 20
1037.8972349999999
 30
0.0
 70
     8
  0
VERTEX
  5
3A3
  8
1
 62
     7
 10
1488.096094
 20
1037.8926779999999
 30
0.0
 70
     8
  0
VERTEX
  5
3A4
  8
1
 62
     7
 10
1488.268984
 20
1037.885164
 30
0.0
 70
     8
  0
VERTEX
  5
3A5
  8
1
 62
     7
 10
1488.4465190000001
 20
1037.8739559999999
 30
0.0
 70
     8
  0
VERTEX
  5
3A6
  8
1
 62
     7
 10
1488.6252500000001
 20
1037.8583140000001
 30
0.0
 70
     8
  0
VERTEX
  5
3A7
  8
1
 62
     7
 10
1488.801729
 20
1037.837499
 30
0.0
 70
     8
  0
VERTEX
  5
3A8
  8
1
 62
     7
 10
1488.972505
 20
1037.810772
 30
0.0
 70
     8
  0
VERTEX
  5
3A9
  8
1
 62
     7
 10
1489.1341299999999
 20
1037.777394
 30
0.0
 70
     8
  0
VERTEX
  5
3AA
  8
1
 62
     7
 10
1489.1341299999999
 20
1037.777394
 30
0.0
 70
     8
  0
VERTEX
  5
3AB
  8
1
 62
     7
 10
1489.2837750000001
 20
1037.7366199999999
 30
0.0
 70
     8
  0
VERTEX
  5
3AC
  8
1
 62
     7
 10
1489.4210869999999
 20
1037.687688
 30
0.0
 70
     8
  0
VERTEX
  5
3AD
  8
1
 62
     7
 10
1489.5463339999999
 20
1037.6298280000001
 30
0.0
 70
     8
  0
VERTEX
  5
3AE
  8
1
 62
     7
 10
1489.6597830000001
 20
1037.562271
 30
0.0
 70
     8
  0
VERTEX
  5
3AF
  8
1
 62
     7
 10
1489.7617029999999
 20
1037.484248
 30
0.0
 70
     8
  0
VERTEX
  5
3B0
  8
1
 62
     7
 10
1489.8523600000001
 20
1037.39499
 30
0.0
 70
     8
  0
VERTEX
  5
3B1
  8
1
 62
     7
 10
1489.932022
 20
1037.293727
 30
0.0
 70
     8
  0
VERTEX
  5
3B2
  8
1
 62
     7
 10
1490.000957
 20
1037.1796919999999
 30
0.0
 70
     8
  0
VERTEX
  5
3B3
  8
1
 62
     7
 10
1490.0594309999999
 20
1037.052115
 30
0.0
 70
     8
  0
VERTEX
  5
3B4
  8
1
 62
     7
 10
1490.1077130000001
 20
1036.9102270000001
 30
0.0
 70
     8
  0
VERTEX
  5
3B5
  8
1
 62
     7
 10
1490.1077130000001
 20
1036.9102270000001
 30
0.0
 70
     8
  0
VERTEX
  5
3B6
  8
1
 62
     7
 10
1490.1462019999999
 20
1036.754013
 30
0.0
 70
     8
  0
VERTEX
  5
3B7
  8
1
 62
     7
 10
1490.175821
 20
1036.586474
 30
0.0
 70
     8
  0
VERTEX
  5
3B8
  8
1
 62
     7
 10
1490.1976279999999
 20
1036.411364
 30
0.0
 70
     8
  0
VERTEX
  5
3B9
  8
1
 62
     7
 10
1490.212677
 20
1036.23244
 30
0.0
 70
     8
  0
VERTEX
  5
3BA
  8
1
 62
     7
 10
1490.2220259999999
 20
1036.0534560000001
 30
0.0
 70
     8
  0
VERTEX
  5
3BB
  8
1
 62
     7
 10
1490.226729
 20
1035.8781670000001
 30
0.0
 70
     8
  0
VERTEX
  5
3BC
  8
1
 62
     7
 10
1490.227844
 20
1035.7103279999999
 30
0.0
 70
     8
  0
VERTEX
  5
3BD
  8
1
 62
     7
 10
1490.2264250000001
 20
1035.553694
 30
0.0
 70
     8
  0
VERTEX
  5
3BE
  8
1
 62
     7
 10
1490.22353
 20
1035.4120190000001
 30
0.0
 70
     8
  0
VERTEX
  5
3BF
  8
1
 62
     7
 10
1490.2202130000001
 20
1035.2890600000001
 30
0.0
 70
     8
  0
VERTEX
  5
3C0
  8
1
 62
     7
 10
1490.2202130000001
 20
1035.2890600000001
 30
0.0
 70
     8
  0
VERTEX
  5
3C1
  8
1
 62
     7
 10
1490.217345
 20
1035.1875709999999
 30
0.0
 70
     8
  0
VERTEX
  5
3C2
  8
1
 62
     7
 10
1490.2150489999999
 20
1035.1063039999999
 30
0.0
 70
     8
  0
VERTEX
  5
3C3
  8
1
 62
     7
 10
1490.21326
 20
1035.0430140000001
 30
0.0
 70
     8
  0
VERTEX
  5
3C4
  8
1
 62
     7
 10
1490.211916
 20
1034.9954519999999
 30
0.0
 70
     8
  0
VERTEX
  5
3C5
  8
1
 62
     7
 10
1490.210953
 20
1034.9613730000001
 30
0.0
 70
     8
  0
VERTEX
  5
3C6
  8
1
 62
     7
 10
1490.2103070000001
 20
1034.9385279999999
 30
0.0
 70
     8
  0
VERTEX
  5
3C7
  8
1
 62
     7
 10
1490.209916
 20
1034.9246720000001
 30
0.0
 70
     8
  0
VERTEX
  5
3C8
  8
1
 62
     7
 10
1490.209715
 20
1034.9175560000001
 30
0.0
 70
     8
  0
VERTEX
  5
3C9
  8
1
 62
     7
 10
1490.2096409999999
 20
1034.914935
 30
0.0
 70
     8
  0
VERTEX
  5
3CA
  8
1
 62
     7
 10
1490.2096300000001
 20
1034.9145599999999
 30
0.0
 70
     8
  0
VERTEX
  5
3CB
  8
1
 62
     7
 10
1490.2096300000001
 20
1034.9145599999999
 30
0.0
 70
     8
  0
VERTEX
  5
3CC
  8
1
 62
     7
 10
1490.209627
 20
1034.9085540000001
 30
0.0
 70
     8
  0
VERTEX
  5
3CD
  8
1
 62
     7
 10
1490.209609
 20
1034.8665109999999
 30
0.0
 70
     8
  0
VERTEX
  5
3CE
  8
1
 62
     7
 10
1490.20956
 20
1034.7523940000001
 30
0.0
 70
     8
  0
VERTEX
  5
3CF
  8
1
 62
     7
 10
1490.2094649999999
 20
1034.530166
 30
0.0
 70
     8
  0
VERTEX
  5
3D0
  8
1
 62
     7
 10
1490.2093070000001
 20
1034.163789
 30
0.0
 70
     8
  0
VERTEX
  5
3D1
  8
1
 62
     7
 10
1490.2090720000001
 20
1033.617227999998
 30
0.0
 70
     8
  0
VERTEX
  5
3D2
  8
1
 62
     7
 10
1490.208744
 20
1032.8544449999999
 30
0.0
 70
     8
  0
VERTEX
  5
3D3
  8
1
 62
     7
 10
1490.2083070000001
 20
1031.8394029999999
 30
0.0
 70
     8
  0
VERTEX
  5
3D4
  8
1
 62
     7
 10
1490.2077469999999
 20
1030.536065
 30
0.0
 70
     8
  0
VERTEX
  5
3D5
  8
1
 62
     7
 10
1490.2070470000001
 20
1028.908394
 30
0.0
 70
     8
  0
VERTEX
  5
3D6
  8
1
 62
     7
 10
1490.2070470000001
 20
1028.908394
 30
0.0
 70
     8
  0
VERTEX
  5
3D7
  8
1
 62
     7
 10
1490.206199
 20
1026.938371
 30
0.0
 70
     8
  0
VERTEX
  5
3D8
  8
1
 62
     7
 10
1490.205228
 20
1024.6800519999999
 30
0.0
 70
     8
  0
VERTEX
  5
3D9
  8
1
 62
     7
 10
1490.204164
 20
1022.205512
 30
0.0
 70
     8
  0
VERTEX
  5
3DA
  8
1
 62
     7
 10
1490.203037
 20
1019.586823
 30
0.0
 70
     8
  0
VERTEX
  5
3DB
  8
1
 62
     7
 10
1490.2018800000001
 20
1016.89606
 30
0.0
 70
     8
  0
VERTEX
  5
3DC
  8
1
 62
     7
 10
1490.2007229999999
 20
1014.205298
 30
0.0
 70
     8
  0
VERTEX
  5
3DD
  8
1
 62
     7
 10
1490.1995959999999
 20
1011.586609
 30
0.0
 70
     8
  0
VERTEX
  5
3DE
  8
1
 62
     7
 10
1490.1985319999999
 20
1009.112068
 30
0.0
 70
     8
  0
VERTEX
  5
3DF
  8
1
 62
     7
 10
1490.197561
 20
1006.85375
 30
0.0
 70
     8
  0
VERTEX
  5
3E0
  8
1
 62
     7
 10
1490.196713
 20
1004.883727
 30
0.0
 70
     8
  0
VERTEX
  5
3E1
  8
1
 62
     7
 10
1490.196713
 20
1004.883727
 30
0.0
 70
     8
  0
VERTEX
  5
3E2
  8
1
 62
     7
 10
1490.196013
 20
1003.2560559999999
 30
0.0
 70
     8
  0
VERTEX
  5
3E3
  8
1
 62
     7
 10
1490.195453
 20
1001.952718
 30
0.0
 70
     8
  0
VERTEX
  5
3E4
  8
1
 62
     7
 10
1490.1950159999999
 20
1000.937675
 30
0.0
 70
     8
  0
VERTEX
  5
3E5
  8
1
 62
     7
 10
1490.194688
 20
1000.174892
 30
0.0
 70
     8
  0
VERTEX
  5
3E6
  8
1
 62
     7
 10
1490.1944530000001
 20
999.628331
 30
0.0
 70
     8
  0
VERTEX
  5
3E7
  8
1
 62
     7
 10
1490.194295
 20
999.26195499999983
 30
0.0
 70
     8
  0
VERTEX
  5
3E8
  8
1
 62
     7
 10
1490.1941999999999
 20
999.03972699999997
 30
0.0
 70
     8
  0
VERTEX
  5
3E9
  8
1
 62
     7
 10
1490.1941509999999
 20
998.92561000000001
 30
0.0
 70
     8
  0
VERTEX
  5
3EA
  8
1
 62
     7
 10
1490.194133
 20
998.88356599999986
 30
0.0
 70
     8
  0
VERTEX
  5
3EB
  8
1
 62
     7
 10
1490.1941300000001
 20
998.87756000000002
 30
0.0
 70
     8
  0
VERTEX
  5
3EC
  8
1
 62
     7
 10
1490.1941300000001
 20
998.87756000000002
 30
0.0
 70
     8
  0
VERTEX
  5
3ED
  8
1
 62
     7
 10
1490.194409
 20
998.87414699999999
 30
0.0
 70
     8
  0
VERTEX
  5
3EE
  8
1
 62
     7
 10
1490.196365
 20
998.85025099999996
 30
0.0
 70
     8
  0
VERTEX
  5
3EF
  8
1
 62
     7
 10
1490.2016739999999
 20
998.785391
 30
0.0
 70
     8
  0
VERTEX
  5
3F0
  8
1
 62
     7
 10
1490.2120130000001
 20
998.65908599999989
 30
0.0
 70
     8
  0
VERTEX
  5
3F1
  8
1
 62
     7
 10
1490.229057
 20
998.45085200000005
 30
0.0
 70
     8
  0
VERTEX
  5
3F2
  8
1
 62
     7
 10
1490.254484
 20
998.14020800000003
 30
0.0
 70
     8
  0
VERTEX
  5
3F3
  8
1
 62
     7
 10
1490.28997
 20
997.70667300000002
 30
0.0
 70
     8
  0
VERTEX
  5
3F4
  8
1
 62
     7
 10
1490.3371910000001
 20
997.12976300000003
 30
0.0
 70
     8
  0
VERTEX
  5
3F5
  8
1
 62
     7
 10
1490.397825
 20
996.38899700000002
 30
0.0
 70
     8
  0
VERTEX
  5
3F6
  8
1
 62
     7
 10
1490.4735470000001
 20
995.46389399999998
 30
0.0
 70
     8
  0
VERTEX
  5
3F7
  8
1
 62
     7
 10
1490.4735470000001
 20
995.46389399999998
 30
0.0
 70
     8
  0
VERTEX
  5
3F8
  8
1
 62
     7
 10
1490.563905
 20
994.34180100000003
 30
0.0
 70
     8
  0
VERTEX
  5
3F9
  8
1
 62
     7
 10
1490.659934
 20
993.04139399999985
 30
0.0
 70
     8
  0
VERTEX
  5
3FA
  8
1
 62
     7
 10
1490.7505389999999
 20
991.58917599999995
 30
0.0
 70
     8
  0
VERTEX
  5
3FB
  8
1
 62
     7
 10
1490.824625
 20
990.01165400000002
 30
0.0
 70
     8
  0
VERTEX
  5
3FC
  8
1
 62
     7
 10
1490.871099
 20
988.335331
 30
0.0
 70
     8
  0
VERTEX
  5
3FD
  8
1
 62
     7
 10
1490.8788649999999
 20
986.58671400000003
 30
0.0
 70
     8
  0
VERTEX
  5
3FE
  8
1
 62
     7
 10
1490.8368290000001
 20
984.79230600000005
 30
0.0
 70
     8
  0
VERTEX
  5
3FF
  8
1
 62
     7
 10
1490.733896
 20
982.97861399999988
 30
0.0
 70
     8
  0
VERTEX
  5
400
  8
1
 62
     7
 10
1490.558972
 20
981.17214100000001
 30
0.0
 70
     8
  0
VERTEX
  5
401
  8
1
 62
     7
 10
1490.3009629999999
 20
979.39939400000003
 30
0.0
 70
     8
  0
VERTEX
  5
402
  8
1
 62
     7
 10
1490.3009629999999
 20
979.39939400000003
 30
0.0
 70
     8
  0
VERTEX
  5
403
  8
1
 62
     7
 10
1489.958296
 20
977.68189500000005
 30
0.0
 70
     8
  0
VERTEX
  5
404
  8
1
 62
     7
 10
1489.567483
 20
976.02124400000002
 30
0.0
 70
     8
  0
VERTEX
  5
405
  8
1
 62
     7
 10
1489.174561
 20
974.41405699999984
 30
0.0
 70
     8
  0
VERTEX
  5
406
  8
1
 62
     7
 10
1488.8255630000001
 20
972.85695399999963
 30
0.0
 70
     8
  0
VERTEX
  5
407
  8
1
 62
     7
 10
1488.5665260000001
 20
971.34654999999975
 30
0.0
 70
     8
  0
VERTEX
  5
408
  8
1
 62
     7
 10
1488.443483
 20
969.87946399999998
 30
0.0
 70
     8
  0
VERTEX
  5
409
  8
1
 62
     7
 10
1488.502471
 20
968.45231199999989
 30
0.0
 70
     8
  0
VERTEX
  5
40A
  8
1
 62
     7
 10
1488.7895229999999
 20
967.06171400000005
 30
0.0
 70
     8
  0
VERTEX
  5
40B
  8
1
 62
     7
 10
1489.350676
 20
965.70428499999991
 30
0.0
 70
     8
  0
VERTEX
  5
40C
  8
1
 62
     7
 10
1490.231963
 20
964.37664400000006
 30
0.0
 70
     8
  0
VERTEX
  5
40D
  8
1
 62
     7
 10
1490.231963
 20
964.37664400000006
 30
0.0
 70
     8
  0
VERTEX
  5
40E
  8
1
 62
     7
 10
1491.4608330000001
 20
963.07750099999998
 30
0.0
 70
     8
  0
VERTEX
  5
40F
  8
1
 62
     7
 10
1492.99038
 20
961.81394099999989
 30
0.0
 70
     8
  0
VERTEX
  5
410
  8
1
 62
     7
 10
1494.7551120000001
 20
960.59514200000001
 30
0.0
 70
     8
  0
VERTEX
  5
411
  8
1
 62
     7
 10
1496.689537
 20
959.43028200000015
 30
0.0
 70
     8
  0
VERTEX
  5
412
  8
1
 62
     7
 10
1498.728161
 20
958.32853899999998
 30
0.0
 70
     8
  0
VERTEX
  5
413
  8
1
 62
     7
 10
1500.8054930000001
 20
957.29909199999997
 30
0.0
 70
     8
  0
VERTEX
  5
414
  8
1
 62
     7
 10
1502.8560399999999
 20
956.35111699999993
 30
0.0
 70
     8
  0
VERTEX
  5
415
  8
1
 62
     7
 10
1504.81431
 20
955.49379299999987
 30
0.0
 70
     8
  0
VERTEX
  5
416
  8
1
 62
     7
 10
1506.61481
 20
954.73629800000003
 30
0.0
 70
     8
  0
VERTEX
  5
417
  8
1
 62
     7
 10
1508.192047
 20
954.08780999999999
 30
0.0
 70
     8
  0
VERTEX
  5
418
  8
1
 62
     7
 10
1508.192047
 20
954.08780999999999
 30
0.0
 70
     8
  0
VERTEX
  5
419
  8
1
 62
     7
 10
1509.4964359999999
 20
953.55393399999991
 30
0.0
 70
     8
  0
VERTEX
  5
41A
  8
1
 62
     7
 10
1510.542025
 20
953.12598400000002
 30
0.0
 70
     8
  0
VERTEX
  5
41B
  8
1
 62
     7
 10
1511.3587669999999
 20
952.791698
 30
0.0
 70
     8
  0
VERTEX
  5
41C
  8
1
 62
     7
 10
1511.9766159999999
 20
952.53881699999988
 30
0.0
 70
     8
  0
VERTEX
  5
41D
  8
1
 62
     7
 10
1512.425526
 20
952.35508100000015
 30
0.0
 70
     8
  0
VERTEX
  5
41E
  8
1
 62
     7
 10
1512.735451
 20
952.22823000000005
 30
0.0
 70
     8
  0
VERTEX
  5
41F
  8
1
 62
     7
 10
1512.936344
 20
952.14600399999995
 30
0.0
 70
     8
  0
VERTEX
  5
420
  8
1
 62
     7
 10
1513.0581609999999
 20
952.09614399999998
 30
0.0
 70
     8
  0
VERTEX
  5
421
  8
1
 62
     7
 10
1513.1308550000001
 20
952.06638799999985
 30
0.0
 70
     8
  0
VERTEX
  5
422
  8
1
 62
     7
 10
1513.1843799999999
 20
952.04447700000014
 30
0.0
 70
     8
  0
VERTEX
  5
423
  8
1
 62
     7
 10
1513.1843799999999
 20
952.04447700000014
 30
0.0
 70
     8
  0
VERTEX
  5
424
  8
1
 62
     7
 10
1513.2437190000001
 20
952.02013999999986
 30
0.0
 70
     8
  0
VERTEX
  5
425
  8
1
 62
     7
 10
1513.3139699999999
 20
951.99106400000005
 30
0.0
 70
     8
  0
VERTEX
  5
426
  8
1
 62
     7
 10
1513.3952609999999
 20
951.95692199999985
 30
0.0
 70
     8
  0
VERTEX
  5
427
  8
1
 62
     7
 10
1513.4877200000001
 20
951.91738999999995
 30
0.0
 70
     8
  0
VERTEX
  5
428
  8
1
 62
     7
 10
1513.5914740000001
 20
951.87214400000005
 30
0.0
 70
     8
  0
VERTEX
  5
429
  8
1
 62
     7
 10
1513.7066500000001
 20
951.82085700000005
 30
0.0
 70
     8
  0
VERTEX
  5
42A
  8
1
 62
     7
 10
1513.833376
 20
951.76320499999986
 30
0.0
 70
     8
  0
VERTEX
  5
42B
  8
1
 62
     7
 10
1513.9717800000001
 20
951.69886399999984
 30
0.0
 70
     8
  0
VERTEX
  5
42C
  8
1
 62
     7
 10
1514.121989
 20
951.62750700000004
 30
0.0
 70
     8
  0
VERTEX
  5
42D
  8
1
 62
     7
 10
1514.28413
 20
951.54881
 30
0.0
 70
     8
  0
VERTEX
  5
42E
  8
1
 62
     7
 10
1514.28413
 20
951.54881
 30
0.0
 70
     8
  0
VERTEX
  5
42F
  8
1
 62
     7
 10
1514.4578550000001
 20
951.46265500000004
 30
0.0
 70
     8
  0
VERTEX
  5
430
  8
1
 62
     7
 10
1514.640909
 20
951.36974999999995
 30
0.0
 70
     8
  0
VERTEX
  5
431
  8
1
 62
     7
 10
1514.8305600000001
 20
951.27100800000005
 30
0.0
 70
     8
  0
VERTEX
  5
432
  8
1
 62
     7
 10
1515.0240789999989
 20
951.16734499999995
 30
0.0
 70
     8
  0
VERTEX
  5
433
  8
1
 62
     7
 10
1515.218734
 20
951.05967499999986
 30
0.0
 70
     8
  0
VERTEX
  5
434
  8
1
 62
     7
 10
1515.4117940000001
 20
950.94891199999995
 30
0.0
 70
     8
  0
VERTEX
  5
435
  8
1
 62
     7
 10
1515.6005279999999
 20
950.83597199999986
 30
0.0
 70
     8
  0
VERTEX
  5
436
  8
1
 62
     7
 10
1515.782205
 20
950.721768
 30
0.0
 70
     8
  0
VERTEX
  5
437
  8
1
 62
     7
 10
1515.9540930000001
 20
950.60721499999988
 30
0.0
 70
     8
  0
VERTEX
  5
438
  8
1
 62
     7
 10
1516.1134629999999
 20
950.49322700000005
 30
0.0
 70
     8
  0
VERTEX
  5
439
  8
1
 62
     7
 10
1516.1134629999999
 20
950.49322700000005
 30
0.0
 70
     8
  0
VERTEX
  5
43A
  8
1
 62
     7
 10
1516.2581660000001
 20
950.38071899999989
 30
0.0
 70
     8
  0
VERTEX
  5
43B
  8
1
 62
     7
 10
1516.3883840000001
 20
950.27060299999982
 30
0.0
 70
     8
  0
VERTEX
  5
43C
  8
1
 62
     7
 10
1516.5048830000001
 20
950.16379099999995
 30
0.0
 70
     8
  0
VERTEX
  5
43D
  8
1
 62
     7
 10
1516.6084289999999
 20
950.06119499999988
 30
0.0
 70
     8
  0
VERTEX
  5
43E
  8
1
 62
     7
 10
1516.6997859999999
 20
949.96372699999995
 30
0.0
 70
     8
  0
VERTEX
  5
43F
  8
1
 62
     7
 10
1516.7797210000001
 20
949.872299
 30
0.0
 70
     8
  0
VERTEX
  5
440
  8
1
 62
     7
 10
1516.848999
 20
949.78782299999989
 30
0.0
 70
     8
  0
VERTEX
  5
441
  8
1
 62
     7
 10
1516.9083860000001
 20
949.71121100000005
 30
0.0
 70
     8
  0
VERTEX
  5
442
  8
1
 62
     7
 10
1516.9586469999999
 20
949.64337499999988
 30
0.0
 70
     8
  0
VERTEX
  5
443
  8
1
 62
     7
 10
1517.0005470000001
 20
949.58522699999958
 30
0.0
 70
     8
  0
VERTEX
  5
444
  8
1
 62
     7
 10
1517.0005470000001
 20
949.58522699999958
 30
0.0
 70
     8
  0
VERTEX
  5
445
  8
1
 62
     7
 10
1517.0348509999999
 20
949.53734999999995
 30
0.0
 70
     8
  0
VERTEX
  5
446
  8
1
 62
     7
 10
1517.0623189999999
 20
949.49901399999999
 30
0.0
 70
     8
  0
VERTEX
  5
447
  8
1
 62
     7
 10
1517.0837120000001
 20
949.469157
 30
0.0
 70
     8
  0
VERTEX
  5
448
  8
1
 62
     7
 10
1517.099788
 20
949.44671999999969
 30
0.0
 70
     8
  0
VERTEX
  5
449
  8
1
 62
     7
 10
1517.1113069999999
 20
949.43064400000003
 30
0.0
 70
     8
  0
VERTEX
  5
44A
  8
1
 62
     7
 10
1517.119029
 20
949.41986699999995
 30
0.0
 70
     8
  0
VERTEX
  5
44B
  8
1
 62
     7
 10
1517.1237120000001
 20
949.41333000000009
 30
0.0
 70
     8
  0
VERTEX
  5
44C
  8
1
 62
     7
 10
1517.126117
 20
949.40997400000015
 30
0.0
 70
     8
  0
VERTEX
  5
44D
  8
1
 62
     7
 10
1517.1270030000001
 20
949.40873699999997
 30
0.0
 70
     8
  0
VERTEX
  5
44E
  8
1
 62
     7
 10
1517.1271300000001
 20
949.40855999999997
 30
0.0
 70
     8
  0
VERTEX
  5
44F
  8
1
 62
     7
 10
1517.1271300000001
 20
949.40855999999997
 30
0.0
 70
     8
  0
VERTEX
  5
450
  8
1
 62
     7
 10
1517.1284330000001
 20
949.4067409999999
 30
0.0
 70
     8
  0
VERTEX
  5
451
  8
1
 62
     7
 10
1517.1375579999999
 20
949.39400399999965
 30
0.0
 70
     8
  0
VERTEX
  5
452
  8
1
 62
     7
 10
1517.1623239999999
 20
949.35943199999986
 30
0.0
 70
     8
  0
VERTEX
  5
453
  8
1
 62
     7
 10
1517.210554
 20
949.29210699999987
 30
0.0
 70
     8
  0
VERTEX
  5
454
  8
1
 62
     7
 10
1517.2900669999999
 20
949.18111199999987
 30
0.0
 70
     8
  0
VERTEX
  5
455
  8
1
 62
     7
 10
1517.408686
 20
949.0155299999999
 30
0.0
 70
     8
  0
VERTEX
  5
456
  8
1
 62
     7
 10
1517.5742299999999
 20
948.78444300000001
 30
0.0
 70
     8
  0
VERTEX
  5
457
  8
1
 62
     7
 10
1517.7945219999999
 20
948.47693399999991
 30
0.0
 70
     8
  0
VERTEX
  5
458
  8
1
 62
     7
 10
1518.0773810000001
 20
948.0820839999999
 30
0.0
 70
     8
  0
VERTEX
  5
459
  8
1
 62
     7
 10
1518.4306300000001
 20
947.588977
 30
0.0
 70
     8
  0
VERTEX
  5
45A
  8
1
 62
     7
 10
1518.4306300000001
 20
947.588977
 30
0.0
 70
     8
  0
VERTEX
  5
45B
  8
1
 62
     7
 10
1518.858178
 20
946.99215399999991
 30
0.0
 70
     8
  0
VERTEX
  5
45C
  8
1
 62
     7
 10
1519.3482939999999
 20
946.30799000000002
 30
0.0
 70
     8
  0
VERTEX
  5
45D
  8
1
 62
     7
 10
1519.8853360000001
 20
945.5583220000002
 30
0.0
 70
     8
  0
VERTEX
  5
45E
  8
1
 62
     7
 10
1520.4536619999999
 20
944.76498400000003
 30
0.0
 70
     8
  0
VERTEX
  5
45F
  8
1
 62
     7
 10
1521.03763
 20
943.94980999999996
 30
0.0
 70
     8
  0
VERTEX
  5
460
  8
1
 62
     7
 10
1521.6215979999999
 20
943.13463699999966
 30
0.0
 70
     8
  0
VERTEX
  5
461
  8
1
 62
     7
 10
1522.189924
 20
942.34129900000005
 30
0.0
 70
     8
  0
VERTEX
  5
462
  8
1
 62
     7
 10
1522.7269659999999
 20
941.59163000000012
 30
0.0
 70
     8
  0
VERTEX
  5
463
  8
1
 62
     7
 10
1523.2170819999999
 20
940.907467
 30
0.0
 70
     8
  0
VERTEX
  5
464
  8
1
 62
     7
 10
1523.64463
 20
940.31064400000002
 30
0.0
 70
     8
  0
VERTEX
  5
465
  8
1
 62
     7
 10
1523.64463
 20
940.31064400000002
 30
0.0
 70
     8
  0
VERTEX
  5
466
  8
1
 62
     7
 10
1523.9978779999999
 20
939.81753699999979
 30
0.0
 70
     8
  0
VERTEX
  5
467
  8
1
 62
     7
 10
1524.2807379999999
 20
939.42268699999966
 30
0.0
 70
     8
  0
VERTEX
  5
468
  8
1
 62
     7
 10
1524.501029
 20
939.11517699999979
 30
0.0
 70
     8
  0
VERTEX
  5
469
  8
1
 62
     7
 10
1524.6665740000001
 20
938.8840899999999
 30
0.0
 70
     8
  0
VERTEX
  5
46A
  8
1
 62
     7
 10
1524.7851920000001
 20
938.71850800000004
 30
0.0
 70
     8
  0
VERTEX
  5
46B
  8
1
 62
     7
 10
1524.8647060000001
 20
938.60751400000004
 30
0.0
 70
     8
  0
VERTEX
  5
46C
  8
1
 62
     7
 10
1524.9129350000001
 20
938.54018900000005
 30
0.0
 70
     8
  0
VERTEX
  5
46D
  8
1
 62
     7
 10
1524.9377019999999
 20
938.50561700000003
 30
0.0
 70
     8
  0
VERTEX
  5
46E
  8
1
 62
     7
 10
1524.9468260000001
 20
938.49288000000001
 30
0.0
 70
     8
  0
VERTEX
  5
46F
  8
1
 62
     7
 10
1524.94813
 20
938.49105999999995
 30
0.0
 70
     8
  0
VERTEX
  5
470
  8
1
 62
     7
 10
1524.94813
 20
938.49105999999995
 30
0.0
 70
     8
  0
VERTEX
  5
471
  8
1
 62
     7
 10
1524.94813
 20
938.49105999999995
 30
0.0
 70
     8
  0
VERTEX
  5
472
  8
1
 62
     7
 10
1524.9492849999999
 20
938.49105999999995
 30
0.0
 70
     8
  0
VERTEX
  5
473
  8
1
 62
     7
 10
1524.957373
 20
938.49105999999995
 30
0.0
 70
     8
  0
VERTEX
  5
474
  8
1
 62
     7
 10
1524.9793239999999
 20
938.49105999999995
 30
0.0
 70
     8
  0
VERTEX
  5
475
  8
1
 62
     7
 10
1525.0220710000001
 20
938.49105999999995
 30
0.0
 70
     8
  0
VERTEX
  5
476
  8
1
 62
     7
 10
1525.092547
 20
938.49105999999995
 30
0.0
 70
     8
  0
VERTEX
  5
477
  8
1
 62
     7
 10
1525.197682
 20
938.49105999999995
 30
0.0
 70
     8
  0
VERTEX
  5
478
  8
1
 62
     7
 10
1525.344409
 20
938.49105999999995
 30
0.0
 70
     8
  0
VERTEX
  5
479
  8
1
 62
     7
 10
1525.539661
 20
938.49105999999995
 30
0.0
 70
     8
  0
VERTEX
  5
47A
  8
1
 62
     7
 10
1525.7903679999999
 20
938.49105999999995
 30
0.0
 70
     8
  0
VERTEX
  5
47B
  8
1
 62
     7
 10
1526.1034629999999
 20
938.49105999999995
 30
0.0
 70
     8
  0
VERTEX
  5
47C
  8
1
 62
     7
 10
1526.1034629999999
 20
938.49105999999995
 30
0.0
 70
     8
  0
VERTEX
  5
47D
  8
1
 62
     7
 10
1526.482413
 20
938.49105999999995
 30
0.0
 70
     8
  0
VERTEX
  5
47E
  8
1
 62
     7
 10
1526.9168179999999
 20
938.49105999999995
 30
0.0
 70
     8
  0
VERTEX
  5
47F
  8
1
 62
     7
 10
1527.3928149999999
 20
938.49105999999995
 30
0.0
 70
     8
  0
VERTEX
  5
480
  8
1
 62
     7
 10
1527.8965410000001
 20
938.49105999999995
 30
0.0
 70
     8
  0
VERTEX
  5
481
  8
1
 62
     7
 10
1528.4141299999999
 20
938.49105999999995
 30
0.0
 70
     8
  0
VERTEX
  5
482
  8
1
 62
     7
 10
1528.9317189999999
 20
938.49105999999995
 30
0.0
 70
     8
  0
VERTEX
  5
483
  8
1
 62
     7
 10
1529.4354450000001
 20
938.49105999999995
 30
0.0
 70
     8
  0
VERTEX
  5
484
  8
1
 62
     7
 10
1529.9114420000001
 20
938.49105999999995
 30
0.0
 70
     8
  0
VERTEX
  5
485
  8
1
 62
     7
 10
1530.345847
 20
938.49105999999995
 30
0.0
 70
     8
  0
VERTEX
  5
486
  8
1
 62
     7
 10
1530.7247970000001
 20
938.49105999999995
 30
0.0
 70
     8
  0
VERTEX
  5
487
  8
1
 62
     7
 10
1530.7247970000001
 20
938.49105999999995
 30
0.0
 70
     8
  0
VERTEX
  5
488
  8
1
 62
     7
 10
1531.0378920000001
 20
938.49105999999995
 30
0.0
 70
     8
  0
VERTEX
  5
489
  8
1
 62
     7
 10
1531.288599
 20
938.49105999999995
 30
0.0
 70
     8
  0
VERTEX
  5
48A
  8
1
 62
     7
 10
1531.483851
 20
938.49105999999995
 30
0.0
 70
     8
  0
VERTEX
  5
48B
  8
1
 62
     7
 10
1531.630578
 20
938.49105999999995
 30
0.0
 70
     8
  0
VERTEX
  5
48C
  8
1
 62
     7
 10
1531.735713
 20
938.49105999999995
 30
0.0
 70
     8
  0
VERTEX
  5
48D
  8
1
 62
     7
 10
1531.8061889999999
 20
938.49105999999995
 30
0.0
 70
     8
  0
VERTEX
  5
48E
  8
1
 62
     7
 10
1531.8489360000001
 20
938.49105999999995
 30
0.0
 70
     8
  0
VERTEX
  5
48F
  8
1
 62
     7
 10
1531.870887
 20
938.49105999999995
 30
0.0
 70
     8
  0
VERTEX
  5
490
  8
1
 62
     7
 10
1531.8789750000001
 20
938.49105999999995
 30
0.0
 70
     8
  0
VERTEX
  5
491
  8
1
 62
     7
 10
1531.88013
 20
938.49105999999995
 30
0.0
 70
     8
  0
VERTEX
  5
492
  8
1
 62
     7
 10
1531.88013
 20
938.49105999999995
 30
0.0
 70
     8
  0
VERTEX
  5
493
  8
1
 62
     7
 10
1531.88013
 20
938.49105999999995
 30
0.0
 70
     8
  0
VERTEX
  5
494
  8
1
 62
     7
 10
1531.88013
 20
938.49352499999975
 30
0.0
 70
     8
  0
VERTEX
  5
495
  8
1
 62
     7
 10
1531.8801309999999
 20
938.51077399999997
 30
0.0
 70
     8
  0
VERTEX
  5
496
  8
1
 62
     7
 10
1531.880134
 20
938.55759499999988
 30
0.0
 70
     8
  0
VERTEX
  5
497
  8
1
 62
     7
 10
1531.8801410000001
 20
938.64877199999989
 30
0.0
 70
     8
  0
VERTEX
  5
498
  8
1
 62
     7
 10
1531.8801510000001
 20
938.79909199999997
 30
0.0
 70
     8
  0
VERTEX
  5
499
  8
1
 62
     7
 10
1531.8801659999999
 20
939.02333799999985
 30
0.0
 70
     8
  0
VERTEX
  5
49A
  8
1
 62
     7
 10
1531.880187
 20
939.33629800000006
 30
0.0
 70
     8
  0
VERTEX
  5
49B
  8
1
 62
     7
 10
1531.8802149999999
 20
939.75275599999998
 30
0.0
 70
     8
  0
VERTEX
  5
49C
  8
1
 62
     7
 10
1531.880251
 20
940.28749900000003
 30
0.0
 70
     8
  0
VERTEX
  5
49D
  8
1
 62
     7
 10
1531.8802969999999
 20
940.95531000000005
 30
0.0
 70
     8
  0
VERTEX
  5
49E
  8
1
 62
     7
 10
1531.8802969999999
 20
940.95531000000005
 30
0.0
 70
     8
  0
VERTEX
  5
49F
  8
1
 62
     7
 10
1531.880351
 20
941.76358400000004
 30
0.0
 70
     8
  0
VERTEX
  5
4A0
  8
1
 62
     7
 10
1531.880414
 20
942.69014200000004
 30
0.0
 70
     8
  0
VERTEX
  5
4A1
  8
1
 62
     7
 10
1531.8804829999999
 20
943.70541299999991
 30
0.0
 70
     8
  0
VERTEX
  5
4A2
  8
1
 62
     7
 10
1531.880555
 20
944.77982599999984
 30
0.0
 70
     8
  0
VERTEX
  5
4A3
  8
1
 62
     7
 10
1531.8806300000001
 20
945.88381000000015
 30
0.0
 70
     8
  0
VERTEX
  5
4A4
  8
1
 62
     7
 10
1531.880705
 20
946.98779399999989
 30
0.0
 70
     8
  0
VERTEX
  5
4A5
  8
1
 62
     7
 10
1531.8807770000001
 20
948.06220699999994
 30
0.0
 70
     8
  0
VERTEX
  5
4A6
  8
1
 62
     7
 10
1531.880846
 20
949.07747799999981
 30
0.0
 70
     8
  0
VERTEX
  5
4A7
  8
1
 62
     7
 10
1531.880909
 20
950.00403599999993
 30
0.0
 70
     8
  0
VERTEX
  5
4A8
  8
1
 62
     7
 10
1531.8809630000001
 20
950.81230999999968
 30
0.0
 70
     8
  0
VERTEX
  5
4A9
  8
1
 62
     7
 10
1531.8809630000001
 20
950.81230999999968
 30
0.0
 70
     8
  0
VERTEX
  5
4AA
  8
1
 62
     7
 10
1531.8810080000001
 20
951.48012200000005
 30
0.0
 70
     8
  0
VERTEX
  5
4AB
  8
1
 62
     7
 10
1531.8810450000001
 20
952.01486399999999
 30
0.0
 70
     8
  0
VERTEX
  5
4AC
  8
1
 62
     7
 10
1531.881073
 20
952.43132300000002
 30
0.0
 70
     8
  0
VERTEX
  5
4AD
  8
1
 62
     7
 10
1531.8810940000001
 20
952.744282
 30
0.0
 70
     8
  0
VERTEX
  5
4AE
  8
1
 62
     7
 10
1531.8811089999999
 20
952.96852899999988
 30
0.0
 70
     8
  0
VERTEX
  5
4AF
  8
1
 62
     7
 10
1531.8811189999999
 20
953.11884799999984
 30
0.0
 70
     8
  0
VERTEX
  5
4B0
  8
1
 62
     7
 10
1531.8811250000001
 20
953.21002599999974
 30
0.0
 70
     8
  0
VERTEX
  5
4B1
  8
1
 62
     7
 10
1531.8811290000001
 20
953.25684600000022
 30
0.0
 70
     8
  0
VERTEX
  5
4B2
  8
1
 62
     7
 10
1531.88113
 20
953.27409599999987
 30
0.0
 70
     8
  0
VERTEX
  5
4B3
  8
1
 62
     7
 10
1531.88113
 20
953.27656000000013
 30
0.0
 70
     8
  0
VERTEX
  5
4B4
  8
1
 62
     7
 10
1531.88113
 20
953.27656000000013
 30
0.0
 70
     8
  0
VERTEX
  5
4B5
  8
1
 62
     7
 10
1531.88113
 20
953.27656000000013
 30
0.0
 70
     8
  0
VERTEX
  5
4B6
  8
1
 62
     7
 10
1531.879455
 20
953.27802699999995
 30
0.0
 70
     8
  0
VERTEX
  5
4B7
  8
1
 62
     7
 10
1531.8677339999999
 20
953.28829399999995
 30
0.0
 70
     8
  0
VERTEX
  5
4B8
  8
1
 62
     7
 10
1531.835918
 20
953.31615999999974
 30
0.0
 70
     8
  0
VERTEX
  5
4B9
  8
1
 62
     7
 10
1531.773962
 20
953.37042699999995
 30
0.0
 70
     8
  0
VERTEX
  5
4BA
  8
1
 62
     7
 10
1531.6718169999999
 20
953.45989399999996
 30
0.0
 70
     8
  0
VERTEX
  5
4BB
  8
1
 62
     7
 10
1531.519438
 20
953.59335999999985
 30
0.0
 70
     8
  0
VERTEX
  5
4BC
  8
1
 62
     7
 10
1531.3067759999999
 20
953.77962699999989
 30
0.0
 70
     8
  0
VERTEX
  5
4BD
  8
1
 62
     7
 10
1531.023786
 20
954.02749400000005
 30
0.0
 70
     8
  0
VERTEX
  5
4BE
  8
1
 62
     7
 10
1530.660419
 20
954.34575999999993
 30
0.0
 70
     8
  0
VERTEX
  5
4BF
  8
1
 62
     7
 10
1530.2066299999999
 20
954.74322699999993
 30
0.0
 70
     8
  0
VERTEX
  5
4C0
  8
1
 62
     7
 10
1530.2066299999999
 20
954.74322699999993
 30
0.0
 70
     8
  0
VERTEX
  5
4C1
  8
1
 62
     7
 10
1529.6573940000001
 20
955.22429399999987
 30
0.0
 70
     8
  0
VERTEX
  5
4C2
  8
1
 62
     7
 10
1529.0277819999999
 20
955.77575999999999
 30
0.0
 70
     8
  0
VERTEX
  5
4C3
  8
1
 62
     7
 10
1528.337888
 20
956.38002699999993
 30
0.0
 70
     8
  0
VERTEX
  5
4C4
  8
1
 62
     7
 10
1527.607806
 20
957.01949399999955
 30
0.0
 70
     8
  0
VERTEX
  5
4C5
  8
1
 62
     7
 10
1526.85763
 20
957.67655999999988
 30
0.0
 70
     8
  0
VERTEX
  5
4C6
  8
1
 62
     7
 10
1526.107454
 20
958.33362699999998
 30
0.0
 70
     8
  0
VERTEX
  5
4C7
  8
1
 62
     7
 10
1525.3773719999999
 20
958.97309399999995
 30
0.0
 70
     8
  0
VERTEX
  5
4C8
  8
1
 62
     7
 10
1524.6874780000001
 20
959.57735999999989
 30
0.0
 70
     8
  0
VERTEX
  5
4C9
  8
1
 62
     7
 10
1524.0578660000001
 20
960.12882699999989
 30
0.0
 70
     8
  0
VERTEX
  5
4CA
  8
1
 62
     7
 10
1523.50863
 20
960.60989399999983
 30
0.0
 70
     8
  0
VERTEX
  5
4CB
  8
1
 62
     7
 10
1523.50863
 20
960.60989399999983
 30
0.0
 70
     8
  0
VERTEX
  5
4CC
  8
1
 62
     7
 10
1523.05484
 20
961.00735999999995
 30
0.0
 70
     8
  0
VERTEX
  5
4CD
  8
1
 62
     7
 10
1522.691474
 20
961.32562700000005
 30
0.0
 70
     8
  0
VERTEX
  5
4CE
  8
1
 62
     7
 10
1522.4084829999999
 20
961.57349399999987
 30
0.0
 70
     8
  0
VERTEX
  5
4CF
  8
1
 62
     7
 10
1522.1958219999999
 20
961.75975999999991
 30
0.0
 70
     8
  0
VERTEX
  5
4D0
  8
1
 62
     7
 10
1522.0434419999999
 20
961.89322700000002
 30
0.0
 70
     8
  0
VERTEX
  5
4D1
  8
1
 62
     7
 10
1521.941298
 20
961.98269400000015
 30
0.0
 70
     8
  0
VERTEX
  5
4D2
  8
1
 62
     7
 10
1521.8793410000001
 20
962.03696000000002
 30
0.0
 70
     8
  0
VERTEX
  5
4D3
  8
1
 62
     7
 10
1521.847526
 20
962.06482700000004
 30
0.0
 70
     8
  0
VERTEX
  5
4D4
  8
1
 62
     7
 10
1521.8358040000001
 20
962.07509399999981
 30
0.0
 70
     8
  0
VERTEX
  5
4D5
  8
1
 62
     7
 10
1521.83413
 20
962.07655999999997
 30
0.0
 70
     8
  0
VERTEX
  5
4D6
  8
1
 62
     7
 10
1521.83413
 20
962.07655999999997
 30
0.0
 70
     8
  0
VERTEX
  5
4D7
  8
1
 62
     7
 10
1521.83413
 20
962.07655999999997
 30
0.0
 70
     8
  0
VERTEX
  5
4D8
  8
1
 62
     7
 10
1521.83413
 20
962.07655999999997
 30
0.0
 70
     8
  0
VERTEX
  5
4D9
  8
1
 62
     7
 10
1521.8341290000001
 20
962.07655999999997
 30
0.0
 70
     8
  0
VERTEX
  5
4DA
  8
1
 62
     7
 10
1521.834128
 20
962.07655999999997
 30
0.0
 70
     8
  0
VERTEX
  5
4DB
  8
1
 62
     7
 10
1521.8341250000001
 20
962.07655999999997
 30
0.0
 70
     8
  0
VERTEX
  5
4DC
  8
1
 62
     7
 10
1521.83412
 20
962.07655999999997
 30
0.0
 70
     8
  0
VERTEX
  5
4DD
  8
1
 62
     7
 10
1521.834112
 20
962.07655999999997
 30
0.0
 70
     8
  0
VERTEX
  5
4DE
  8
1
 62
     7
 10
1521.8341009999999
 20
962.07655999999997
 30
0.0
 70
     8
  0
VERTEX
  5
4DF
  8
1
 62
     7
 10
1521.834087
 20
962.07655999999997
 30
0.0
 70
     8
  0
VERTEX
  5
4E0
  8
1
 62
     7
 10
1521.834069
 20
962.07655999999997
 30
0.0
 70
     8
  0
VERTEX
  5
4E1
  8
1
 62
     7
 10
1521.8340470000001
 20
962.07655999999997
 30
0.0
 70
     8
  0
VERTEX
  5
4E2
  8
1
 62
     7
 10
1521.8340470000001
 20
962.07655999999997
 30
0.0
 70
     8
  0
VERTEX
  5
4E3
  8
1
 62
     7
 10
1521.8340189999999
 20
962.07655999999997
 30
0.0
 70
     8
  0
VERTEX
  5
4E4
  8
1
 62
     7
 10
1521.8339880000001
 20
962.07655999999997
 30
0.0
 70
     8
  0
VERTEX
  5
4E5
  8
1
 62
     7
 10
1521.8339539999999
 20
962.07655999999997
 30
0.0
 70
     8
  0
VERTEX
  5
4E6
  8
1
 62
     7
 10
1521.8339169999999
 20
962.07655999999997
 30
0.0
 70
     8
  0
VERTEX
  5
4E7
  8
1
 62
     7
 10
1521.8338799999999
 20
962.07655999999997
 30
0.0
 70
     8
  0
VERTEX
  5
4E8
  8
1
 62
     7
 10
1521.8338429999999
 20
962.07655999999997
 30
0.0
 70
     8
  0
VERTEX
  5
4E9
  8
1
 62
     7
 10
1521.8338060000001
 20
962.07655999999997
 30
0.0
 70
     8
  0
VERTEX
  5
4EA
  8
1
 62
     7
 10
1521.833772
 20
962.07655999999997
 30
0.0
 70
     8
  0
VERTEX
  5
4EB
  8
1
 62
     7
 10
1521.8337409999999
 20
962.07655999999997
 30
0.0
 70
     8
  0
VERTEX
  5
4EC
  8
1
 62
     7
 10
1521.833713
 20
962.07655999999997
 30
0.0
 70
     8
  0
VERTEX
  5
4ED
  8
1
 62
     7
 10
1521.833713
 20
962.07655999999997
 30
0.0
 70
     8
  0
VERTEX
  5
4EE
  8
1
 62
     7
 10
1521.833691
 20
962.07655999999997
 30
0.0
 70
     8
  0
VERTEX
  5
4EF
  8
1
 62
     7
 10
1521.8336730000001
 20
962.07655999999997
 30
0.0
 70
     8
  0
VERTEX
  5
4F0
  8
1
 62
     7
 10
1521.8336589999999
 20
962.07655999999997
 30
0.0
 70
     8
  0
VERTEX
  5
4F1
  8
1
 62
     7
 10
1521.833648
 20
962.07655999999997
 30
0.0
 70
     8
  0
VERTEX
  5
4F2
  8
1
 62
     7
 10
1521.8336400000001
 20
962.07655999999997
 30
0.0
 70
     8
  0
VERTEX
  5
4F3
  8
1
 62
     7
 10
1521.833635
 20
962.07655999999997
 30
0.0
 70
     8
  0
VERTEX
  5
4F4
  8
1
 62
     7
 10
1521.8336320000001
 20
962.07655999999997
 30
0.0
 70
     8
  0
VERTEX
  5
4F5
  8
1
 62
     7
 10
1521.833631
 20
962.07655999999997
 30
0.0
 70
     8
  0
VERTEX
  5
4F6
  8
1
 62
     7
 10
1521.8336300000001
 20
962.07655999999997
 30
0.0
 70
     8
  0
VERTEX
  5
4F7
  8
1
 62
     7
 10
1521.8336300000001
 20
962.07655999999997
 30
0.0
 70
     8
  0
VERTEX
  5
4F8
  8
1
 62
     7
 10
1521.8336300000001
 20
962.07655999999997
 30
0.0
 70
     8
  0
VERTEX
  5
4F9
  8
1
 62
     7
 10
1521.8336300000001
 20
962.07655999999997
 30
0.0
 70
     8
  0
VERTEX
  5
4FA
  8
1
 62
     7
 10
1521.833556
 20
962.07662500000004
 30
0.0
 70
     8
  0
VERTEX
  5
4FB
  8
1
 62
     7
 10
1521.8330390000001
 20
962.07707800000003
 30
0.0
 70
     8
  0
VERTEX
  5
4FC
  8
1
 62
     7
 10
1521.8316359999999
 20
962.078306
 30
0.0
 70
     8
  0
VERTEX
  5
4FD
  8
1
 62
     7
 10
1521.8289050000001
 20
962.08069899999998
 30
0.0
 70
     8
  0
VERTEX
  5
4FE
  8
1
 62
     7
 10
1521.8244010000001
 20
962.08464400000014
 30
0.0
 70
     8
  0
VERTEX
  5
4FF
  8
1
 62
     7
 10
1521.8176820000001
 20
962.09052799999995
 30
0.0
 70
     8
  0
VERTEX
  5
500
  8
1
 62
     7
 10
1521.808305
 20
962.0987409999999
 30
0.0
 70
     8
  0
VERTEX
  5
501
  8
1
 62
     7
 10
1521.7958269999999
 20
962.10966999999982
 30
0.0
 70
     8
  0
VERTEX
  5
502
  8
1
 62
     7
 10
1521.7798049999999
 20
962.12370199999998
 30
0.0
 70
     8
  0
VERTEX
  5
503
  8
1
 62
     7
 10
1521.7597969999999
 20
962.14122699999996
 30
0.0
 70
     8
  0
VERTEX
  5
504
  8
1
 62
     7
 10
1521.7597969999999
 20
962.14122699999996
 30
0.0
 70
     8
  0
VERTEX
  5
505
  8
1
 62
     7
 10
1521.7355789999999
 20
962.16243799999995
 30
0.0
 70
     8
  0
VERTEX
  5
506
  8
1
 62
     7
 10
1521.7078180000001
 20
962.18675199999996
 30
0.0
 70
     8
  0
VERTEX
  5
507
  8
1
 62
     7
 10
1521.6773989999999
 20
962.21339499999965
 30
0.0
 70
     8
  0
VERTEX
  5
508
  8
1
 62
     7
 10
1521.645207
 20
962.24159000000009
 30
0.0
 70
     8
  0
VERTEX
  5
509
  8
1
 62
     7
 10
1521.61213
 20
962.27056000000005
 30
0.0
 70
     8
  0
VERTEX
  5
50A
  8
1
 62
     7
 10
1521.5790529999999
 20
962.299531
 30
0.0
 70
     8
  0
VERTEX
  5
50B
  8
1
 62
     7
 10
1521.546861
 20
962.32772599999998
 30
0.0
 70
     8
  0
VERTEX
  5
50C
  8
1
 62
     7
 10
1521.5164420000001
 20
962.35436800000002
 30
0.0
 70
     8
  0
VERTEX
  5
50D
  8
1
 62
     7
 10
1521.488681
 20
962.37868300000002
 30
0.0
 70
     8
  0
VERTEX
  5
50E
  8
1
 62
     7
 10
1521.464463
 20
962.3998939999999
 30
0.0
 70
     8
  0
VERTEX
  5
50F
  8
1
 62
     7
 10
1521.464463
 20
962.3998939999999
 30
0.0
 70
     8
  0
VERTEX
  5
510
  8
1
 62
     7
 10
1521.444454
 20
962.417418
 30
0.0
 70
     8
  0
VERTEX
  5
511
  8
1
 62
     7
 10
1521.428433
 20
962.43145100000015
 30
0.0
 70
     8
  0
VERTEX
  5
512
  8
1
 62
     7
 10
1521.4159549999999
 20
962.44237999999996
 30
0.0
 70
     8
  0
VERTEX
  5
513
  8
1
 62
     7
 10
1521.4065780000001
 20
962.45059200000003
 30
0.0
 70
     8
  0
VERTEX
  5
514
  8
1
 62
     7
 10
1521.3998590000001
 20
962.45647699999995
 30
0.0
 70
     8
  0
VERTEX
  5
515
  8
1
 62
     7
 10
1521.3953550000001
 20
962.46042199999999
 30
0.0
 70
     8
  0
VERTEX
  5
516
  8
1
 62
     7
 10
1521.392623
 20
962.46281399999998
 30
0.0
 70
     8
  0
VERTEX
  5
517
  8
1
 62
     7
 10
1521.3912210000001
 20
962.46404299999995
 30
0.0
 70
     8
  0
VERTEX
  5
518
  8
1
 62
     7
 10
1521.3907039999999
 20
962.46449600000005
 30
0.0
 70
     8
  0
VERTEX
  5
519
  8
1
 62
     7
 10
1521.3906300000001
 20
962.46456000000001
 30
0.0
 70
     8
  0
VERTEX
  5
51A
  8
1
 62
     7
 10
1521.3906300000001
 20
962.46456000000001
 30
0.0
 70
     8
  0
VERTEX
  5
51B
  8
1
 62
     7
 10
1521.3906300000001
 20
962.46456000000001
 30
0.0
 70
     8
  0
VERTEX
  5
51C
  8
1
 62
     7
 10
1521.390529
 20
962.46460799999988
 30
0.0
 70
     8
  0
VERTEX
  5
51D
  8
1
 62
     7
 10
1521.389819
 20
962.46494399999983
 30
0.0
 70
     8
  0
VERTEX
  5
51E
  8
1
 62
     7
 10
1521.387892
 20
962.46585399999981
 30
0.0
 70
     8
  0
VERTEX
  5
51F
  8
1
 62
     7
 10
1521.384139
 20
962.46762700000011
 30
0.0
 70
     8
  0
VERTEX
  5
520
  8
1
 62
     7
 10
1521.3779529999999
 20
962.47055000000012
 30
0.0
 70
     8
  0
VERTEX
  5
521
  8
1
 62
     7
 10
1521.3687239999999
 20
962.47490999999968
 30
0.0
 70
     8
  0
VERTEX
  5
522
  8
1
 62
     7
 10
1521.3558439999999
 20
962.48099600000023
 30
0.0
 70
     8
  0
VERTEX
  5
523
  8
1
 62
     7
 10
1521.3387049999999
 20
962.48909399999957
 30
0.0
 70
     8
  0
VERTEX
  5
524
  8
1
 62
     7
 10
1521.316697
 20
962.49949200000003
 30
0.0
 70
     8
  0
VERTEX
  5
525
  8
1
 62
     7
 10
1521.289213
 20
962.51247699999988
 30
0.0
 70
     8
  0
VERTEX
  5
526
  8
1
 62
     7
 10
1521.289213
 20
962.51247699999988
 30
0.0
 70
     8
  0
VERTEX
  5
527
  8
1
 62
     7
 10
1521.2559490000001
 20
962.52819399999998
 30
0.0
 70
     8
  0
VERTEX
  5
528
  8
1
 62
     7
 10
1521.2178160000001
 20
962.54620999999997
 30
0.0
 70
     8
  0
VERTEX
  5
529
  8
1
 62
     7
 10
1521.1760320000001
 20
962.56595200000015
 30
0.0
 70
     8
  0
VERTEX
  5
52A
  8
1
 62
     7
 10
1521.131815
 20
962.58684400000016
 30
0.0
 70
     8
  0
VERTEX
  5
52B
  8
1
 62
     7
 10
1521.08638
 20
962.60830999999996
 30
0.0
 70
     8
  0
VERTEX
  5
52C
  8
1
 62
     7
 10
1521.040945
 20
962.62977699999999
 30
0.0
 70
     8
  0
VERTEX
  5
52D
  8
1
 62
     7
 10
1520.9967280000001
 20
962.65066899999988
 30
0.0
 70
     8
  0
VERTEX
  5
52E
  8
1
 62
     7
 10
1520.9549440000001
 20
962.67040999999995
 30
0.0
 70
     8
  0
VERTEX
  5
52F
  8
1
 62
     7
 10
1520.9168110000001
 20
962.68842700000005
 30
0.0
 70
     8
  0
VERTEX
  5
530
  8
1
 62
     7
 10
1520.8835469999999
 20
962.70414400000016
 30
0.0
 70
     8
  0
VERTEX
  5
531
  8
1
 62
     7
 10
1520.8835469999999
 20
962.70414400000016
 30
0.0
 70
     8
  0
VERTEX
  5
532
  8
1
 62
     7
 10
1520.8560629999999
 20
962.71712899999989
 30
0.0
 70
     8
  0
VERTEX
  5
533
  8
1
 62
     7
 10
1520.834055
 20
962.72752700000001
 30
0.0
 70
     8
  0
VERTEX
  5
534
  8
1
 62
     7
 10
1520.816916
 20
962.73562500000003
 30
0.0
 70
     8
  0
VERTEX
  5
535
  8
1
 62
     7
 10
1520.804036
 20
962.74171000000001
 30
0.0
 70
     8
  0
VERTEX
  5
536
  8
1
 62
     7
 10
1520.794807
 20
962.74607100000014
 30
0.0
 70
     8
  0
VERTEX
  5
537
  8
1
 62
     7
 10
1520.7886209999999
 20
962.74899400000004
 30
0.0
 70
     8
  0
VERTEX
  5
538
  8
1
 62
     7
 10
1520.784868
 20
962.75076699999988
 30
0.0
 70
     8
  0
VERTEX
  5
539
  8
1
 62
     7
 10
1520.7829409999999
 20
962.75167699999975
 30
0.0
 70
     8
  0
VERTEX
  5
53A
  8
1
 62
     7
 10
1520.7822309999999
 20
962.75201199999992
 30
0.0
 70
     8
  0
VERTEX
  5
53B
  8
1
 62
     7
 10
1520.7821300000001
 20
962.75205999999957
 30
0.0
 70
     8
  0
VERTEX
  5
53C
  8
1
 62
     7
 10
1520.7821300000001
 20
962.75205999999957
 30
0.0
 70
     8
  0
VERTEX
  5
53D
  8
1
 62
     7
 10
1520.7821300000001
 20
962.75205999999957
 30
0.0
 70
     8
  0
VERTEX
  5
53E
  8
1
 62
     7
 10
1520.782113
 20
962.75207499999999
 30
0.0
 70
     8
  0
VERTEX
  5
53F
  8
1
 62
     7
 10
1520.7819930000001
 20
962.75217599999996
 30
0.0
 70
     8
  0
VERTEX
  5
540
  8
1
 62
     7
 10
1520.7816660000001
 20
962.75244999999995
 30
0.0
 70
     8
  0
VERTEX
  5
541
  8
1
 62
     7
 10
1520.781031
 20
962.75298299999997
 30
0.0
 70
     8
  0
VERTEX
  5
542
  8
1
 62
     7
 10
1520.779984
 20
962.75386200000014
 30
0.0
 70
     8
  0
VERTEX
  5
543
  8
1
 62
     7
 10
1520.7784220000001
 20
962.7551739999999
 30
0.0
 70
     8
  0
VERTEX
  5
544
  8
1
 62
     7
 10
1520.7762419999999
 20
962.75700500000005
 30
0.0
 70
     8
  0
VERTEX
  5
545
  8
1
 62
     7
 10
1520.7733410000001
 20
962.75944200000015
 30
0.0
 70
     8
  0
VERTEX
  5
546
  8
1
 62
     7
 10
1520.7696149999999
 20
962.76256999999987
 30
0.0
 70
     8
  0
VERTEX
  5
547
  8
1
 62
     7
 10
1520.7649630000001
 20
962.76647700000001
 30
0.0
 70
     8
  0
VERTEX
  5
548
  8
1
 62
     7
 10
1520.7649630000001
 20
962.76647700000001
 30
0.0
 70
     8
  0
VERTEX
  5
549
  8
1
 62
     7
 10
1520.759333
 20
962.77120600000001
 30
0.0
 70
     8
  0
VERTEX
  5
54A
  8
1
 62
     7
 10
1520.752878
 20
962.77662599999985
 30
0.0
 70
     8
  0
VERTEX
  5
54B
  8
1
 62
     7
 10
1520.745805
 20
962.78256599999986
 30
0.0
 70
     8
  0
VERTEX
  5
54C
  8
1
 62
     7
 10
1520.738321
 20
962.78885200000002
 30
0.0
 70
     8
  0
VERTEX
  5
54D
  8
1
 62
     7
 10
1520.73063
 20
962.79530999999986
 30
0.0
 70
     8
  0
VERTEX
  5
54E
  8
1
 62
     7
 10
1520.722939
 20
962.80176900000004
 30
0.0
 70
     8
  0
VERTEX
  5
54F
  8
1
 62
     7
 10
1520.715455
 20
962.80805499999985
 30
0.0
 70
     8
  0
VERTEX
  5
550
  8
1
 62
     7
 10
1520.708382
 20
962.81399399999998
 30
0.0
 70
     8
  0
VERTEX
  5
551
  8
1
 62
     7
 10
1520.7019270000001
 20
962.81941500000005
 30
0.0
 70
     8
  0
VERTEX
  5
552
  8
1
 62
     7
 10
1520.696297
 20
962.82414400000005
 30
0.0
 70
     8
  0
VERTEX
  5
553
  8
1
 62
     7
 10
1520.696297
 20
962.82414400000005
 30
0.0
 70
     8
  0
VERTEX
  5
554
  8
1
 62
     7
 10
1520.691644
 20
962.82805099999973
 30
0.0
 70
     8
  0
VERTEX
  5
555
  8
1
 62
     7
 10
1520.687919
 20
962.83117899999991
 30
0.0
 70
     8
  0
VERTEX
  5
556
  8
1
 62
     7
 10
1520.6850179999999
 20
962.83361500000001
 30
0.0
 70
     8
  0
VERTEX
  5
557
  8
1
 62
     7
 10
1520.6828379999999
 20
962.83544600000005
 30
0.0
 70
     8
  0
VERTEX
  5
558
  8
1
 62
     7
 10
1520.681276
 20
962.83675800000003
 30
0.0
 70
     8
  0
VERTEX
  5
559
  8
1
 62
     7
 10
1520.6802290000001
 20
962.83763799999997
 30
0.0
 70
     8
  0
VERTEX
  5
55A
  8
1
 62
     7
 10
1520.6795930000001
 20
962.83817099999987
 30
0.0
 70
     8
  0
VERTEX
  5
55B
  8
1
 62
     7
 10
1520.679267
 20
962.83844499999998
 30
0.0
 70
     8
  0
VERTEX
  5
55C
  8
1
 62
     7
 10
1520.6791470000001
 20
962.83854599999995
 30
0.0
 70
     8
  0
VERTEX
  5
55D
  8
1
 62
     7
 10
1520.67913
 20
962.83855999999992
 30
0.0
 70
     8
  0
VERTEX
  5
55E
  8
1
 62
     7
 10
1520.67913
 20
962.83855999999992
 30
0.0
 70
     8
  0
VERTEX
  5
55F
  8
1
 62
     7
 10
1520.679046
 20
962.83862899999986
 30
0.0
 70
     8
  0
VERTEX
  5
560
  8
1
 62
     7
 10
1520.678461
 20
962.83910999999989
 30
0.0
 70
     8
  0
VERTEX
  5
561
  8
1
 62
     7
 10
1520.6768709999999
 20
962.84041699999989
 30
0.0
 70
     8
  0
VERTEX
  5
562
  8
1
 62
     7
 10
1520.673775
 20
962.84295999999995
 30
0.0
 70
     8
  0
VERTEX
  5
563
  8
1
 62
     7
 10
1520.668672
 20
962.84715400000005
 30
0.0
 70
     8
  0
VERTEX
  5
564
  8
1
 62
     7
 10
1520.6610579999999
 20
962.85341000000005
 30
0.0
 70
     8
  0
VERTEX
  5
565
  8
1
 62
     7
 10
1520.6504319999999
 20
962.86214199999995
 30
0.0
 70
     8
  0
VERTEX
  5
566
  8
1
 62
     7
 10
1520.636293
 20
962.87375999999995
 30
0.0
 70
     8
  0
VERTEX
  5
567
  8
1
 62
     7
 10
1520.6181369999999
 20
962.88867900000014
 30
0.0
 70
     8
  0
VERTEX
  5
568
  8
1
 62
     7
 10
1520.5954630000001
 20
962.90731000000005
 30
0.0
 70
     8
  0
VERTEX
  5
569
  8
1
 62
     7
 10
1520.5954630000001
 20
962.90731000000005
 30
0.0
 70
     8
  0
VERTEX
  5
56A
  8
1
 62
     7
 10
1520.5679809999999
 20
962.92985899999985
 30
0.0
 70
     8
  0
VERTEX
  5
56B
  8
1
 62
     7
 10
1520.536247
 20
962.95570399999986
 30
0.0
 70
     8
  0
VERTEX
  5
56C
  8
1
 62
     7
 10
1520.501029
 20
962.98401299999989
 30
0.0
 70
     8
  0
VERTEX
  5
56D
  8
1
 62
     7
 10
1520.4630950000001
 20
963.013957
 30
0.0
 70
     8
  0
VERTEX
  5
56E
  8
1
 62
     7
 10
1520.423213
 20
963.04470599999991
 30
0.0
 70
     8
  0
VERTEX
  5
56F
  8
1
 62
     7
 10
1520.382151
 20
963.07542999999987
 30
0.0
 70
     8
  0
VERTEX
  5
570
  8
1
 62
     7
 10
1520.3406769999999
 20
963.10529899999983
 30
0.0
 70
     8
  0
VERTEX
  5
571
  8
1
 62
     7
 10
1520.299559
 20
963.13348399999995
 30
0.0
 70
     8
  0
VERTEX
  5
572
  8
1
 62
     7
 10
1520.2595650000001
 20
963.15915299999995
 30
0.0
 70
     8
  0
VERTEX
  5
573
  8
1
 62
     7
 10
1520.2214630000001
 20
963.18147699999997
 30
0.0
 70
     8
  0
VERTEX
  5
574
  8
1
 62
     7
 10
1520.2214630000001
 20
963.18147699999997
 30
0.0
 70
     8
  0
VERTEX
  5
575
  8
1
 62
     7
 10
1520.185782
 20
963.19984499999987
 30
0.0
 70
     8
  0
VERTEX
  5
576
  8
1
 62
     7
 10
1520.152092
 20
963.21452199999987
 30
0.0
 70
     8
  0
VERTEX
  5
577
  8
1
 62
     7
 10
1520.119725
 20
963.22599200000002
 30
0.0
 70
     8
  0
VERTEX
  5
578
  8
1
 62
     7
 10
1520.088013
 20
963.23473999999999
 30
0.0
 70
     8
  0
VERTEX
  5
579
  8
1
 62
     7
 10
1520.056286
 20
963.24124800000016
 30
0.0
 70
     8
  0
VERTEX
  5
57A
  8
1
 62
     7
 10
1520.0238770000001
 20
963.24600099999998
 30
0.0
 70
     8
  0
VERTEX
  5
57B
  8
1
 62
     7
 10
1519.9901170000001
 20
963.24948300000005
 30
0.0
 70
     8
  0
VERTEX
  5
57C
  8
1
 62
     7
 10
1519.954338
 20
963.25217799999984
 30
0.0
 70
     8
  0
VERTEX
  5
57D
  8
1
 62
     7
 10
1519.9158709999999
 20
963.25456999999994
 30
0.0
 70
     8
  0
VERTEX
  5
57E
  8
1
 62
     7
 10
1519.874047
 20
963.25714400000015
 30
0.0
 70
     8
  0
VERTEX
  5
57F
  8
1
 62
     7
 10
1519.874047
 20
963.25714400000015
 30
0.0
 70
     8
  0
VERTEX
  5
580
  8
1
 62
     7
 10
1519.828483
 20
963.26027999999985
 30
0.0
 70
     8
  0
VERTEX
  5
581
  8
1
 62
     7
 10
1519.779935
 20
963.26395299999979
 30
0.0
 70
     8
  0
VERTEX
  5
582
  8
1
 62
     7
 10
1519.7294440000001
 20
963.26803500000005
 30
0.0
 70
     8
  0
VERTEX
  5
583
  8
1
 62
     7
 10
1519.6780510000001
 20
963.27239799999995
 30
0.0
 70
     8
  0
VERTEX
  5
584
  8
1
 62
     7
 10
1519.6267969999999
 20
963.27691400000003
 30
0.0
 70
     8
  0
VERTEX
  5
585
  8
1
 62
     7
 10
1519.5767229999999
 20
963.28145599999993
 30
0.0
 70
     8
  0
VERTEX
  5
586
  8
1
 62
     7
 10
1519.5288700000001
 20
963.28589399999998
 30
0.0
 70
     8
  0
VERTEX
  5
587
  8
1
 62
     7
 10
1519.484279
 20
963.29010100000005
 30
0.0
 70
     8
  0
VERTEX
  5
588
  8
1
 62
     7
 10
1519.4439910000001
 20
963.293949
 30
0.0
 70
     8
  0
VERTEX
  5
589
  8
1
 62
     7
 10
1519.4090470000001
 20
963.29731000000004
 30
0.0
 70
     8
  0
VERTEX
  5
58A
  8
1
 62
     7
 10
1519.4090470000001
 20
963.29731000000004
 30
0.0
 70
     8
  0
VERTEX
  5
58B
  8
1
 62
     7
 10
1519.376567
 20
963.30043899999987
 30
0.0
 70
     8
  0
VERTEX
  5
58C
  8
1
 62
     7
 10
1519.3279930000001
 20
963.30512199999998
 30
0.0
 70
     8
  0
VERTEX
  5
58D
  8
1
 62
     7
 10
1519.2408419999999
 20
963.31352600000014
 30
0.0
 70
     8
  0
VERTEX
  5
58E
  8
1
 62
     7
 10
1519.092635
 20
963.32782099999997
 30
0.0
 70
     8
  0
VERTEX
  5
58F
  8
1
 62
     7
 10
1518.8608899999999
 20
963.35017500000004
 30
0.0
 70
     8
  0
VERTEX
  5
590
  8
1
 62
     7
 10
1518.5231289999999
 20
963.38275599999997
 30
0.0
 70
     8
  0
VERTEX
  5
591
  8
1
 62
     7
 10
1518.056869
 20
963.42773399999999
 30
0.0
 70
     8
  0
VERTEX
  5
592
  8
1
 62
     7
 10
1517.439631
 20
963.48727599999995
 30
0.0
 70
     8
  0
VERTEX
  5
593
  8
1
 62
     7
 10
1516.6489329999999
 20
963.56355099999996
 30
0.0
 70
     8
  0
VERTEX
  5
594
  8
1
 62
     7
 10
1515.6622970000001
 20
963.65872699999989
 30
0.0
 70
     8
  0
VERTEX
  5
595
  8
1
 62
     7
 10
1515.6622970000001
 20
963.65872699999989
 30
0.0
 70
     8
  0
VERTEX
  5
596
  8
1
 62
     7
 10
1514.468813
 20
963.77597500000002
 30
0.0
 70
     8
  0
VERTEX
  5
597
  8
1
 62
     7
 10
1513.1038659999999
 20
963.92246899999998
 30
0.0
 70
     8
  0
VERTEX
  5
598
  8
1
 62
     7
 10
1511.614413
 20
964.10638600000004
 30
0.0
 70
     8
  0
VERTEX
  5
599
  8
1
 62
     7
 10
1510.047411
 20
964.33590300000003
 30
0.0
 70
     8
  0
VERTEX
  5
59A
  8
1
 62
     7
 10
1508.4498169999999
 20
964.61919599999987
 30
0.0
 70
     8
  0
VERTEX
  5
59B
  8
1
 62
     7
 10
1506.8685889999999
 20
964.96444099999997
 30
0.0
 70
     8
  0
VERTEX
  5
59C
  8
1
 62
     7
 10
1505.350682
 20
965.37981500000001
 30
0.0
 70
     8
  0
VERTEX
  5
59D
  8
1
 62
     7
 10
1503.9430540000001
 20
965.87349500000005
 30
0.0
 70
     8
  0
VERTEX
  5
59E
  8
1
 62
     7
 10
1502.6926619999999
 20
966.45365700000002
 30
0.0
 70
     8
  0
VERTEX
  5
59F
  8
1
 62
     7
 10
1501.646463
 20
967.12847699999975
 30
0.0
 70
     8
  0
VERTEX
  5
5A0
  8
1
 62
     7
 10
1501.646463
 20
967.12847699999975
 30
0.0
 70
     8
  0
VERTEX
  5
5A1
  8
1
 62
     7
 10
1500.8388500000001
 20
967.90423699999985
 30
0.0
 70
     8
  0
VERTEX
  5
5A2
  8
1
 62
     7
 10
1500.2539549999999
 20
968.77963800000009
 30
0.0
 70
     8
  0
VERTEX
  5
5A3
  8
1
 62
     7
 10
1499.863349
 20
969.751484
 30
0.0
 70
     8
  0
VERTEX
  5
5A4
  8
1
 62
     7
 10
1499.6385990000001
 20
970.81658200000015
 30
0.0
 70
     8
  0
VERTEX
  5
5A5
  8
1
 62
     7
 10
1499.5512759999999
 20
971.97173699999973
 30
0.0
 70
     8
  0
VERTEX
  5
5A6
  8
1
 62
     7
 10
1499.5729470000001
 20
973.21375499999999
 30
0.0
 70
     8
  0
VERTEX
  5
5A7
  8
1
 62
     7
 10
1499.6751830000001
 20
974.53944100000012
 30
0.0
 70
     8
  0
VERTEX
  5
5A8
  8
1
 62
     7
 10
1499.829551
 20
975.94560000000001
 30
0.0
 70
     8
  0
VERTEX
  5
5A9
  8
1
 62
     7
 10
1500.0076220000001
 20
977.42903799999999
 30
0.0
 70
     8
  0
VERTEX
  5
5AA
  8
1
 62
     7
 10
1500.180963
 20
978.98655999999983
 30
0.0
 70
     8
  0
VERTEX
  5
5AB
  8
1
 62
     7
 10
1500.180963
 20
978.98655999999983
 30
0.0
 70
     8
  0
VERTEX
  5
5AC
  8
1
 62
     7
 10
1500.3264429999999
 20
980.61107700000002
 30
0.0
 70
     8
  0
VERTEX
  5
5AD
  8
1
 62
     7
 10
1500.4421219999999
 20
982.27991599999996
 30
0.0
 70
     8
  0
VERTEX
  5
5AE
  8
1
 62
     7
 10
1500.5313590000001
 20
983.96650699999998
 30
0.0
 70
     8
  0
VERTEX
  5
5AF
  8
1
 62
     7
 10
1500.5975129999999
 20
985.64428299999997
 30
0.0
 70
     8
  0
VERTEX
  5
5B0
  8
1
 62
     7
 10
1500.6439419999999
 20
987.28667499999995
 30
0.0
 70
     8
  0
VERTEX
  5
5B1
  8
1
 62
     7
 10
1500.6740070000001
 20
988.8671139999999
 30
0.0
 70
     8
  0
VERTEX
  5
5B2
  8
1
 62
     7
 10
1500.6910660000001
 20
990.35903299999995
 30
0.0
 70
     8
  0
VERTEX
  5
5B3
  8
1
 62
     7
 10
1500.698478
 20
991.73586199999988
 30
0.0
 70
     8
  0
VERTEX
  5
5B4
  8
1
 62
     7
 10
1500.6996019999999
 20
992.97103300000003
 30
0.0
 70
     8
  0
VERTEX
  5
5B5
  8
1
 62
     7
 10
1500.697797
 20
994.03797699999996
 30
0.0
 70
     8
  0
VERTEX
  5
5B6
  8
1
 62
     7
 10
1500.697797
 20
994.03797699999996
 30
0.0
 70
     8
  0
VERTEX
  5
5B7
  8
1
 62
     7
 10
1500.6958540000001
 20
994.91780099999983
 30
0.0
 70
     8
  0
VERTEX
  5
5B8
  8
1
 62
     7
 10
1500.694299
 20
995.62230999999997
 30
0.0
 70
     8
  0
VERTEX
  5
5B9
  8
1
 62
     7
 10
1500.693088
 20
996.17098199999987
 30
0.0
 70
     8
  0
VERTEX
  5
5BA
  8
1
 62
     7
 10
1500.692178
 20
996.58329800000001
 30
0.0
 70
     8
  0
VERTEX
  5
5BB
  8
1
 62
     7
 10
1500.6915260000001
 20
996.87873699999989
 30
0.0
 70
     8
  0
VERTEX
  5
5BC
  8
1
 62
     7
 10
1500.6910889999999
 20
997.07677899999965
 30
0.0
 70
     8
  0
VERTEX
  5
5BD
  8
1
 62
     7
 10
1500.6908229999999
 20
997.19690299999979
 30
0.0
 70
     8
  0
VERTEX
  5
5BE
  8
1
 62
     7
 10
1500.690687
 20
997.25858800000003
 30
0.0
 70
     8
  0
VERTEX
  5
5BF
  8
1
 62
     7
 10
1500.6906369999999
 20
997.28131399999995
 30
0.0
 70
     8
  0
VERTEX
  5
5C0
  8
1
 62
     7
 10
1500.6906300000001
 20
997.28456000000006
 30
0.0
 70
     8
  0
VERTEX
  5
5C1
  8
1
 62
     7
 10
1500.6906300000001
 20
997.28456000000006
 30
0.0
 70
     8
  0
VERTEX
  5
5C2
  8
1
 62
     7
 10
1500.690619
 20
997.28960400000005
 30
0.0
 70
     8
  0
VERTEX
  5
5C3
  8
1
 62
     7
 10
1500.6905400000001
 20
997.32491200000004
 30
0.0
 70
     8
  0
VERTEX
  5
5C4
  8
1
 62
     7
 10
1500.690325
 20
997.42074699999989
 30
0.0
 70
     8
  0
VERTEX
  5
5C5
  8
1
 62
     7
 10
1500.6899080000001
 20
997.60737300000005
 30
0.0
 70
     8
  0
VERTEX
  5
5C6
  8
1
 62
     7
 10
1500.68922
 20
997.91505299999994
 30
0.0
 70
     8
  0
VERTEX
  5
5C7
  8
1
 62
     7
 10
1500.6881940000001
 20
998.37405199999989
 30
0.0
 70
     8
  0
VERTEX
  5
5C8
  8
1
 62
     7
 10
1500.686762
 20
999.01463299999989
 30
0.0
 70
     8
  0
VERTEX
  5
5C9
  8
1
 62
     7
 10
1500.6848560000001
 20
999.86705999999981
 30
0.0
 70
     8
  0
VERTEX
  5
5CA
  8
1
 62
     7
 10
1500.6824079999999
 20
1000.961596
 30
0.0
 70
     8
  0
VERTEX
  5
5CB
  8
1
 62
     7
 10
1500.6793520000001
 20
1002.328505
 30
0.0
 70
     8
  0
VERTEX
  5
5CC
  8
1
 62
     7
 10
1500.6793520000001
 20
1002.328505
 30
0.0
 70
     8
  0
VERTEX
  5
5CD
  8
1
 62
     7
 10
1500.671345
 20
1005.909705
 30
0.0
 70
     8
  0
VERTEX
  5
5CE
  8
1
 62
     7
 10
1500.661308
 20
1010.398816
 30
0.0
 70
     8
  0
VERTEX
  5
5CF
  8
1
 62
     7
 10
1500.649917
 20
1015.4932
 30
0.0
 70
     8
  0
VERTEX
  5
5D0
  8
1
 62
     7
 10
1500.6378500000001
 20
1020.89022
 30
0.0
 70
     8
  0
VERTEX
  5
5D1
  8
1
 62
     7
 10
1500.625783
 20
1026.287241
 30
0.0
 70
     8
  0
VERTEX
  5
5D2
  8
1
 62
     7
 10
1500.614392
 20
1031.381625
 30
0.0
 70
     8
  0
VERTEX
  5
5D3
  8
1
 62
     7
 10
1500.6043549999999
 20
1035.870735
 30
0.0
 70
     8
  0
VERTEX
  5
5D4
  8
1
 62
     7
 10
1500.596348
 20
1039.4519359999999
 30
0.0
 70
     8
  0
VERTEX
  5
5D5
  8
1
 62
     7
 10
1500.5910469999999
 20
1041.82259
 30
0.0
 70
     8
  0
VERTEX
  5
5D6
  8
1
 62
     7
 10
1500.5891300000001
 20
1042.6800599999999
 30
0.0
 70
     8
  0
VERTEX
  5
5D7
  8
1
 62
     7
 10
1500.58413
 20
1045.1845599999999
 30
0.0
 70
    16
  0
VERTEX
  5
5D8
  8
1
 62
     7
 10
1497.42013
 20
1048.2655600000001
 30
0.0
 70
    16
  0
VERTEX
  5
5D9
  8
1
 62
     7
 10
1494.4251300000001
 20
1048.2655600000001
 30
0.0
 70
    16
  0
VERTEX
  5
5DA
  8
1
 62
     7
 10
1494.4251300000001
 20
1048.2655600000001
 30
0.0
 70
    16
  0
VERTEX
  5
5DB
  8
1
 62
     7
 10
1494.4251300000001
 20
1048.2655600000001
 30
0.0
 70
    16
  0
VERTEX
  5
5DC
  8
1
 62
     7
 10
1407.8326300000001
 20
1048.2650599999999
 30
0.0
 70
    16
  0
VERTEX
  5
5DD
  8
1
 62
     7
 10
1407.8326300000001
 20
1048.2650599999999
 30
0.0
 70
    16
  0
VERTEX
  5
5DE
  8
1
 62
     7
 10
1407.8326300000001
 20
1048.2650599999999
 30
0.0
 70
    16
  0
VERTEX
  5
5DF
  8
1
 62
     7
 10
1406.9466299999999
 20
1048.2650599999999
 30
0.0
 70
    16
  0
VERTEX
  5
5E0
  8
1
 62
     7
 10
1405.93613
 20
1049.25656
 30
0.0
 70
    16
  0
VERTEX
  5
5E1
  8
1
 62
     7
 10
1405.93613
 20
1050.1475600000001
 30
0.0
 70
    16
  0
VERTEX
  5
5E2
  8
1
 62
     7
 10
1405.93613
 20
1050.1475600000001
 30
0.0
 70
    16
  0
VERTEX
  5
5E3
  8
1
 62
     7
 10
1405.93613
 20
1050.1475600000001
 30
0.0
 70
    16
  0
VERTEX
  5
5E4
  8
1
 62
     7
 10
1405.9356299999999
 20
1088.2645600000001
 30
0.0
 70
    16
  0
VERTEX
  5
5E5
  8
1
 62
     7
 10
1405.9356299999999
 20
1088.2645600000001
 30
0.0
 70
    16
  0
VERTEX
  5
5E6
  8
1
 62
     7
 10
1405.9356299999999
 20
1088.2645600000001
 30
0.0
 70
    16
  0
VERTEX
  5
5E7
  8
1
 62
     7
 10
1405.9356299999999
 20
1088.2645600000001
 30
0.0
 70
    16
  0
VERTEX
  5
5E8
  8
1
 62
     7
 10
1395.5981300000001
 20
1088.2650599999999
 30
0.0
 70
    16
  0
VERTEX
  5
5E9
  8
1
 62
     7
 10
1395.5981300000001
 20
1088.2650599999999
 30
0.0
 70
    16
  0
VERTEX
  5
5EA
  8
1
 62
     7
 10
1395.5981300000001
 20
1088.2650599999999
 30
0.0
 70
    16
  0
VERTEX
  5
5EB
  8
1
 62
     7
 10
1395.5981300000001
 20
1088.2650599999999
 30
0.0
 70
    16
  0
VERTEX
  5
5EC
  8
1
 62
     7
 10
1395.6406300000001
 20
1037.87156
 30
0.0
 70
    16
  0
VERTEX
  5
5ED
  8
1
 62
     7
 10
1395.6406300000001
 20
1037.87156
 30
0.0
 70
    16
  0
VERTEX
  5
5EE
  8
1
 62
     7
 10
1395.6406300000001
 20
1037.87156
 30
0.0
 70
    16
  0
VERTEX
  5
5EF
  8
1
 62
     7
 10
1395.6406300000001
 20
1037.87156
 30
0.0
 70
    16
  0
VERTEX
  5
5F0
  8
1
 62
     7
 10
1487.1551300000001
 20
1037.90056
 30
0.0
 70
    16
  0
VERTEX
  5
5F1
  8
1
 62
     7
 10
1487.1551300000001
 20
1037.90056
 30
0.0
 70
    16
  0
VERTEX
  5
5F2
  8
1
 62
     7
 10
1487.1551300000001
 20
1037.90056
 30
0.0
 70
    16
  0
VERTEX
  5
5F3
  8
1
 62
     7
 10
1489.34413
 20
1037.90056
 30
0.0
 70
    16
  0
VERTEX
  5
5F4
  8
1
 62
     7
 10
1490.27313
 20
1037.16156
 30
0.0
 70
    16
  0
VERTEX
  5
5F5
  8
1
 62
     7
 10
1490.2096300000001
 20
1034.9145599999999
 30
0.0
 70
    16
  0
VERTEX
  5
5F6
  8
1
 62
     7
 10
1490.2096300000001
 20
1034.9145599999999
 30
0.0
 70
    16
  0
VERTEX
  5
5F7
  8
1
 62
     7
 10
1490.2096300000001
 20
1034.9145599999999
 30
0.0
 70
    16
  0
VERTEX
  5
5F8
  8
1
 62
     7
 10
1490.1941300000001
 20
998.87756000000002
 30
0.0
 70
    16
  0
VERTEX
  5
5F9
  8
1
 62
     7
 10
1490.1941300000001
 20
998.87756000000002
 30
0.0
 70
    16
  0
VERTEX
  5
5FA
  8
1
 62
     7
 10
1490.1941300000001
 20
998.87756000000002
 30
0.0
 70
    16
  0
VERTEX
  5
5FB
  8
1
 62
     7
 10
1491.8706299999999
 20
978.39555999999982
 30
0.0
 70
    16
  0
VERTEX
  5
5FC
  8
1
 62
     7
 10
1484.12913
 20
963.93655999999987
 30
0.0
 70
    16
  0
VERTEX
  5
5FD
  8
1
 62
     7
 10
1513.0046299999999
 20
952.11806000000001
 30
0.0
 70
    16
  0
VERTEX
  5
5FE
  8
1
 62
     7
 10
1513.0046299999999
 20
952.11806000000001
 30
0.0
 70
    16
  0
VERTEX
  5
5FF
  8
1
 62
     7
 10
1514.08313
 20
951.67655999999988
 30
0.0
 70
    16
  0
VERTEX
  5
600
  8
1
 62
     7
 10
1516.36763
 20
950.46856000000002
 30
0.0
 70
    16
  0
VERTEX
  5
601
  8
1
 62
     7
 10
1517.1271300000001
 20
949.40855999999997
 30
0.0
 70
    16
  0
VERTEX
  5
602
  8
1
 62
     7
 10
1517.1271300000001
 20
949.40855999999997
 30
0.0
 70
    16
  0
VERTEX
  5
603
  8
1
 62
     7
 10
1517.1271300000001
 20
949.40855999999997
 30
0.0
 70
    16
  0
VERTEX
  5
604
  8
1
 62
     7
 10
1524.94813
 20
938.49105999999995
 30
0.0
 70
    16
  0
VERTEX
  5
605
  8
1
 62
     7
 10
1524.94813
 20
938.49105999999995
 30
0.0
 70
    16
  0
VERTEX
  5
606
  8
1
 62
     7
 10
1524.94813
 20
938.49105999999995
 30
0.0
 70
    16
  0
VERTEX
  5
607
  8
1
 62
     7
 10
1524.94813
 20
938.49105999999995
 30
0.0
 70
    16
  0
VERTEX
  5
608
  8
1
 62
     7
 10
1531.88013
 20
938.49105999999995
 30
0.0
 70
    16
  0
VERTEX
  5
609
  8
1
 62
     7
 10
1531.88013
 20
938.49105999999995
 30
0.0
 70
    16
  0
VERTEX
  5
60A
  8
1
 62
     7
 10
1531.88013
 20
938.49105999999995
 30
0.0
 70
    16
  0
VERTEX
  5
60B
  8
1
 62
     7
 10
1531.88013
 20
938.49105999999995
 30
0.0
 70
    16
  0
VERTEX
  5
60C
  8
1
 62
     7
 10
1531.88113
 20
953.27656000000013
 30
0.0
 70
    16
  0
VERTEX
  5
60D
  8
1
 62
     7
 10
1531.88113
 20
953.27656000000013
 30
0.0
 70
    16
  0
VERTEX
  5
60E
  8
1
 62
     7
 10
1531.88113
 20
953.27656000000013
 30
0.0
 70
    16
  0
VERTEX
  5
60F
  8
1
 62
     7
 10
1531.88113
 20
953.27656000000013
 30
0.0
 70
    16
  0
VERTEX
  5
610
  8
1
 62
     7
 10
1521.83413
 20
962.07655999999997
 30
0.0
 70
    16
  0
VERTEX
  5
611
  8
1
 62
     7
 10
1521.83413
 20
962.07655999999997
 30
0.0
 70
    16
  0
VERTEX
  5
612
  8
1
 62
     7
 10
1521.83413
 20
962.07655999999997
 30
0.0
 70
    16
  0
VERTEX
  5
613
  8
1
 62
     7
 10
1521.83413
 20
962.07655999999997
 30
0.0
 70
    16
  0
VERTEX
  5
614
  8
1
 62
     7
 10
1521.8336300000001
 20
962.07655999999997
 30
0.0
 70
    16
  0
VERTEX
  5
615
  8
1
 62
     7
 10
1521.8336300000001
 20
962.07655999999997
 30
0.0
 70
    16
  0
VERTEX
  5
616
  8
1
 62
     7
 10
1521.8336300000001
 20
962.07655999999997
 30
0.0
 70
    16
  0
VERTEX
  5
617
  8
1
 62
     7
 10
1521.8336300000001
 20
962.07655999999997
 30
0.0
 70
    16
  0
VERTEX
  5
618
  8
1
 62
     7
 10
1521.3906300000001
 20
962.46456000000001
 30
0.0
 70
    16
  0
VERTEX
  5
619
  8
1
 62
     7
 10
1521.3906300000001
 20
962.46456000000001
 30
0.0
 70
    16
  0
VERTEX
  5
61A
  8
1
 62
     7
 10
1521.3906300000001
 20
962.46456000000001
 30
0.0
 70
    16
  0
VERTEX
  5
61B
  8
1
 62
     7
 10
1521.3906300000001
 20
962.46456000000001
 30
0.0
 70
    16
  0
VERTEX
  5
61C
  8
1
 62
     7
 10
1520.7821300000001
 20
962.75205999999957
 30
0.0
 70
    16
  0
VERTEX
  5
61D
  8
1
 62
     7
 10
1520.7821300000001
 20
962.75205999999957
 30
0.0
 70
    16
  0
VERTEX
  5
61E
  8
1
 62
     7
 10
1520.7821300000001
 20
962.75205999999957
 30
0.0
 70
    16
  0
VERTEX
  5
61F
  8
1
 62
     7
 10
1520.7821300000001
 20
962.75205999999957
 30
0.0
 70
    16
  0
VERTEX
  5
620
  8
1
 62
     7
 10
1520.67913
 20
962.83855999999992
 30
0.0
 70
    16
  0
VERTEX
  5
621
  8
1
 62
     7
 10
1520.67913
 20
962.83855999999992
 30
0.0
 70
    16
  0
VERTEX
  5
622
  8
1
 62
     7
 10
1520.67913
 20
962.83855999999992
 30
0.0
 70
    16
  0
VERTEX
  5
623
  8
1
 62
     7
 10
1520.17713
 20
963.25106000000005
 30
0.0
 70
    16
  0
VERTEX
  5
624
  8
1
 62
     7
 10
1519.9411299999999
 20
963.24605999999994
 30
0.0
 70
    16
  0
VERTEX
  5
625
  8
1
 62
     7
 10
1519.3026299999999
 20
963.30755999999974
 30
0.0
 70
    16
  0
VERTEX
  5
626
  8
1
 62
     7
 10
1519.3026299999999
 20
963.30755999999974
 30
0.0
 70
    16
  0
VERTEX
  5
627
  8
1
 62
     7
 10
1497.46063
 20
965.41456000000005
 30
0.0
 70
    16
  0
VERTEX
  5
628
  8
1
 62
     7
 10
1500.7336299999999
 20
977.80505999999957
 30
0.0
 70
    16
  0
VERTEX
  5
629
  8
1
 62
     7
 10
1500.6906300000001
 20
997.28456000000006
 30
0.0
 70
    16
  0
VERTEX
  5
62A
  8
1
 62
     7
 10
1500.6906300000001
 20
997.28456000000006
 30
0.0
 70
    16
  0
VERTEX
  5
62B
  8
1
 62
     7
 10
1500.6906300000001
 20
997.28456000000006
 30
0.0
 70
    16
  0
VERTEX
  5
62C
  8
1
 62
     7
 10
1500.5891300000001
 20
1042.6800599999999
 30
0.0
 70
    16
  0
VERTEX
  5
62D
  8
1
 62
     7
 10
1500.5891300000001
 20
1042.6800599999999
 30
0.0
 70
    16
  0
SEQEND
  5
62E
  8
1
 62
     7
  0
DIMENSION
  5
62F
  8
LAYER01
 62
     1
  2
*D5
 10
1500.5891300000001
 20
1193.9501359999999
 30
0.0
 11
1448.1113379999999
 21
1223.9501359999999
 31
0.0
 13
1395.6335469999999
 23
1120.471395
 33
0.0
 14
1500.5891300000001
 24
1120.471395
 34
0.0
  0
DIMENSION
  5
630
  8
LAYER01
 62
     1
  2
*D6
 10
1395.637003
 20
871.21201900000005
 30
0.0
 11
1475.637003
 21
901.21201900000005
 31
0.0
 13
1555.637003
 23
913.43184799999995
 33
0.0
 14
1395.637003
 24
913.43184799999995
 34
0.0
  0
LINE
  5
631
  8
LAYER01
  6
CONTINUOUS
 62
     7
 10
-318.65336000000002
 20
983.81919700000003
 30
0.0
 11
-171.014363
 21
836.18019900000002
 31
0.0
  0
LINE
  5
632
  8
LAYER01
  6
CONTINUOUS
 62
     7
 10
33.991914000000001
 20
1319.4939079999999
 30
0.0
 11
-310.16807899999998
 21
975.33391500000005
 31
0.0
  0
LINE
  5
633
  8
LAYER01
  6
CONTINUOUS
 62
     7
 10
29.021350999999999
 20
1331.4939079999999
 30
0.0
 11
-318.65336000000002
 21
983.81919700000003
 31
0.0
  0
DIMENSION
  5
634
  8
LAYER01
 62
     1
  2
*D7
 10
1440.6335469999999
 20
1134.9929979999999
 30
0.0
 11
1471.8924500000001
 21
1164.9929979999999
 31
0.0
 13
1395.6335469999999
 23
1113.0711630000001
 33
0.0
 14
1440.6335469999999
 24
1113.0711630000001
 34
0.0
  0
TEXT
  5
635
  8
LAYER01
  6
CONTINUOUS
 62
     7
 10
-592.48510999999985
 20
322.66979500000002
 30
0.0
 40
35.0
  1
Eck-Waschtischanlage, Modell PASSO, barrierefrei,
  7
SIMPLEX
  0
TEXT
  5
636
  8
LAYER01
  6
CONTINUOUS
 62
     7
 10
-592.48510999999985
 20
262.66979500000002
 30
0.0
 40
35.0
  1
aus polymer-gebundenem Mineral-Massivwerkstoff VARICOR,
  7
SIMPLEX
  0
TEXT
  5
637
  8
LAYER01
  6
CONTINUOUS
 62
     7
 10
-592.48510999999985
 20
202.66979499999999
 30
0.0
 40
35.0
  1
mit ovalem Becken, ohne Hahnlochbank, Innenmaß 475x355 mm
  7
SIMPLEX
  0
TEXT
  5
638
  8
LAYER01
  6
CONTINUOUS
 62
     7
 10
-592.48510999999985
 20
142.66979499999999
 30
0.0
 40
35.0
  1
ohne Überlauf, mit Lochbohrung für Einlochbatterie,
  7
SIMPLEX
  0
TEXT
  5
639
  8
LAYER01
  6
CONTINUOUS
 62
     7
 10
-592.48510999999985
 20
82.669794999999965
 30
0.0
 40
35.0
  1
Waschtischtiefe im Beckenbereich (Mitte) 500 mm,
  7
SIMPLEX
  0
TEXT
  5
63A
  8
LAYER01
  6
CONTINUOUS
 62
     7
 10
-592.48510999999985
 20
22.669795000000001
 30
0.0
 40
35.0
  1
mit Frontblende Höhe 50 mm, angeformter
  7
SIMPLEX
  0
TEXT
  5
63B
  8
LAYER01
  6
CONTINUOUS
 62
     7
 10
-592.48510999999985
 20
-37.330204999999999
 30
0.0
 40
35.0
  1
Wischleiste Höhe 40 mm mit Hohlkehle,
  7
SIMPLEX
  0
TEXT
  5
63D
  8
LAYER01
  6
CONTINUOUS
 62
     7
 10
-592.48510999999985
 20
-157.33020500000001
 30
0.0
 40
35.0
  1
hinten abgeschrägt
  7
SIMPLEX
  0
TEXT
  5
63E
  8
LAYER01
  6
CONTINUOUS
 62
     7
 10
-592.48510999999985
 20
-217.33020500000001
 30
0.0
 40
35.0
  1
(optional mit Eckabschluss)
  7
SIMPLEX
  0
TEXT
  5
63F
  8
LAYER01
  6
CONTINUOUS
 62
     7
 10
-592.48510999999985
 20
-277.33020499999998
 30
0.0
 40
35.0
  1

  7
SIMPLEX
  0
TEXT
  5
640
  8
LAYER01
  6
CONTINUOUS
 62
     7
 10
-592.48510999999985
 20
-337.33020499999998
 30
0.0
 40
35.0
  1

  7
SIMPLEX
  0
POLYLINE
  5
641
  8
LAYER01
  6
CONTINUOUS
 62
     7
 66
     1
 10
0.0
 20
0.0
 30
0.0
 70
     1
  0
VERTEX
  5
11CE
  8
LAYER01
  6
CONTINUOUS
 62
     7
 10
-915.52938599999982
 20
-566.07073500000001
 30
0.0
  0
VERTEX
  5
11CF
  8
LAYER01
  6
CONTINUOUS
 62
     7
 10
-915.52938599999982
 20
2177.5929769999998
 30
0.0
  0
VERTEX
  5
11D0
  8
LAYER01
  6
CONTINUOUS
 62
     7
 10
3020.7429889999999
 20
2177.5929769999998
 30
0.0
  0
VERTEX
  5
11D1
  8
LAYER01
  6
CONTINUOUS
 62
     7
 10
3020.7429889999999
 20
-566.07073500000001
 30
0.0
  0
SEQEND
  5
11D2
  8
LAYER01
  6
CONTINUOUS
 62
     7
  0
INSERT
  5
647
  8
LAYER01
  2
PASSO-G7
 10
0.0
 20
0.0
 30
0.0
  0
TEXT
  5
648
  8
LAYER01
  6
CONTINUOUS
 62
     1
 10
2108.8198980000002
 20
-513.64160400000003
 30
0.0
 40
42.0
  1
61xxx
  7
SIMPLEX
  0
INSERT
  5
649
  8
LAYER01
  2
PASSO-G8
 10
0.0
 20
0.0
 30
0.0
  0
TEXT
  5
64A
  8
LAYER01
  6
VERDECKT
 62
     1
 10
2421.3057090000002
 20
-272.64752299999998
 30
0.0
 40
30.0
  1
A. Sprenger GmbH
  7
SIMPLEX
  0
TEXT
  5
64B
  8
LAYER01
  6
CONTINUOUS
 62
     7
 10
2411.5735210000012
 20
-86.861520999999996
 30
0.0
 40
9.0
  1
Diese Zeichnung ist geistiges Eigentum der A. Sprenger GmbH
  7
SIMPLEX
  0
TEXT
  5
64C
  8
LAYER01
  6
CONTINUOUS
 62
     7
 10
2411.5735210000012
 20
-102.290092
 30
0.0
 40
9.0
  1
und urheberrechtlich geschützt. Ohne unsere Zustimmung darf 
  7
SIMPLEX
  0
TEXT
  5
64D
  8
LAYER01
  6
CONTINUOUS
 62
     7
 10
2411.5735210000012
 20
-117.718664
 30
0.0
 40
9.0
  1
sie in keiner Form verwendet oder Dritten zugänglich gemacht
  7
SIMPLEX
  0
TEXT
  5
64E
  8
LAYER01
  6
CONTINUOUS
 62
     7
 10
2411.5735210000012
 20
-133.14723499999999
 30
0.0
 40
9.0
  1
werden. (§106 Urheberrecht)
  7
SIMPLEX
  0
TEXT
  5
64F
  8
LAYER01
  6
VERDECKT
 62
     1
 10
2421.3057090000002
 20
-390.46698400000002
 30
0.0
 40
42.0
  1
Modell Passo
  7
SIMPLEX
  0
TEXT
  5
650
  8
LAYER01
  6
VERDECKT
 62
     1
 10
2143.3064330000011
 20
-342.10928100000001
 30
0.0
 40
12.0
  1
7.8.2013
  7
SIMPLEX
  0
TEXT
  5
651
  8
LAYER01
  6
VERDECKT
 62
     1
 10
2258.695021
 20
-342.15312499999999
 30
0.0
 40
12.0
  1
b.s.
  7
SIMPLEX
  0
TEXT
  5
652
  8
LAYER01
  6
VERDECKT
 62
     1
 10
2500.4381819999999
 20
-195.273549
 30
0.0
 40
12.0
  1
1 : 10 (DIN A3)
  7
SIMPLEX
  0
TEXT
  5
653
  8
LAYER01
  6
VERDECKT
 62
     1
 10
2809.7124950000002
 20
-195.273549
 30
0.0
 40
12.0
  1
passo.skd
  7
SIMPLEX
  0
LINE
  5
654
  8
LAYER01
  6
VERDECKT
 62
     5
 10
131.364497
 20
1433.837053
 30
0.0
 11
231.364497
 21
1333.837053
 31
0.0
  0
LINE
  5
655
  8
LAYER01
  6
VERDECKT
 62
     5
 10
131.364497
 20
1433.837053
 30
0.0
 11
31.364497
 21
1333.837053
 31
0.0
  0
DIMENSION
  5
656
  8
LAYER01
 62
     1
  2
*D11
 10
31.364497
 20
1502.7110029999999
 30
0.0
 11
131.364497
 21
1532.7110029999999
 31
0.0
 13
231.364497
 23
1333.837053
 33
0.0
 14
31.364497
 24
1333.837053
 34
0.0
  0
DIMENSION
  5
657
  8
LAYER01
 62
     1
  2
*D12
 10
719.52584000000002
 20
833.83705299999986
 30
0.0
 11
689.52584000000002
 21
1133.837053
 31
0.0
 53
90.0
 13
581.38235299999985
 23
1433.837053
 33
0.0
 14
581.38235299999985
 24
833.83705299999986
 34
0.0
 50
90.0
  0
LINE
  5
658
  8
LAYER01
  6
CONTINUOUS
 62
     7
 10
581.38235299999985
 20
983.81919700000003
 30
0.0
 11
433.74335600000001
 21
836.18019900000002
 31
0.0
  0
LINE
  5
659
  8
LAYER01
  6
CONTINUOUS
 62
     7
 10
233.70764199999999
 20
1331.4939079999999
 30
0.0
 11
581.38235299999985
 21
983.81919700000003
 31
0.0
  0
POLYLINE
  5
65A
  8
LAYER01
  6
CONTINUOUS
 62
     7
 66
     1
 10
0.0
 20
0.0
 30
0.0
 70
     1
  0
VERTEX
  5
11D3
  8
LAYER01
  6
CONTINUOUS
 62
     7
 10
368.86449699999997
 20
1051.337053
 30
0.0
 42
0.127201
  0
VERTEX
  5
11D4
  8
LAYER01
  6
CONTINUOUS
 62
     7
 10
352.03330599999998
 20
1116.426618
 30
0.0
 42
0.10612
  0
VERTEX
  5
11D5
  8
LAYER01
  6
CONTINUOUS
 62
     7
 10
299.30235699999997
 20
1176.8485069999999
 30
0.0
 42
0.085609
  0
VERTEX
  5
11D6
  8
LAYER01
  6
CONTINUOUS
 62
     7
 10
225.031294
 20
1214.6704769999999
 30
0.0
 42
0.075195
  0
VERTEX
  5
11D7
  8
LAYER01
  6
CONTINUOUS
 62
     7
 10
131.364497
 20
1228.837053
 30
0.0
 42
0.075195
  0
VERTEX
  5
11D8
  8
LAYER01
  6
CONTINUOUS
 62
     7
 10
37.697699
 20
1214.6704769999999
 30
0.0
 42
0.085609
  0
VERTEX
  5
11D9
  8
LAYER01
  6
CONTINUOUS
 62
     7
 10
-36.573363999999998
 20
1176.8485069999999
 30
0.0
 42
0.10612
  0
VERTEX
  5
11DA
  8
LAYER01
  6
CONTINUOUS
 62
     7
 10
-89.304312999999979
 20
1116.426618
 30
0.0
 42
0.127201
  0
VERTEX
  5
11DB
  8
LAYER01
  6
CONTINUOUS
 62
     7
 10
-106.135503
 20
1051.337053
 30
0.0
 42
0.127201
  0
VERTEX
  5
11DC
  8
LAYER01
  6
CONTINUOUS
 62
     7
 10
-89.304312999999979
 20
986.24748799999998
 30
0.0
 42
0.10612
  0
VERTEX
  5
11DD
  8
LAYER01
  6
CONTINUOUS
 62
     7
 10
-36.573363999999998
 20
925.82560000000012
 30
0.0
 42
0.085609
  0
VERTEX
  5
11DE
  8
LAYER01
  6
CONTINUOUS
 62
     7
 10
37.697699
 20
888.00363000000004
 30
0.0
 42
0.075195
  0
VERTEX
  5
11DF
  8
LAYER01
  6
CONTINUOUS
 62
     7
 10
131.364497
 20
873.83705299999986
 30
0.0
 42
0.075195
  0
VERTEX
  5
11E0
  8
LAYER01
  6
CONTINUOUS
 62
     7
 10
225.031294
 20
888.00363000000004
 30
0.0
 42
0.085609
  0
VERTEX
  5
11E1
  8
LAYER01
  6
CONTINUOUS
 62
     7
 10
299.30235699999997
 20
925.82560000000012
 30
0.0
 42
0.10612
  0
VERTEX
  5
11E2
  8
LAYER01
  6
CONTINUOUS
 62
     7
 10
352.03330599999998
 20
986.24748799999998
 30
0.0
 42
0.127201
  0
SEQEND
  5
11E3
  8
LAYER01
  6
CONTINUOUS
 62
     7
  0
LINE
  5
66C
  8
LAYER01
  6
STRICHPUNKTIERT
 62
     6
 10
131.364497
 20
1315.7800199999999
 30
0.0
 11
131.364497
 21
859.58271300000013
 31
0.0
  0
LINE
  5
66D
  8
LAYER01
  6
VERDECKT
 62
     5
 10
572.89707199999975
 20
992.3044779999999
 30
0.0
 11
426.42964699999987
 21
845.83705299999986
 31
0.0
  0
LINE
  5
66E
  8
LAYER01
  6
VERDECKT
 62
     5
 10
-163.7006539999999
 20
845.83705299999986
 30
0.0
 11
426.42964699999987
 21
845.83705299999986
 31
0.0
  0
DIMENSION
  5
66F
  8
LAYER01
 62
     1
  2
*D13
 10
-168.67121700000001
 20
687.89419699999985
 30
0.0
 11
131.364497
 21
717.89419699999985
 31
0.0
 13
431.40020999999979
 23
833.83705299999986
 33
0.0
 14
-168.67121700000001
 24
833.83705299999986
 34
0.0
  0
DIMENSION
  5
670
  8
LAYER01
 62
     1
  2
*D14
 10
-106.135503
 20
770.9238889999998
 30
0.0
 11
131.364497
 21
800.92388899999969
 31
0.0
 13
368.86449699999997
 23
833.83705299999986
 33
0.0
 14
-106.135503
 24
833.83705299999986
 34
0.0
  0
LINE
  5
671
  8
LAYER01
  6
CONTINUOUS
 62
     7
 10
-165.357508
 20
833.83705299999986
 30
0.0
 11
428.086501
 21
833.83705299999986
 31
0.0
  0
ARC
  5
672
  8
LAYER01
  6
CONTINUOUS
 62
     7
 10
-165.357508
 20
841.83705299999986
 30
0.0
 40
8.0
 50
225.0
 51
270.0
  0
ARC
  5
673
  8
LAYER01
  6
CONTINUOUS
 62
     7
 10
428.086501
 20
841.83705299999986
 30
0.0
 40
8.0
 50
270.0
 51
315.0
  0
LINE
  5
674
  8
LAYER01
  6
STRICHPUNKTIERT
 62
     6
 10
-168.67121700000001
 20
1051.337053
 30
0.0
 11
418.36729699999989
 21
1051.337053
 31
0.0
  0
LINE
  5
675
  8
LAYER01
  6
STRICHPUNKTIERT
 62
     6
 10
98.789385999999993
 20
1288.837053
 30
0.0
 11
165.51454699999999
 21
1288.837053
 31
0.0
  0
CIRCLE
  5
676
  8
LAYER01
  6
CONTINUOUS
 62
     7
 10
131.364497
 20
1173.837053
 30
0.0
 40
23.0
  0
CIRCLE
  5
677
  8
LAYER01
  6
CONTINUOUS
 62
     7
 10
131.364497
 20
1173.837053
 30
0.0
 40
28.0
  0
LINE
  5
678
  8
LAYER01
  6
STRICHPUNKTIERT
 62
     6
 10
82.026681000000025
 20
1173.837053
 30
0.0
 11
183.35105100000001
 21
1173.837053
 31
0.0
  0
LINE
  5
679
  8
LAYER01
  6
CONTINUOUS
 62
     7
 10
39.648767999999997
 20
1321.837053
 30
0.0
 11
223.08022500000001
 21
1321.837053
 31
0.0
  0
LINE
  5
67A
  8
LAYER01
  6
CONTINUOUS
 62
     7
 10
34.678204999999998
 20
1333.837053
 30
0.0
 11
228.05078800000001
 21
1333.837053
 31
0.0
  0
DIMENSION
  5
67B
  8
LAYER01
 62
     1
  2
*D15
 10
155.67102399999999
 20
1248.812623
 30
0.0
 11
248.67844299999999
 21
1248.812623
 31
0.0
 70
     3
 15
140.44824700000001
 25
1273.8792639999999
 35
0.0
 40
29.326940000000011
  0
DIMENSION
  5
67C
  8
LAYER01
 62
     1
  2
*D16
 10
159.01688100000001
 20
1130.0347220000001
 30
0.0
 11
237.92658900000001
 21
1130.0347220000001
 31
0.0
 70
     3
 15
143.642448
 25
1154.3883539999999
 35
0.0
 40
28.800564999999999
  0
CIRCLE
  5
67D
  8
LAYER01
  6
CONTINUOUS
 62
     7
 10
131.364497
 20
1288.837053
 30
0.0
 40
17.5
  0
ARC
  5
67E
  8
LAYER01
  6
CONTINUOUS
 62
     7
 10
39.648767999999997
 20
1313.837053
 30
0.0
 40
8.0
 50
90.0
 51
135.0
  0
ARC
  5
67F
  8
LAYER01
  6
CONTINUOUS
 62
     7
 10
34.678204999999998
 20
1325.837053
 30
0.0
 40
8.0
 50
90.0
 51
135.0
  0
LINE
  5
680
  8
LAYER01
  6
CONTINUOUS
 62
     7
 10
228.73707999999999
 20
1319.4939079999999
 30
0.0
 11
572.89707199999975
 21
975.33391500000005
 31
0.0
  0
ARC
  5
681
  8
LAYER01
  6
CONTINUOUS
 62
     7
 10
223.08022500000001
 20
1313.837053
 30
0.0
 40
8.0
 50
45.0
 51
90.0
  0
ARC
  5
682
  8
LAYER01
  6
CONTINUOUS
 62
     7
 10
228.05078800000001
 20
1325.837053
 30
0.0
 40
8.0
 50
45.0
 51
90.0
  0
DIMENSION
  5
683
  8
LAYER01
 62
     1
  2
*D17
 10
639.31071399999985
 20
1333.837053
 30
0.0
 11
609.31071399999985
 21
1083.837053
 31
0.0
 53
90.0
 13
581.38235299999985
 23
833.83705299999986
 33
0.0
 14
581.38235299999985
 24
1333.837053
 34
0.0
 50
90.0
  0
DIMENSION
  5
684
  8
LAYER01
 62
     1
  2
*D18
 10
1288.7796949999999
 20
1088.264977
 30
0.0
 11
1258.7796949999999
 21
1175.5506909999999
 31
0.0
 53
90.0
 13
1394.6709169999999
 23
1048.2655130000001
 33
0.0
 14
1394.6709169999999
 24
1088.264977
 34
0.0
 50
90.0
  0
LINE
  5
685
  8
LAYER01
  6
CONTINUOUS
 62
     7
 10
1423.1335469999999
 20
1048.2655130000001
 30
0.0
 11
1423.1335469999999
 21
1037.777394
 31
0.0
  0
DIMENSION
  5
686
  8
LAYER01
 62
     1
  2
*D19
 10
1230.3777419999999
 20
938.53939200000002
 30
0.0
 11
1200.3777419999999
 21
1013.402185
 31
0.0
 53
90.0
 13
1385.454422
 23
1088.264977
 33
0.0
 14
1385.454422
 24
938.53939200000002
 34
0.0
 50
90.0
  0
POLYLINE
  5
687
  8
1
  6
CONTINUOUS
 62
     7
 66
     1
 10
0.0
 20
0.0
 30
0.0
 70
     4
  0
VERTEX
  5
688
  8
1
 62
     7
 10
1850.2401299999999
 20
1029.3070600000001
 30
0.0
 70
    16
  0
VERTEX
  5
689
  8
1
 62
     7
 10
1850.2401299999999
 20
1029.3070600000001
 30
0.0
 70
     8
  0
VERTEX
  5
68A
  8
1
 62
     7
 10
1837.675258
 20
1014.161853
 30
0.0
 70
     8
  0
VERTEX
  5
68B
  8
1
 62
     7
 10
1823.220795
 20
1001.991245
 30
0.0
 70
     8
  0
VERTEX
  5
68C
  8
1
 62
     7
 10
1807.17607
 20
992.44530399999985
 30
0.0
 70
     8
  0
VERTEX
  5
68D
  8
1
 62
     7
 10
1789.8404129999999
 20
985.17409899999996
 30
0.0
 70
     8
  0
VERTEX
  5
68E
  8
1
 62
     7
 10
1771.5131510000001
 20
979.82769900000005
 30
0.0
 70
     8
  0
VERTEX
  5
68F
  8
1
 62
     7
 10
1752.493614
 20
976.05617199999995
 30
0.0
 70
     8
  0
VERTEX
  5
690
  8
1
 62
     7
 10
1733.0811309999999
 20
973.50958699999956
 30
0.0
 70
     8
  0
VERTEX
  5
691
  8
1
 62
     7
 10
1713.5750310000001
 20
971.83801299999993
 30
0.0
 70
     8
  0
VERTEX
  5
692
  8
1
 62
     7
 10
1694.274643
 20
970.69151799999986
 30
0.0
 70
     8
  0
VERTEX
  5
693
  8
1
 62
     7
 10
1675.4792970000001
 20
969.72017099999994
 30
0.0
 70
     8
  0
VERTEX
  5
694
  8
1
 62
     7
 10
1675.4792970000001
 20
969.72017099999994
 30
0.0
 70
     8
  0
VERTEX
  5
695
  8
1
 62
     7
 10
1666.3686600000001
 20
969.20004100000006
 30
0.0
 70
     8
  0
VERTEX
  5
696
  8
1
 62
     7
 10
1657.5211670000001
 20
968.64777200000003
 30
0.0
 70
     8
  0
VERTEX
  5
697
  8
1
 62
     7
 10
1648.998869
 20
968.07491899999957
 30
0.0
 70
     8
  0
VERTEX
  5
698
  8
1
 62
     7
 10
1640.863818
 20
967.49303999999995
 30
0.0
 70
     8
  0
VERTEX
  5
699
  8
1
 62
     7
 10
1633.1780650000001
 20
966.91369099999997
 30
0.0
 70
     8
  0
VERTEX
  5
69A
  8
1
 62
     7
 10
1626.003661
 20
966.3484289999999
 30
0.0
 70
     8
  0
VERTEX
  5
69B
  8
1
 62
     7
 10
1619.402658
 20
965.80880899999988
 30
0.0
 70
     8
  0
VERTEX
  5
69C
  8
1
 62
     7
 10
1613.437107
 20
965.30638899999997
 30
0.0
 70
     8
  0
VERTEX
  5
69D
  8
1
 62
     7
 10
1608.169059999999
 20
964.85272499999985
 30
0.0
 70
     8
  0
VERTEX
  5
69E
  8
1
 62
     7
 10
1603.6605669999999
 20
964.45937300000003
 30
0.0
 70
     8
  0
VERTEX
  5
69F
  8
1
 62
     7
 10
1603.6605669999999
 20
964.45937300000003
 30
0.0
 70
     8
  0
VERTEX
  5
6A0
  8
1
 62
     7
 10
1599.949646
 20
964.13476600000001
 30
0.0
 70
     8
  0
VERTEX
  5
6A1
  8
1
 62
     7
 10
1596.9781700000001
 20
963.87483999999984
 30
0.0
 70
     8
  0
VERTEX
  5
6A2
  8
1
 62
     7
 10
1594.6639789999999
 20
963.67241000000001
 30
0.0
 70
     8
  0
VERTEX
  5
6A3
  8
1
 62
     7
 10
1592.9249119999999
 20
963.52028800000005
 30
0.0
 70
     8
  0
VERTEX
  5
6A4
  8
1
 62
     7
 10
1591.6788100000001
 20
963.41128700000002
 30
0.0
 70
     8
  0
VERTEX
  5
6A5
  8
1
 62
     7
 10
1590.8435099999999
 20
963.33821999999975
 30
0.0
 70
     8
  0
VERTEX
  5
6A6
  8
1
 62
     7
 10
1590.336853
 20
963.29390099999989
 30
0.0
 70
     8
  0
VERTEX
  5
6A7
  8
1
 62
     7
 10
1590.076677
 20
963.27114299999982
 30
0.0
 70
     8
  0
VERTEX
  5
6A8
  8
1
 62
     7
 10
1589.9808230000001
 20
963.26275799999985
 30
0.0
 70
     8
  0
VERTEX
  5
6A9
  8
1
 62
     7
 10
1589.96713
 20
963.26156000000015
 30
0.0
 70
     8
  0
VERTEX
  5
6AA
  8
1
 62
     7
 10
1589.96713
 20
963.26156000000015
 30
0.0
 70
     8
  0
VERTEX
  5
6AB
  8
1
 62
     7
 10
1589.9669080000001
 20
963.26145599999995
 30
0.0
 70
     8
  0
VERTEX
  5
6AC
  8
1
 62
     7
 10
1589.9653579999999
 20
963.26072399999998
 30
0.0
 70
     8
  0
VERTEX
  5
6AD
  8
1
 62
     7
 10
1589.961149
 20
963.25873699999988
 30
0.0
 70
     8
  0
VERTEX
  5
6AE
  8
1
 62
     7
 10
1589.9529540000001
 20
963.25486700000022
 30
0.0
 70
     8
  0
VERTEX
  5
6AF
  8
1
 62
     7
 10
1589.9394420000001
 20
963.24848699999984
 30
0.0
 70
     8
  0
VERTEX
  5
6B0
  8
1
 62
     7
 10
1589.9192860000001
 20
963.23896999999999
 30
0.0
 70
     8
  0
VERTEX
  5
6B1
  8
1
 62
     7
 10
1589.891155
 20
963.22568799999988
 30
0.0
 70
     8
  0
VERTEX
  5
6B2
  8
1
 62
     7
 10
1589.8537220000001
 20
963.20801400000005
 30
0.0
 70
     8
  0
VERTEX
  5
6B3
  8
1
 62
     7
 10
1589.805656
 20
963.18531900000005
 30
0.0
 70
     8
  0
VERTEX
  5
6B4
  8
1
 62
     7
 10
1589.7456299999999
 20
963.15697699999998
 30
0.0
 70
     8
  0
VERTEX
  5
6B5
  8
1
 62
     7
 10
1589.7456299999999
 20
963.15697699999998
 30
0.0
 70
     8
  0
VERTEX
  5
6B6
  8
1
 62
     7
 10
1589.6729780000001
 20
963.12267399999996
 30
0.0
 70
     8
  0
VERTEX
  5
6B7
  8
1
 62
     7
 10
1589.589694
 20
963.08334999999988
 30
0.0
 70
     8
  0
VERTEX
  5
6B8
  8
1
 62
     7
 10
1589.4984360000001
 20
963.04026199999964
 30
0.0
 70
     8
  0
VERTEX
  5
6B9
  8
1
 62
     7
 10
1589.4018619999999
 20
962.99466399999994
 30
0.0
 70
     8
  0
VERTEX
  5
6BA
  8
1
 62
     7
 10
1589.3026299999999
 20
962.94781
 30
0.0
 70
     8
  0
VERTEX
  5
6BB
  8
1
 62
     7
 10
1589.2033980000001
 20
962.90095699999995
 30
0.0
 70
     8
  0
VERTEX
  5
6BC
  8
1
 62
     7
 10
1589.106824
 20
962.85535900000002
 30
0.0
 70
     8
  0
VERTEX
  5
6BD
  8
1
 62
     7
 10
1589.015566
 20
962.81226999999956
 30
0.0
 70
     8
  0
VERTEX
  5
6BE
  8
1
 62
     7
 10
1588.932282
 20
962.77294700000004
 30
0.0
 70
     8
  0
VERTEX
  5
6BF
  8
1
 62
     7
 10
1588.8596299999999
 20
962.73864399999979
 30
0.0
 70
     8
  0
VERTEX
  5
6C0
  8
1
 62
     7
 10
1588.8596299999999
 20
962.73864399999979
 30
0.0
 70
     8
  0
VERTEX
  5
6C1
  8
1
 62
     7
 10
1588.7996029999999
 20
962.71030199999996
 30
0.0
 70
     8
  0
VERTEX
  5
6C2
  8
1
 62
     7
 10
1588.751538
 20
962.68760699999984
 30
0.0
 70
     8
  0
VERTEX
  5
6C3
  8
1
 62
     7
 10
1588.7141039999999
 20
962.66993200000002
 30
0.0
 70
     8
  0
VERTEX
  5
6C4
  8
1
 62
     7
 10
1588.685974
 20
962.65665000000001
 30
0.0
 70
     8
  0
VERTEX
  5
6C5
  8
1
 62
     7
 10
1588.6658170000001
 20
962.64713300000005
 30
0.0
 70
     8
  0
VERTEX
  5
6C6
  8
1
 62
     7
 10
1588.652306
 20
962.64075399999979
 30
0.0
 70
     8
  0
VERTEX
  5
6C7
  8
1
 62
     7
 10
1588.64411
 20
962.6368839999999
 30
0.0
 70
     8
  0
VERTEX
  5
6C8
  8
1
 62
     7
 10
1588.6399019999999
 20
962.63489700000002
 30
0.0
 70
     8
  0
VERTEX
  5
6C9
  8
1
 62
     7
 10
1588.6383510000001
 20
962.63416500000005
 30
0.0
 70
     8
  0
VERTEX
  5
6CA
  8
1
 62
     7
 10
1588.63813
 20
962.63405999999998
 30
0.0
 70
     8
  0
VERTEX
  5
6CB
  8
1
 62
     7
 10
1588.63813
 20
962.63405999999998
 30
0.0
 70
     8
  0
VERTEX
  5
6CC
  8
1
 62
     7
 10
1588.63813
 20
962.63405999999998
 30
0.0
 70
     8
  0
VERTEX
  5
6CD
  8
1
 62
     7
 10
1588.6380349999999
 20
962.63397699999985
 30
0.0
 70
     8
  0
VERTEX
  5
6CE
  8
1
 62
     7
 10
1588.6373679999999
 20
962.63339299999996
 30
0.0
 70
     8
  0
VERTEX
  5
6CF
  8
1
 62
     7
 10
1588.6355579999999
 20
962.63180799999998
 30
0.0
 70
     8
  0
VERTEX
  5
6D0
  8
1
 62
     7
 10
1588.632034
 20
962.62872200000004
 30
0.0
 70
     8
  0
VERTEX
  5
6D1
  8
1
 62
     7
 10
1588.6262240000001
 20
962.62363300000015
 30
0.0
 70
     8
  0
VERTEX
  5
6D2
  8
1
 62
     7
 10
1588.6175559999999
 20
962.61604199999988
 30
0.0
 70
     8
  0
VERTEX
  5
6D3
  8
1
 62
     7
 10
1588.6054590000001
 20
962.60544800000002
 30
0.0
 70
     8
  0
VERTEX
  5
6D4
  8
1
 62
     7
 10
1588.5893619999999
 20
962.59135100000003
 30
0.0
 70
     8
  0
VERTEX
  5
6D5
  8
1
 62
     7
 10
1588.5686929999999
 20
962.57324999999992
 30
0.0
 70
     8
  0
VERTEX
  5
6D6
  8
1
 62
     7
 10
1588.54288
 20
962.55064399999981
 30
0.0
 70
     8
  0
VERTEX
  5
6D7
  8
1
 62
     7
 10
1588.54288
 20
962.55064399999981
 30
0.0
 70
     8
  0
VERTEX
  5
6D8
  8
1
 62
     7
 10
1588.5116379999999
 20
962.52328299999988
 30
0.0
 70
     8
  0
VERTEX
  5
6D9
  8
1
 62
     7
 10
1588.4758240000001
 20
962.49191800000006
 30
0.0
 70
     8
  0
VERTEX
  5
6DA
  8
1
 62
     7
 10
1588.4365809999999
 20
962.45755099999974
 30
0.0
 70
     8
  0
VERTEX
  5
6DB
  8
1
 62
     7
 10
1588.3950520000001
 20
962.42118100000005
 30
0.0
 70
     8
  0
VERTEX
  5
6DC
  8
1
 62
     7
 10
1588.35238
 20
962.38380999999981
 30
0.0
 70
     8
  0
VERTEX
  5
6DD
  8
1
 62
     7
 10
1588.309708
 20
962.34644000000014
 30
0.0
 70
     8
  0
VERTEX
  5
6DE
  8
1
 62
     7
 10
1588.2681789999999
 20
962.31006999999966
 30
0.0
 70
     8
  0
VERTEX
  5
6DF
  8
1
 62
     7
 10
1588.228936
 20
962.27570199999991
 30
0.0
 70
     8
  0
VERTEX
  5
6E0
  8
1
 62
     7
 10
1588.1931219999999
 20
962.24433799999986
 30
0.0
 70
     8
  0
VERTEX
  5
6E1
  8
1
 62
     7
 10
1588.1618800000001
 20
962.21697700000016
 30
0.0
 70
     8
  0
VERTEX
  5
6E2
  8
1
 62
     7
 10
1588.1618800000001
 20
962.21697700000016
 30
0.0
 70
     8
  0
VERTEX
  5
6E3
  8
1
 62
     7
 10
1588.1360669999999
 20
962.19437100000005
 30
0.0
 70
     8
  0
VERTEX
  5
6E4
  8
1
 62
     7
 10
1588.1153979999999
 20
962.17627000000005
 30
0.0
 70
     8
  0
VERTEX
  5
6E5
  8
1
 62
     7
 10
1588.099301
 20
962.16217200000006
 30
0.0
 70
     8
  0
VERTEX
  5
6E6
  8
1
 62
     7
 10
1588.0872039999999
 20
962.15157799999986
 30
0.0
 70
     8
  0
VERTEX
  5
6E7
  8
1
 62
     7
 10
1588.078536
 20
962.14398700000015
 30
0.0
 70
     8
  0
VERTEX
  5
6E8
  8
1
 62
     7
 10
1588.0727260000001
 20
962.13889899999992
 30
0.0
 70
     8
  0
VERTEX
  5
6E9
  8
1
 62
     7
 10
1588.0692019999999
 20
962.13581299999998
 30
0.0
 70
     8
  0
VERTEX
  5
6EA
  8
1
 62
     7
 10
1588.0673919999999
 20
962.13422799999955
 30
0.0
 70
     8
  0
VERTEX
  5
6EB
  8
1
 62
     7
 10
1588.0667249999999
 20
962.133644
 30
0.0
 70
     8
  0
VERTEX
  5
6EC
  8
1
 62
     7
 10
1588.06663
 20
962.1335600000001
 30
0.0
 70
     8
  0
VERTEX
  5
6ED
  8
1
 62
     7
 10
1588.06663
 20
962.1335600000001
 30
0.0
 70
     8
  0
VERTEX
  5
6EE
  8
1
 62
     7
 10
1588.06663
 20
962.1335600000001
 30
0.0
 70
     8
  0
VERTEX
  5
6EF
  8
1
 62
     7
 10
1588.06663
 20
962.1335600000001
 30
0.0
 70
     8
  0
VERTEX
  5
6F0
  8
1
 62
     7
 10
1588.0666289999999
 20
962.1335600000001
 30
0.0
 70
     8
  0
VERTEX
  5
6F1
  8
1
 62
     7
 10
1588.066628
 20
962.13355800000011
 30
0.0
 70
     8
  0
VERTEX
  5
6F2
  8
1
 62
     7
 10
1588.0666249999999
 20
962.13355499999989
 30
0.0
 70
     8
  0
VERTEX
  5
6F3
  8
1
 62
     7
 10
1588.0666200000001
 20
962.13355000000001
 30
0.0
 70
     8
  0
VERTEX
  5
6F4
  8
1
 62
     7
 10
1588.0666120000001
 20
962.13354200000015
 30
0.0
 70
     8
  0
VERTEX
  5
6F5
  8
1
 62
     7
 10
1588.066601
 20
962.13353199999995
 30
0.0
 70
     8
  0
VERTEX
  5
6F6
  8
1
 62
     7
 10
1588.066587
 20
962.13351799999998
 30
0.0
 70
     8
  0
VERTEX
  5
6F7
  8
1
 62
     7
 10
1588.0665690000001
 20
962.13350000000003
 30
0.0
 70
     8
  0
VERTEX
  5
6F8
  8
1
 62
     7
 10
1588.0665469999999
 20
962.13347699999997
 30
0.0
 70
     8
  0
VERTEX
  5
6F9
  8
1
 62
     7
 10
1588.0665469999999
 20
962.13347699999997
 30
0.0
 70
     8
  0
VERTEX
  5
6FA
  8
1
 62
     7
 10
1588.066519
 20
962.13345000000015
 30
0.0
 70
     8
  0
VERTEX
  5
6FB
  8
1
 62
     7
 10
1588.0664879999999
 20
962.13341799999989
 30
0.0
 70
     8
  0
VERTEX
  5
6FC
  8
1
 62
     7
 10
1588.066454
 20
962.13338399999998
 30
0.0
 70
     8
  0
VERTEX
  5
6FD
  8
1
 62
     7
 10
1588.066417
 20
962.13334799999996
 30
0.0
 70
     8
  0
VERTEX
  5
6FE
  8
1
 62
     7
 10
1588.06638
 20
962.13331000000005
 30
0.0
 70
     8
  0
VERTEX
  5
6FF
  8
1
 62
     7
 10
1588.066343
 20
962.13327300000003
 30
0.0
 70
     8
  0
VERTEX
  5
700
  8
1
 62
     7
 10
1588.0663059999999
 20
962.13323700000012
 30
0.0
 70
     8
  0
VERTEX
  5
701
  8
1
 62
     7
 10
1588.066272
 20
962.13320199999998
 30
0.0
 70
     8
  0
VERTEX
  5
702
  8
1
 62
     7
 10
1588.066241
 20
962.13317099999995
 30
0.0
 70
     8
  0
VERTEX
  5
703
  8
1
 62
     7
 10
1588.0662130000001
 20
962.13314399999979
 30
0.0
 70
     8
  0
VERTEX
  5
704
  8
1
 62
     7
 10
1588.0662130000001
 20
962.13314399999979
 30
0.0
 70
     8
  0
VERTEX
  5
705
  8
1
 62
     7
 10
1588.0661909999999
 20
962.13312099999985
 30
0.0
 70
     8
  0
VERTEX
  5
706
  8
1
 62
     7
 10
1588.0661729999999
 20
962.13310299999955
 30
0.0
 70
     8
  0
VERTEX
  5
707
  8
1
 62
     7
 10
1588.066159
 20
962.13308900000015
 30
0.0
 70
     8
  0
VERTEX
  5
708
  8
1
 62
     7
 10
1588.0661480000001
 20
962.13307799999995
 30
0.0
 70
     8
  0
VERTEX
  5
709
  8
1
 62
     7
 10
1588.0661399999999
 20
962.13307099999997
 30
0.0
 70
     8
  0
VERTEX
  5
70A
  8
1
 62
     7
 10
1588.066135
 20
962.13306599999976
 30
0.0
 70
     8
  0
VERTEX
  5
70B
  8
1
 62
     7
 10
1588.0661319999999
 20
962.13306299999999
 30
0.0
 70
     8
  0
VERTEX
  5
70C
  8
1
 62
     7
 10
1588.066131
 20
962.13306099999988
 30
0.0
 70
     8
  0
VERTEX
  5
70D
  8
1
 62
     7
 10
1588.0661299999999
 20
962.13306
 30
0.0
 70
     8
  0
VERTEX
  5
70E
  8
1
 62
     7
 10
1588.0661299999999
 20
962.13306
 30
0.0
 70
     8
  0
VERTEX
  5
70F
  8
1
 62
     7
 10
1588.0661299999999
 20
962.13306
 30
0.0
 70
     8
  0
VERTEX
  5
710
  8
1
 62
     7
 10
1588.0661299999999
 20
962.13306
 30
0.0
 70
     8
  0
VERTEX
  5
711
  8
1
 62
     7
 10
1588.064431
 20
962.13157799999988
 30
0.0
 70
     8
  0
VERTEX
  5
712
  8
1
 62
     7
 10
1588.052541
 20
962.12120500000003
 30
0.0
 70
     8
  0
VERTEX
  5
713
  8
1
 62
     7
 10
1588.020268
 20
962.09304899999995
 30
0.0
 70
     8
  0
VERTEX
  5
714
  8
1
 62
     7
 10
1587.9574210000001
 20
962.03821800000003
 30
0.0
 70
     8
  0
VERTEX
  5
715
  8
1
 62
     7
 10
1587.853807
 20
961.94782099999998
 30
0.0
 70
     8
  0
VERTEX
  5
716
  8
1
 62
     7
 10
1587.6992359999999
 20
961.81296599999985
 30
0.0
 70
     8
  0
VERTEX
  5
717
  8
1
 62
     7
 10
1587.483516
 20
961.62476300000003
 30
0.0
 70
     8
  0
VERTEX
  5
718
  8
1
 62
     7
 10
1587.196455
 20
961.37431900000001
 30
0.0
 70
     8
  0
VERTEX
  5
719
  8
1
 62
     7
 10
1586.827863
 20
961.05274299999985
 30
0.0
 70
     8
  0
VERTEX
  5
71A
  8
1
 62
     7
 10
1586.3675470000001
 20
960.65114400000004
 30
0.0
 70
     8
  0
VERTEX
  5
71B
  8
1
 62
     7
 10
1586.3675470000001
 20
960.65114400000004
 30
0.0
 70
     8
  0
VERTEX
  5
71C
  8
1
 62
     7
 10
1585.8104109999999
 20
960.16507500000012
 30
0.0
 70
     8
  0
VERTEX
  5
71D
  8
1
 62
     7
 10
1585.171744
 20
959.60787400000015
 30
0.0
 70
     8
  0
VERTEX
  5
71E
  8
1
 62
     7
 10
1584.4719279999999
 20
958.99732499999993
 30
0.0
 70
     8
  0
VERTEX
  5
71F
  8
1
 62
     7
 10
1583.7313449999999
 20
958.35120900000015
 30
0.0
 70
     8
  0
VERTEX
  5
720
  8
1
 62
     7
 10
1582.97038
 20
957.68730999999957
 30
0.0
 70
     8
  0
VERTEX
  5
721
  8
1
 62
     7
 10
1582.209415
 20
957.02341199999955
 30
0.0
 70
     8
  0
VERTEX
  5
722
  8
1
 62
     7
 10
1581.468832
 20
956.37729599999989
 30
0.0
 70
     8
  0
VERTEX
  5
723
  8
1
 62
     7
 10
1580.769016
 20
955.76674600000013
 30
0.0
 70
     8
  0
VERTEX
  5
724
  8
1
 62
     7
 10
1580.130349
 20
955.20954600000005
 30
0.0
 70
     8
  0
VERTEX
  5
725
  8
1
 62
     7
 10
1579.5732129999999
 20
954.72347700000012
 30
0.0
 70
     8
  0
VERTEX
  5
726
  8
1
 62
     7
 10
1579.5732129999999
 20
954.72347700000012
 30
0.0
 70
     8
  0
VERTEX
  5
727
  8
1
 62
     7
 10
1579.112897
 20
954.32187799999997
 30
0.0
 70
     8
  0
VERTEX
  5
728
  8
1
 62
     7
 10
1578.7443049999999
 20
954.00030199999981
 30
0.0
 70
     8
  0
VERTEX
  5
729
  8
1
 62
     7
 10
1578.4572439999999
 20
953.74985800000013
 30
0.0
 70
     8
  0
VERTEX
  5
72A
  8
1
 62
     7
 10
1578.241524
 20
953.56165399999986
 30
0.0
 70
     8
  0
VERTEX
  5
72B
  8
1
 62
     7
 10
1578.086953
 20
953.42679999999984
 30
0.0
 70
     8
  0
VERTEX
  5
72C
  8
1
 62
     7
 10
1577.9833389999999
 20
953.3364029999999
 30
0.0
 70
     8
  0
VERTEX
  5
72D
  8
1
 62
     7
 10
1577.920492
 20
953.28157199999998
 30
0.0
 70
     8
  0
VERTEX
  5
72E
  8
1
 62
     7
 10
1577.8882189999999
 20
953.25341600000002
 30
0.0
 70
     8
  0
VERTEX
  5
72F
  8
1
 62
     7
 10
1577.8763289999999
 20
953.24304199999983
 30
0.0
 70
     8
  0
VERTEX
  5
730
  8
1
 62
     7
 10
1577.87463
 20
953.24156000000005
 30
0.0
 70
     8
  0
VERTEX
  5
731
  8
1
 62
     7
 10
1577.87463
 20
953.24156000000005
 30
0.0
 70
     8
  0
VERTEX
  5
732
  8
1
 62
     7
 10
1577.87463
 20
953.24156000000005
 30
0.0
 70
     8
  0
VERTEX
  5
733
  8
1
 62
     7
 10
1577.8746309999999
 20
953.23913000000005
 30
0.0
 70
     8
  0
VERTEX
  5
734
  8
1
 62
     7
 10
1577.874638
 20
953.22211899999991
 30
0.0
 70
     8
  0
VERTEX
  5
735
  8
1
 62
     7
 10
1577.8746570000001
 20
953.17594599999995
 30
0.0
 70
     8
  0
VERTEX
  5
736
  8
1
 62
     7
 10
1577.8746940000001
 20
953.08603000000005
 30
0.0
 70
     8
  0
VERTEX
  5
737
  8
1
 62
     7
 10
1577.8747550000001
 20
952.93778899999995
 30
0.0
 70
     8
  0
VERTEX
  5
738
  8
1
 62
     7
 10
1577.8748459999999
 20
952.71664399999997
 30
0.0
 70
     8
  0
VERTEX
  5
739
  8
1
 62
     7
 10
1577.874973
 20
952.40801299999987
 30
0.0
 70
     8
  0
VERTEX
  5
73A
  8
1
 62
     7
 10
1577.8751420000001
 20
951.99731499999996
 30
0.0
 70
     8
  0
VERTEX
  5
73B
  8
1
 62
     7
 10
1577.8753589999999
 20
951.46996899999999
 30
0.0
 70
     8
  0
VERTEX
  5
73C
  8
1
 62
     7
 10
1577.87563
 20
950.81139399999995
 30
0.0
 70
     8
  0
VERTEX
  5
73D
  8
1
 62
     7
 10
1577.87563
 20
950.81139399999995
 30
0.0
 70
     8
  0
VERTEX
  5
73E
  8
1
 62
     7
 10
1577.8759580000001
 20
950.01429900000005
 30
0.0
 70
     8
  0
VERTEX
  5
73F
  8
1
 62
     7
 10
1577.876334
 20
949.10055599999987
 30
0.0
 70
     8
  0
VERTEX
  5
740
  8
1
 62
     7
 10
1577.8767459999999
 20
948.0993279999999
 30
0.0
 70
     8
  0
VERTEX
  5
741
  8
1
 62
     7
 10
1577.8771819999999
 20
947.03977499999996
 30
0.0
 70
     8
  0
VERTEX
  5
742
  8
1
 62
     7
 10
1577.87763
 20
945.95105999999987
 30
0.0
 70
     8
  0
VERTEX
  5
743
  8
1
 62
     7
 10
1577.878078
 20
944.86234600000023
 30
0.0
 70
     8
  0
VERTEX
  5
744
  8
1
 62
     7
 10
1577.878514
 20
943.80279299999995
 30
0.0
 70
     8
  0
VERTEX
  5
745
  8
1
 62
     7
 10
1577.8789260000001
 20
942.80156399999987
 30
0.0
 70
     8
  0
VERTEX
  5
746
  8
1
 62
     7
 10
1577.8793020000001
 20
941.88782199999991
 30
0.0
 70
     8
  0
VERTEX
  5
747
  8
1
 62
     7
 10
1577.8796299999999
 20
941.09072700000002
 30
0.0
 70
     8
  0
VERTEX
  5
748
  8
1
 62
     7
 10
1577.8796299999999
 20
941.09072700000002
 30
0.0
 70
     8
  0
VERTEX
  5
749
  8
1
 62
     7
 10
1577.879901
 20
940.43215199999975
 30
0.0
 70
     8
  0
VERTEX
  5
74A
  8
1
 62
     7
 10
1577.880118
 20
939.90480600000001
 30
0.0
 70
     8
  0
VERTEX
  5
74B
  8
1
 62
     7
 10
1577.880287
 20
939.49410699999987
 30
0.0
 70
     8
  0
VERTEX
  5
74C
  8
1
 62
     7
 10
1577.880414
 20
939.18547599999988
 30
0.0
 70
     8
  0
VERTEX
  5
74D
  8
1
 62
     7
 10
1577.8805050000001
 20
938.96433100000002
 30
0.0
 70
     8
  0
VERTEX
  5
74E
  8
1
 62
     7
 10
1577.880566
 20
938.81609099999991
 30
0.0
 70
     8
  0
VERTEX
  5
74F
  8
1
 62
     7
 10
1577.8806030000001
 20
938.72617500000001
 30
0.0
 70
     8
  0
VERTEX
  5
750
  8
1
 62
     7
 10
1577.8806219999999
 20
938.68000199999994
 30
0.0
 70
     8
  0
VERTEX
  5
751
  8
1
 62
     7
 10
1577.880629
 20
938.66299000000004
 30
0.0
 70
     8
  0
VERTEX
  5
752
  8
1
 62
     7
 10
1577.8806300000001
 20
938.66056000000015
 30
0.0
 70
     8
  0
VERTEX
  5
753
  8
1
 62
     7
 10
1577.8806300000001
 20
938.66056000000015
 30
0.0
 70
     8
  0
VERTEX
  5
754
  8
1
 62
     7
 10
1577.8806300000001
 20
938.66056000000015
 30
0.0
 70
     8
  0
VERTEX
  5
755
  8
1
 62
     7
 10
1577.88183
 20
938.66056000000015
 30
0.0
 70
     8
  0
VERTEX
  5
756
  8
1
 62
     7
 10
1577.89023
 20
938.66056000000015
 30
0.0
 70
     8
  0
VERTEX
  5
757
  8
1
 62
     7
 10
1577.9130299999999
 20
938.66056000000015
 30
0.0
 70
     8
  0
VERTEX
  5
758
  8
1
 62
     7
 10
1577.9574299999999
 20
938.66056000000015
 30
0.0
 70
     8
  0
VERTEX
  5
759
  8
1
 62
     7
 10
1578.03063
 20
938.66056000000015
 30
0.0
 70
     8
  0
VERTEX
  5
75A
  8
1
 62
     7
 10
1578.1398300000001
 20
938.66056000000015
 30
0.0
 70
     8
  0
VERTEX
  5
75B
  8
1
 62
     7
 10
1578.29223
 20
938.66056000000015
 30
0.0
 70
     8
  0
VERTEX
  5
75C
  8
1
 62
     7
 10
1578.49503
 20
938.66056000000015
 30
0.0
 70
     8
  0
VERTEX
  5
75D
  8
1
 62
     7
 10
1578.7554299999999
 20
938.66056000000015
 30
0.0
 70
     8
  0
VERTEX
  5
75E
  8
1
 62
     7
 10
1579.0806299999999
 20
938.66056000000015
 30
0.0
 70
     8
  0
VERTEX
  5
75F
  8
1
 62
     7
 10
1579.0806299999999
 20
938.66056000000015
 30
0.0
 70
     8
  0
VERTEX
  5
760
  8
1
 62
     7
 10
1579.47423
 20
938.66056000000015
 30
0.0
 70
     8
  0
VERTEX
  5
761
  8
1
 62
     7
 10
1579.92543
 20
938.66056000000015
 30
0.0
 70
     8
  0
VERTEX
  5
762
  8
1
 62
     7
 10
1580.41983
 20
938.66056000000015
 30
0.0
 70
     8
  0
VERTEX
  5
763
  8
1
 62
     7
 10
1580.9430299999999
 20
938.66056000000015
 30
0.0
 70
     8
  0
VERTEX
  5
764
  8
1
 62
     7
 10
1581.48063
 20
938.66056000000015
 30
0.0
 70
     8
  0
VERTEX
  5
765
  8
1
 62
     7
 10
1582.0182299999999
 20
938.66056000000015
 30
0.0
 70
     8
  0
VERTEX
  5
766
  8
1
 62
     7
 10
1582.54143
 20
938.66056000000015
 30
0.0
 70
     8
  0
VERTEX
  5
767
  8
1
 62
     7
 10
1583.03583
 20
938.66056000000015
 30
0.0
 70
     8
  0
VERTEX
  5
768
  8
1
 62
     7
 10
1583.48703
 20
938.66056000000015
 30
0.0
 70
     8
  0
VERTEX
  5
769
  8
1
 62
     7
 10
1583.8806300000001
 20
938.66056000000015
 30
0.0
 70
     8
  0
VERTEX
  5
76A
  8
1
 62
     7
 10
1583.8806300000001
 20
938.66056000000015
 30
0.0
 70
     8
  0
VERTEX
  5
76B
  8
1
 62
     7
 10
1584.2058300000001
 20
938.66056000000015
 30
0.0
 70
     8
  0
VERTEX
  5
76C
  8
1
 62
     7
 10
1584.46623
 20
938.66056000000015
 30
0.0
 70
     8
  0
VERTEX
  5
76D
  8
1
 62
     7
 10
1584.66903
 20
938.66056000000015
 30
0.0
 70
     8
  0
VERTEX
  5
76E
  8
1
 62
     7
 10
1584.82143
 20
938.66056000000015
 30
0.0
 70
     8
  0
VERTEX
  5
76F
  8
1
 62
     7
 10
1584.9306300000001
 20
938.66056000000015
 30
0.0
 70
     8
  0
VERTEX
  5
770
  8
1
 62
     7
 10
1585.0038300000001
 20
938.66056000000015
 30
0.0
 70
     8
  0
VERTEX
  5
771
  8
1
 62
     7
 10
1585.0482300000001
 20
938.66056000000015
 30
0.0
 70
     8
  0
VERTEX
  5
772
  8
1
 62
     7
 10
1585.0710300000001
 20
938.66056000000015
 30
0.0
 70
     8
  0
VERTEX
  5
773
  8
1
 62
     7
 10
1585.07943
 20
938.66056000000015
 30
0.0
 70
     8
  0
VERTEX
  5
774
  8
1
 62
     7
 10
1585.0806299999999
 20
938.66056000000015
 30
0.0
 70
     8
  0
VERTEX
  5
775
  8
1
 62
     7
 10
1585.0806299999999
 20
938.66056000000015
 30
0.0
 70
     8
  0
VERTEX
  5
776
  8
1
 62
     7
 10
1585.0806299999999
 20
938.66056000000015
 30
0.0
 70
     8
  0
VERTEX
  5
777
  8
1
 62
     7
 10
1585.081563
 20
938.66224599999987
 30
0.0
 70
     8
  0
VERTEX
  5
778
  8
1
 62
     7
 10
1585.0880970000001
 20
938.67404899999985
 30
0.0
 70
     8
  0
VERTEX
  5
779
  8
1
 62
     7
 10
1585.10583
 20
938.70608500000014
 30
0.0
 70
     8
  0
VERTEX
  5
77A
  8
1
 62
     7
 10
1585.140363
 20
938.76846999999987
 30
0.0
 70
     8
  0
VERTEX
  5
77B
  8
1
 62
     7
 10
1585.1972969999999
 20
938.87132099999997
 30
0.0
 70
     8
  0
VERTEX
  5
77C
  8
1
 62
     7
 10
1585.28223
 20
939.02475399999969
 30
0.0
 70
     8
  0
VERTEX
  5
77D
  8
1
 62
     7
 10
1585.4007630000001
 20
939.23888699999986
 30
0.0
 70
     8
  0
VERTEX
  5
77E
  8
1
 62
     7
 10
1585.558497
 20
939.52383499999974
 30
0.0
 70
     8
  0
VERTEX
  5
77F
  8
1
 62
     7
 10
1585.7610299999999
 20
939.88971499999991
 30
0.0
 70
     8
  0
VERTEX
  5
780
  8
1
 62
     7
 10
1586.0139630000001
 20
940.34664399999997
 30
0.0
 70
     8
  0
VERTEX
  5
781
  8
1
 62
     7
 10
1586.0139630000001
 20
940.34664399999997
 30
0.0
 70
     8
  0
VERTEX
  5
782
  8
1
 62
     7
 10
1586.320097
 20
940.89967899999988
 30
0.0
 70
     8
  0
VERTEX
  5
783
  8
1
 62
     7
 10
1586.67103
 20
941.53364599999998
 30
0.0
 70
     8
  0
VERTEX
  5
784
  8
1
 62
     7
 10
1587.0555629999999
 20
942.22831299999996
 30
0.0
 70
     8
  0
VERTEX
  5
785
  8
1
 62
     7
 10
1587.462497
 20
942.96344499999998
 30
0.0
 70
     8
  0
VERTEX
  5
786
  8
1
 62
     7
 10
1587.8806300000001
 20
943.71880999999996
 30
0.0
 70
     8
  0
VERTEX
  5
787
  8
1
 62
     7
 10
1588.298763
 20
944.47417600000006
 30
0.0
 70
     8
  0
VERTEX
  5
788
  8
1
 62
     7
 10
1588.7056970000001
 20
945.20930799999985
 30
0.0
 70
     8
  0
VERTEX
  5
789
  8
1
 62
     7
 10
1589.09023
 20
945.90397399999995
 30
0.0
 70
     8
  0
VERTEX
  5
78A
  8
1
 62
     7
 10
1589.441163
 20
946.53794200000004
 30
0.0
 70
     8
  0
VERTEX
  5
78B
  8
1
 62
     7
 10
1589.7472969999999
 20
947.09097699999995
 30
0.0
 70
     8
  0
VERTEX
  5
78C
  8
1
 62
     7
 10
1589.7472969999999
 20
947.09097699999995
 30
0.0
 70
     8
  0
VERTEX
  5
78D
  8
1
 62
     7
 10
1590.0002300000001
 20
947.5479059999999
 30
0.0
 70
     8
  0
VERTEX
  5
78E
  8
1
 62
     7
 10
1590.202763
 20
947.91378599999985
 30
0.0
 70
     8
  0
VERTEX
  5
78F
  8
1
 62
     7
 10
1590.3604969999999
 20
948.19873399999994
 30
0.0
 70
     8
  0
VERTEX
  5
790
  8
1
 62
     7
 10
1590.47903
 20
948.41286599999989
 30
0.0
 70
     8
  0
VERTEX
  5
791
  8
1
 62
     7
 10
1590.5639630000001
 20
948.56629999999996
 30
0.0
 70
     8
  0
VERTEX
  5
792
  8
1
 62
     7
 10
1590.620897
 20
948.66915099999994
 30
0.0
 70
     8
  0
VERTEX
  5
793
  8
1
 62
     7
 10
1590.65543
 20
948.73153599999955
 30
0.0
 70
     8
  0
VERTEX
  5
794
  8
1
 62
     7
 10
1590.6731629999999
 20
948.76357199999995
 30
0.0
 70
     8
  0
VERTEX
  5
795
  8
1
 62
     7
 10
1590.679697
 20
948.77537400000006
 30
0.0
 70
     8
  0
VERTEX
  5
796
  8
1
 62
     7
 10
1590.6806300000001
 20
948.77706000000012
 30
0.0
 70
     8
  0
VERTEX
  5
797
  8
1
 62
     7
 10
1590.6806300000001
 20
948.77706000000012
 30
0.0
 70
     8
  0
VERTEX
  5
798
  8
1
 62
     7
 10
1590.6807670000001
 20
948.77723200000014
 30
0.0
 70
     8
  0
VERTEX
  5
799
  8
1
 62
     7
 10
1590.6817289999999
 20
948.77843399999995
 30
0.0
 70
     8
  0
VERTEX
  5
79A
  8
1
 62
     7
 10
1590.684338
 20
948.78169500000001
 30
0.0
 70
     8
  0
VERTEX
  5
79B
  8
1
 62
     7
 10
1590.689419
 20
948.78804700000023
 30
0.0
 70
     8
  0
VERTEX
  5
79C
  8
1
 62
     7
 10
1590.697797
 20
948.79851900000006
 30
0.0
 70
     8
  0
VERTEX
  5
79D
  8
1
 62
     7
 10
1590.710294
 20
948.81413999999995
 30
0.0
 70
     8
  0
VERTEX
  5
79E
  8
1
 62
     7
 10
1590.7277349999999
 20
948.83594200000005
 30
0.0
 70
     8
  0
VERTEX
  5
79F
  8
1
 62
     7
 10
1590.750945
 20
948.86495400000001
 30
0.0
 70
     8
  0
VERTEX
  5
7A0
  8
1
 62
     7
 10
1590.7807459999999
 20
948.90220499999998
 30
0.0
 70
     8
  0
VERTEX
  5
7A1
  8
1
 62
     7
 10
1590.817963
 20
948.94872699999974
 30
0.0
 70
     8
  0
VERTEX
  5
7A2
  8
1
 62
     7
 10
1590.817963
 20
948.94872699999974
 30
0.0
 70
     8
  0
VERTEX
  5
7A3
  8
1
 62
     7
 10
1590.863605
 20
949.00541999999984
 30
0.0
 70
     8
  0
VERTEX
  5
7A4
  8
1
 62
     7
 10
1590.919416
 20
949.07266799999991
 30
0.0
 70
     8
  0
VERTEX
  5
7A5
  8
1
 62
     7
 10
1590.9873259999999
 20
949.15072699999973
 30
0.0
 70
     8
  0
VERTEX
  5
7A6
  8
1
 62
     7
 10
1591.0692650000001
 20
949.23985200000004
 30
0.0
 70
     8
  0
VERTEX
  5
7A7
  8
1
 62
     7
 10
1591.1671610000001
 20
949.34029999999984
 30
0.0
 70
     8
  0
VERTEX
  5
7A8
  8
1
 62
     7
 10
1591.2829449999999
 20
949.45232499999997
 30
0.0
 70
     8
  0
VERTEX
  5
7A9
  8
1
 62
     7
 10
1591.4185460000001
 20
949.57618300000013
 30
0.0
 70
     8
  0
VERTEX
  5
7AA
  8
1
 62
     7
 10
1591.5758940000001
 20
949.71212999999989
 30
0.0
 70
     8
  0
VERTEX
  5
7AB
  8
1
 62
     7
 10
1591.756918
 20
949.86041999999998
 30
0.0
 70
     8
  0
VERTEX
  5
7AC
  8
1
 62
     7
 10
1591.9635470000001
 20
950.02130999999974
 30
0.0
 70
     8
  0
VERTEX
  5
7AD
  8
1
 62
     7
 10
1591.9635470000001
 20
950.02130999999974
 30
0.0
 70
     8
  0
VERTEX
  5
7AE
  8
1
 62
     7
 10
1592.196584
 20
950.19447000000014
 30
0.0
 70
     8
  0
VERTEX
  5
7AF
  8
1
 62
     7
 10
1592.4523220000001
 20
950.37722799999995
 30
0.0
 70
     8
  0
VERTEX
  5
7B0
  8
1
 62
     7
 10
1592.7259280000001
 20
950.566326
 30
0.0
 70
     8
  0
VERTEX
  5
7B1
  8
1
 62
     7
 10
1593.012569
 20
950.758509
 30
0.0
 70
     8
  0
VERTEX
  5
7B2
  8
1
 62
     7
 10
1593.307411
 20
950.95051899999999
 30
0.0
 70
     8
  0
VERTEX
  5
7B3
  8
1
 62
     7
 10
1593.6056209999999
 20
951.13909799999988
 30
0.0
 70
     8
  0
VERTEX
  5
7B4
  8
1
 62
     7
 10
1593.902364
 20
951.32099100000005
 30
0.0
 70
     8
  0
VERTEX
  5
7B5
  8
1
 62
     7
 10
1594.192808
 20
951.49294000000009
 30
0.0
 70
     8
  0
VERTEX
  5
7B6
  8
1
 62
     7
 10
1594.472119
 20
951.65168700000004
 30
0.0
 70
     8
  0
VERTEX
  5
7B7
  8
1
 62
     7
 10
1594.735463
 20
951.79397699999993
 30
0.0
 70
     8
  0
VERTEX
  5
7B8
  8
1
 62
     7
 10
1594.735463
 20
951.79397699999993
 30
0.0
 70
     8
  0
VERTEX
  5
7B9
  8
1
 62
     7
 10
1594.97891
 20
951.9173659999999
 30
0.0
 70
     8
  0
VERTEX
  5
7BA
  8
1
 62
     7
 10
1595.2021400000001
 20
952.02266699999996
 30
0.0
 70
     8
  0
VERTEX
  5
7BB
  8
1
 62
     7
 10
1595.405735
 20
952.11150799999984
 30
0.0
 70
     8
  0
VERTEX
  5
7BC
  8
1
 62
     7
 10
1595.590277
 20
952.185517
 30
0.0
 70
     8
  0
VERTEX
  5
7BD
  8
1
 62
     7
 10
1595.756349
 20
952.24632099999985
 30
0.0
 70
     8
  0
VERTEX
  5
7BE
  8
1
 62
     7
 10
1595.9045329999999
 20
952.29554700000006
 30
0.0
 70
     8
  0
VERTEX
  5
7BF
  8
1
 62
     7
 10
1596.0354130000001
 20
952.33482299999991
 30
0.0
 70
     8
  0
VERTEX
  5
7C0
  8
1
 62
     7
 10
1596.14957
 20
952.36577699999975
 30
0.0
 70
     8
  0
VERTEX
  5
7C1
  8
1
 62
     7
 10
1596.2475870000001
 20
952.39003599999967
 30
0.0
 70
     8
  0
VERTEX
  5
7C2
  8
1
 62
     7
 10
1596.3300469999999
 20
952.40922699999999
 30
0.0
 70
     8
  0
VERTEX
  5
7C3
  8
1
 62
     7
 10
1596.3300469999999
 20
952.40922699999999
 30
0.0
 70
     8
  0
VERTEX
  5
7C4
  8
1
 62
     7
 10
1596.4098080000001
 20
952.42683199999999
 30
0.0
 70
     8
  0
VERTEX
  5
7C5
  8
1
 62
     7
 10
1596.548837
 20
952.45374600000014
 30
0.0
 70
     8
  0
VERTEX
  5
7C6
  8
1
 62
     7
 10
1596.8213780000001
 20
952.50271699999985
 30
0.0
 70
     8
  0
VERTEX
  5
7C7
  8
1
 62
     7
 10
1597.3016720000001
 20
952.5864959999999
 30
0.0
 70
     8
  0
VERTEX
  5
7C8
  8
1
 62
     7
 10
1598.0639630000001
 20
952.71783100000005
 30
0.0
 70
     8
  0
VERTEX
  5
7C9
  8
1
 62
     7
 10
1599.182495
 20
952.90947100000005
 30
0.0
 70
     8
  0
VERTEX
  5
7CA
  8
1
 62
     7
 10
1600.731509
 20
953.17416500000002
 30
0.0
 70
     8
  0
VERTEX
  5
7CB
  8
1
 62
     7
 10
1602.785249
 20
953.52466199999981
 30
0.0
 70
     8
  0
VERTEX
  5
7CC
  8
1
 62
     7
 10
1605.4179590000001
 20
953.97370999999976
 30
0.0
 70
     8
  0
VERTEX
  5
7CD
  8
1
 62
     7
 10
1608.70388
 20
954.53405999999995
 30
0.0
 70
     8
  0
VERTEX
  5
7CE
  8
1
 62
     7
 10
1608.70388
 20
954.53405999999995
 30
0.0
 70
     8
  0
VERTEX
  5
7CF
  8
1
 62
     7
 10
1612.707455
 20
955.21042599999998
 30
0.0
 70
     8
  0
VERTEX
  5
7D0
  8
1
 62
     7
 10
1617.453917
 20
955.97538299999997
 30
0.0
 70
     8
  0
VERTEX
  5
7D1
  8
1
 62
     7
 10
1622.958701
 20
956.79347399999995
 30
0.0
 70
     8
  0
VERTEX
  5
7D2
  8
1
 62
     7
 10
1629.237239
 20
957.62924199999986
 30
0.0
 70
     8
  0
VERTEX
  5
7D3
  8
1
 62
     7
 10
1636.304963
 20
958.447227
 30
0.0
 70
     8
  0
VERTEX
  5
7D4
  8
1
 62
     7
 10
1644.177308
 20
959.21197199999995
 30
0.0
 70
     8
  0
VERTEX
  5
7D5
  8
1
 62
     7
 10
1652.869706
 20
959.88801999999964
 30
0.0
 70
     8
  0
VERTEX
  5
7D6
  8
1
 62
     7
 10
1662.3975889999999
 20
960.43991100000005
 30
0.0
 70
     8
  0
VERTEX
  5
7D7
  8
1
 62
     7
 10
1672.776392
 20
960.83218800000009
 30
0.0
 70
     8
  0
VERTEX
  5
7D8
  8
1
 62
     7
 10
1684.021546999998
 20
961.02939400000002
 30
0.0
 70
     8
  0
VERTEX
  5
7D9
  8
1
 62
     7
 10
1684.021546999998
 20
961.02939400000002
 30
0.0
 70
     8
  0
VERTEX
  5
7DA
  8
1
 62
     7
 10
1696.1103009999999
 20
961.02123400000005
 30
0.0
 70
     8
  0
VERTEX
  5
7DB
  8
1
 62
     7
 10
1708.8671609999999
 20
960.89807800000005
 30
0.0
 70
     8
  0
VERTEX
  5
7DC
  8
1
 62
     7
 10
1722.078446
 20
960.77545699999985
 30
0.0
 70
     8
  0
VERTEX
  5
7DD
  8
1
 62
     7
 10
1735.530479
 20
960.76890600000002
 30
0.0
 70
     8
  0
VERTEX
  5
7DE
  8
1
 62
     7
 10
1749.0095779999999
 20
960.99395600000003
 30
0.0
 70
     8
  0
VERTEX
  5
7DF
  8
1
 62
     7
 10
1762.3020650000001
 20
961.56614200000001
 30
0.0
 70
     8
  0
VERTEX
  5
7E0
  8
1
 62
     7
 10
1775.1942590000001
 20
962.60099499999956
 30
0.0
 70
     8
  0
VERTEX
  5
7E1
  8
1
 62
     7
 10
1787.472483
 20
964.21405000000004
 30
0.0
 70
     8
  0
VERTEX
  5
7E2
  8
1
 62
     7
 10
1798.923055
 20
966.52083800000014
 30
0.0
 70
     8
  0
VERTEX
  5
7E3
  8
1
 62
     7
 10
1809.3322969999999
 20
969.63689399999987
 30
0.0
 70
     8
  0
VERTEX
  5
7E4
  8
1
 62
     7
 10
1809.3322969999999
 20
969.63689399999987
 30
0.0
 70
     8
  0
VERTEX
  5
7E5
  8
1
 62
     7
 10
1818.537155
 20
973.62944200000004
 30
0.0
 70
     8
  0
VERTEX
  5
7E6
  8
1
 62
     7
 10
1826.5770809999999
 20
978.37247799999955
 30
0.0
 70
     8
  0
VERTEX
  5
7E7
  8
1
 62
     7
 10
1833.5421530000001
 20
983.69169000000022
 30
0.0
 70
     8
  0
VERTEX
  5
7E8
  8
1
 62
     7
 10
1839.5224490000001
 20
989.41276600000003
 30
0.0
 70
     8
  0
VERTEX
  5
7E9
  8
1
 62
     7
 10
1844.6080469999999
 20
995.36139399999979
 30
0.0
 70
     8
  0
VERTEX
  5
7EA
  8
1
 62
     7
 10
1848.8890249999999
 20
1001.363262
 30
0.0
 70
     8
  0
VERTEX
  5
7EB
  8
1
 62
     7
 10
1852.455461
 20
1007.244058
 30
0.0
 70
     8
  0
VERTEX
  5
7EC
  8
1
 62
     7
 10
1855.3974330000001
 20
1012.82947
 30
0.0
 70
     8
  0
VERTEX
  5
7ED
  8
1
 62
     7
 10
1857.8050189999999
 20
1017.945186
 30
0.0
 70
     8
  0
VERTEX
  5
7EE
  8
1
 62
     7
 10
1859.7682970000001
 20
1022.416894
 30
0.0
 70
     8
  0
VERTEX
  5
7EF
  8
1
 62
     7
 10
1859.7682970000001
 20
1022.416894
 30
0.0
 70
     8
  0
VERTEX
  5
7F0
  8
1
 62
     7
 10
1861.368365
 20
1026.1132720000001
 30
0.0
 70
     8
  0
VERTEX
  5
7F1
  8
1
 62
     7
 10
1862.650406
 20
1029.074963
 30
0.0
 70
     8
  0
VERTEX
  5
7F2
  8
1
 62
     7
 10
1863.650621
 20
1031.3855980000001
 30
0.0
 70
     8
  0
VERTEX
  5
7F3
  8
1
 62
     7
 10
1864.405211
 20
1033.1288079999999
 30
0.0
 70
     8
  0
VERTEX
  5
7F4
  8
1
 62
     7
 10
1864.95038
 20
1034.3882269999999
 30
0.0
 70
     8
  0
VERTEX
  5
7F5
  8
1
 62
     7
 10
1865.3223290000001
 20
1035.247486
 30
0.0
 70
     8
  0
VERTEX
  5
7F6
  8
1
 62
     7
 10
1865.5572589999999
 20
1035.7902160000001
 30
0.0
 70
     8
  0
VERTEX
  5
7F7
  8
1
 62
     7
 10
1865.691374
 20
1036.1000509999999
 30
0.0
 70
     8
  0
VERTEX
  5
7F8
  8
1
 62
     7
 10
1865.7608749999999
 20
1036.260622
 30
0.0
 70
     8
  0
VERTEX
  5
7F9
  8
1
 62
     7
 10
1865.8019629999999
 20
1036.35556
 30
0.0
 70
     8
  0
VERTEX
  5
7FA
  8
1
 62
     7
 10
1865.8019629999999
 20
1036.35556
 30
0.0
 70
     8
  0
VERTEX
  5
7FB
  8
1
 62
     7
 10
1865.8445630000001
 20
1036.4539480000001
 30
0.0
 70
     8
  0
VERTEX
  5
7FC
  8
1
 62
     7
 10
1865.8934810000001
 20
1036.5666639999999
 30
0.0
 70
     8
  0
VERTEX
  5
7FD
  8
1
 62
     7
 10
1865.9472470000001
 20
1036.690034
 30
0.0
 70
     8
  0
VERTEX
  5
7FE
  8
1
 62
     7
 10
1866.004387
 20
1036.820387
 30
0.0
 70
     8
  0
VERTEX
  5
7FF
  8
1
 62
     7
 10
1866.0634319999999
 20
1036.9540500000001
 30
0.0
 70
     8
  0
VERTEX
  5
800
  8
1
 62
     7
 10
1866.1229089999999
 20
1037.08735
 30
0.0
 70
     8
  0
VERTEX
  5
801
  8
1
 62
     7
 10
1866.1813480000001
 20
1037.2166159999999
 30
0.0
 70
     8
  0
VERTEX
  5
802
  8
1
 62
     7
 10
1866.237275
 20
1037.338174
 30
0.0
 70
     8
  0
VERTEX
  5
803
  8
1
 62
     7
 10
1866.289221
 20
1037.4483520000001
 30
0.0
 70
     8
  0
VERTEX
  5
804
  8
1
 62
     7
 10
1866.3357129999999
 20
1037.5434769999999
 30
0.0
 70
     8
  0
VERTEX
  5
805
  8
1
 62
     7
 10
1866.3357129999999
 20
1037.5434769999999
 30
0.0
 70
     8
  0
VERTEX
  5
806
  8
1
 62
     7
 10
1866.3759560000001
 20
1037.6208140000001
 30
0.0
 70
     8
  0
VERTEX
  5
807
  8
1
 62
     7
 10
1866.4118550000001
 20
1037.6813709999999
 30
0.0
 70
     8
  0
VERTEX
  5
808
  8
1
 62
     7
 10
1866.445993
 20
1037.7270940000001
 30
0.0
 70
     8
  0
VERTEX
  5
809
  8
1
 62
     7
 10
1866.480949
 20
1037.7599290000001
 30
0.0
 70
     8
  0
VERTEX
  5
80A
  8
1
 62
     7
 10
1866.519307
 20
1037.781821
 30
0.0
 70
     8
  0
VERTEX
  5
80B
  8
1
 62
     7
 10
1866.5636469999999
 20
1037.794715
 30
0.0
 70
     8
  0
VERTEX
  5
80C
  8
1
 62
     7
 10
1866.616552
 20
1037.800557
 30
0.0
 70
     8
  0
VERTEX
  5
80D
  8
1
 62
     7
 10
1866.680601
 20
1037.801293
 30
0.0
 70
     8
  0
VERTEX
  5
80E
  8
1
 62
     7
 10
1866.758378
 20
1037.7988680000001
 30
0.0
 70
     8
  0
VERTEX
  5
80F
  8
1
 62
     7
 10
1866.8524629999999
 20
1037.7952270000001
 30
0.0
 70
     8
  0
VERTEX
  5
810
  8
1
 62
     7
 10
1866.8524629999999
 20
1037.7952270000001
 30
0.0
 70
     8
  0
VERTEX
  5
811
  8
1
 62
     7
 10
1866.9643639999999
 20
1037.79198
 30
0.0
 70
     8
  0
VERTEX
  5
812
  8
1
 62
     7
 10
1867.091291
 20
1037.789389
 30
0.0
 70
     8
  0
VERTEX
  5
813
  8
1
 62
     7
 10
1867.229378
 20
1037.7873810000001
 30
0.0
 70
     8
  0
VERTEX
  5
814
  8
1
 62
     7
 10
1867.3747619999999
 20
1037.785883
 30
0.0
 70
     8
  0
VERTEX
  5
815
  8
1
 62
     7
 10
1867.523578
 20
1037.784821
 30
0.0
 70
     8
  0
VERTEX
  5
816
  8
1
 62
     7
 10
1867.671961
 20
1037.7841209999999
 30
0.0
 70
     8
  0
VERTEX
  5
817
  8
1
 62
     7
 10
1867.8160479999999
 20
1037.7837099999999
 30
0.0
 70
     8
  0
VERTEX
  5
818
  8
1
 62
     7
 10
1867.951973
 20
1037.7835150000001
 30
0.0
 70
     8
  0
VERTEX
  5
819
  8
1
 62
     7
 10
1868.0758719999999
 20
1037.7834620000001
 30
0.0
 70
     8
  0
VERTEX
  5
81A
  8
1
 62
     7
 10
1868.18388
 20
1037.7834769999999
 30
0.0
 70
     8
  0
VERTEX
  5
81B
  8
1
 62
     7
 10
1868.18388
 20
1037.7834769999999
 30
0.0
 70
     8
  0
VERTEX
  5
81C
  8
1
 62
     7
 10
1868.273107
 20
1037.7835
 30
0.0
 70
     8
  0
VERTEX
  5
81D
  8
1
 62
     7
 10
1868.344554
 20
1037.783518
 30
0.0
 70
     8
  0
VERTEX
  5
81E
  8
1
 62
     7
 10
1868.4001969999999
 20
1037.7835319999999
 30
0.0
 70
     8
  0
VERTEX
  5
81F
  8
1
 62
     7
 10
1868.442012
 20
1037.7835419999999
 30
0.0
 70
     8
  0
VERTEX
  5
820
  8
1
 62
     7
 10
1868.471974
 20
1037.7835500000001
 30
0.0
 70
     8
  0
VERTEX
  5
821
  8
1
 62
     7
 10
1868.492058
 20
1037.783555
 30
0.0
 70
     8
  0
VERTEX
  5
822
  8
1
 62
     7
 10
1868.50424
 20
1037.7835580000001
 30
0.0
 70
     8
  0
VERTEX
  5
823
  8
1
 62
     7
 10
1868.5104960000001
 20
1037.7835600000001
 30
0.0
 70
     8
  0
VERTEX
  5
824
  8
1
 62
     7
 10
1868.5128010000001
 20
1037.7835600000001
 30
0.0
 70
     8
  0
VERTEX
  5
825
  8
1
 62
     7
 10
1868.51313
 20
1037.7835600000001
 30
0.0
 70
     8
  0
VERTEX
  5
826
  8
1
 62
     7
 10
1868.51313
 20
1037.7835600000001
 30
0.0
 70
     8
  0
VERTEX
  5
827
  8
1
 62
     7
 10
1868.515553
 20
1037.7835640000001
 30
0.0
 70
     8
  0
VERTEX
  5
828
  8
1
 62
     7
 10
1868.5325130000001
 20
1037.7835869999999
 30
0.0
 70
     8
  0
VERTEX
  5
829
  8
1
 62
     7
 10
1868.578546
 20
1037.7836500000001
 30
0.0
 70
     8
  0
VERTEX
  5
82A
  8
1
 62
     7
 10
1868.668191
 20
1037.783774
 30
0.0
 70
     8
  0
VERTEX
  5
82B
  8
1
 62
     7
 10
1868.8159840000001
 20
1037.783977
 30
0.0
 70
     8
  0
VERTEX
  5
82C
  8
1
 62
     7
 10
1869.036462
 20
1037.7842800000001
 30
0.0
 70
     8
  0
VERTEX
  5
82D
  8
1
 62
     7
 10
1869.3441620000001
 20
1037.7847039999999
 30
0.0
 70
     8
  0
VERTEX
  5
82E
  8
1
 62
     7
 10
1869.7536210000001
 20
1037.785267
 30
0.0
 70
     8
  0
VERTEX
  5
82F
  8
1
 62
     7
 10
1870.2793750000001
 20
1037.7859900000001
 30
0.0
 70
     8
  0
VERTEX
  5
830
  8
1
 62
     7
 10
1870.9359629999999
 20
1037.7868940000001
 30
0.0
 70
     8
  0
VERTEX
  5
831
  8
1
 62
     7
 10
1870.9359629999999
 20
1037.7868940000001
 30
0.0
 70
     8
  0
VERTEX
  5
832
  8
1
 62
     7
 10
1871.7306530000001
 20
1037.7879869999999
 30
0.0
 70
     8
  0
VERTEX
  5
833
  8
1
 62
     7
 10
1872.6416380000001
 20
1037.7892400000001
 30
0.0
 70
     8
  0
VERTEX
  5
834
  8
1
 62
     7
 10
1873.6398449999999
 20
1037.790614
 30
0.0
 70
     8
  0
VERTEX
  5
835
  8
1
 62
     7
 10
1874.696201
 20
1037.7920670000001
 30
0.0
 70
     8
  0
VERTEX
  5
836
  8
1
 62
     7
 10
1875.78163
 20
1037.7935600000001
 30
0.0
 70
     8
  0
VERTEX
  5
837
  8
1
 62
     7
 10
1876.8670589999999
 20
1037.7950539999999
 30
0.0
 70
     8
  0
VERTEX
  5
838
  8
1
 62
     7
 10
1877.9234149999991
 20
1037.796507
 30
0.0
 70
     8
  0
VERTEX
  5
839
  8
1
 62
     7
 10
1878.9216220000001
 20
1037.7978800000001
 30
0.0
 70
     8
  0
VERTEX
  5
83A
  8
1
 62
     7
 10
1879.8326070000001
 20
1037.7991340000001
 30
0.0
 70
     8
  0
VERTEX
  5
83B
  8
1
 62
     7
 10
1880.627297
 20
1037.8002269999999
 30
0.0
 70
     8
  0
VERTEX
  5
83C
  8
1
 62
     7
 10
1880.627297
 20
1037.8002269999999
 30
0.0
 70
     8
  0
VERTEX
  5
83D
  8
1
 62
     7
 10
1881.2838839999999
 20
1037.8011300000001
 30
0.0
 70
     8
  0
VERTEX
  5
83E
  8
1
 62
     7
 10
1881.8096390000001
 20
1037.801854
 30
0.0
 70
     8
  0
VERTEX
  5
83F
  8
1
 62
     7
 10
1882.219098
 20
1037.8024170000001
 30
0.0
 70
     8
  0
VERTEX
  5
840
  8
1
 62
     7
 10
1882.5267980000001
 20
1037.8028400000001
 30
0.0
 70
     8
  0
VERTEX
  5
841
  8
1
 62
     7
 10
1882.7472760000001
 20
1037.803144
 30
0.0
 70
     8
  0
VERTEX
  5
842
  8
1
 62
     7
 10
1882.8950689999999
 20
1037.803347
 30
0.0
 70
     8
  0
VERTEX
  5
843
  8
1
 62
     7
 10
1882.9847130000001
 20
1037.8034700000001
 30
0.0
 70
     8
  0
VERTEX
  5
844
  8
1
 62
     7
 10
1883.030747
 20
1037.8035339999999
 30
0.0
 70
     8
  0
VERTEX
  5
845
  8
1
 62
     7
 10
1883.0477069999999
 20
1037.803557
 30
0.0
 70
     8
  0
VERTEX
  5
846
  8
1
 62
     7
 10
1883.0501300000001
 20
1037.8035600000001
 30
0.0
 70
     8
  0
VERTEX
  5
847
  8
1
 62
     7
 10
1883.0501300000001
 20
1037.8035600000001
 30
0.0
 70
     8
  0
VERTEX
  5
848
  8
1
 62
     7
 10
1883.050391
 20
1037.8035609999999
 30
0.0
 70
     8
  0
VERTEX
  5
849
  8
1
 62
     7
 10
1883.052220999999
 20
1037.8035629999999
 30
0.0
 70
     8
  0
VERTEX
  5
84A
  8
1
 62
     7
 10
1883.057188
 20
1037.8035689999999
 30
0.0
 70
     8
  0
VERTEX
  5
84B
  8
1
 62
     7
 10
1883.066861
 20
1037.803582
 30
0.0
 70
     8
  0
VERTEX
  5
84C
  8
1
 62
     7
 10
1883.082807
 20
1037.803602
 30
0.0
 70
     8
  0
VERTEX
  5
84D
  8
1
 62
     7
 10
1883.1065960000001
 20
1037.8036320000001
 30
0.0
 70
     8
  0
VERTEX
  5
84E
  8
1
 62
     7
 10
1883.1397959999999
 20
1037.8036750000001
 30
0.0
 70
     8
  0
VERTEX
  5
84F
  8
1
 62
     7
 10
1883.1839749999999
 20
1037.803731
 30
0.0
 70
     8
  0
VERTEX
  5
850
  8
1
 62
     7
 10
1883.2407029999999
 20
1037.803803
 30
0.0
 70
     8
  0
VERTEX
  5
851
  8
1
 62
     7
 10
1883.311547
 20
1037.8038939999999
 30
0.0
 70
     8
  0
VERTEX
  5
852
  8
1
 62
     7
 10
1883.311547
 20
1037.8038939999999
 30
0.0
 70
     8
  0
VERTEX
  5
853
  8
1
 62
     7
 10
1883.397395
 20
1037.8039369999999
 30
0.0
 70
     8
  0
VERTEX
  5
854
  8
1
 62
     7
 10
1883.4964170000001
 20
1037.803598
 30
0.0
 70
     8
  0
VERTEX
  5
855
  8
1
 62
     7
 10
1883.606098
 20
1037.802477
 30
0.0
 70
     8
  0
VERTEX
  5
856
  8
1
 62
     7
 10
1883.723927
 20
1037.8001710000001
 30
0.0
 70
     8
  0
VERTEX
  5
857
  8
1
 62
     7
 10
1883.8473899999999
 20
1037.7962789999999
 30
0.0
 70
     8
  0
VERTEX
  5
858
  8
1
 62
     7
 10
1883.9739770000001
 20
1037.7904000000001
 30
0.0
 70
     8
  0
VERTEX
  5
859
  8
1
 62
     7
 10
1884.101173
 20
1037.7821309999999
 30
0.0
 70
     8
  0
VERTEX
  5
85A
  8
1
 62
     7
 10
1884.226467
 20
1037.771072
 30
0.0
 70
     8
  0
VERTEX
  5
85B
  8
1
 62
     7
 10
1884.3473449999999
 20
1037.7568209999999
 30
0.0
 70
     8
  0
VERTEX
  5
85C
  8
1
 62
     7
 10
1884.4612970000001
 20
1037.738977
 30
0.0
 70
     8
  0
VERTEX
  5
85D
  8
1
 62
     7
 10
1884.4612970000001
 20
1037.738977
 30
0.0
 70
     8
  0
VERTEX
  5
85E
  8
1
 62
     7
 10
1884.5662789999999
 20
1037.7170149999999
 30
0.0
 70
     8
  0
VERTEX
  5
85F
  8
1
 62
     7
 10
1884.6621379999999
 20
1037.689924
 30
0.0
 70
     8
  0
VERTEX
  5
860
  8
1
 62
     7
 10
1884.7491889999999
 20
1037.656567
 30
0.0
 70
     8
  0
VERTEX
  5
861
  8
1
 62
     7
 10
1884.827747
 20
1037.61581
 30
0.0
 70
     8
  0
VERTEX
  5
862
  8
1
 62
     7
 10
1884.89813
 20
1037.566519
 30
0.0
 70
     8
  0
VERTEX
  5
863
  8
1
 62
     7
 10
1884.9606530000001
 20
1037.5075569999999
 30
0.0
 70
     8
  0
VERTEX
  5
864
  8
1
 62
     7
 10
1885.015631
 20
1037.4377899999999
 30
0.0
 70
     8
  0
VERTEX
  5
865
  8
1
 62
     7
 10
1885.063382
 20
1037.356084
 30
0.0
 70
     8
  0
VERTEX
  5
866
  8
1
 62
     7
 10
1885.1042210000001
 20
1037.2613019999999
 30
0.0
 70
     8
  0
VERTEX
  5
867
  8
1
 62
     7
 10
1885.138463
 20
1037.1523099999999
 30
0.0
 70
     8
  0
VERTEX
  5
868
  8
1
 62
     7
 10
1885.138463
 20
1037.1523099999999
 30
0.0
 70
     8
  0
VERTEX
  5
869
  8
1
 62
     7
 10
1885.166479
 20
1037.0287410000001
 30
0.0
 70
     8
  0
VERTEX
  5
86A
  8
1
 62
     7
 10
1885.1888449999999
 20
1036.893292
 30
0.0
 70
     8
  0
VERTEX
  5
86B
  8
1
 62
     7
 10
1885.206195
 20
1036.7494320000001
 30
0.0
 70
     8
  0
VERTEX
  5
86C
  8
1
 62
     7
 10
1885.219159
 20
1036.6006259999999
 30
0.0
 70
     8
  0
VERTEX
  5
86D
  8
1
 62
     7
 10
1885.22837
 20
1036.4503420000001
 30
0.0
 70
     8
  0
VERTEX
  5
86E
  8
1
 62
     7
 10
1885.234457
 20
1036.302044
 30
0.0
 70
     8
  0
VERTEX
  5
86F
  8
1
 62
     7
 10
1885.2380539999999
 20
1036.1592009999999
 30
0.0
 70
     8
  0
VERTEX
  5
870
  8
1
 62
     7
 10
1885.239791
 20
1036.0252780000001
 30
0.0
 70
     8
  0
VERTEX
  5
871
  8
1
 62
     7
 10
1885.240301
 20
1035.9037430000001
 30
0.0
 70
     8
  0
VERTEX
  5
872
  8
1
 62
     7
 10
1885.240213
 20
1035.7980600000001
 30
0.0
 70
     8
  0
VERTEX
  5
873
  8
1
 62
     7
 10
1885.240213
 20
1035.7980600000001
 30
0.0
 70
     8
  0
VERTEX
  5
874
  8
1
 62
     7
 10
1885.240055
 20
1035.7107980000001
 30
0.0
 70
     8
  0
VERTEX
  5
875
  8
1
 62
     7
 10
1885.2399290000001
 20
1035.640924
 30
0.0
 70
     8
  0
VERTEX
  5
876
  8
1
 62
     7
 10
1885.23983
 20
1035.5865060000001
 30
0.0
 70
     8
  0
VERTEX
  5
877
  8
1
 62
     7
 10
1885.2397559999999
 20
1035.5456119999999
 30
0.0
 70
     8
  0
VERTEX
  5
878
  8
1
 62
     7
 10
1885.239703
 20
1035.51631
 30
0.0
 70
     8
  0
VERTEX
  5
879
  8
1
 62
     7
 10
1885.2396670000001
 20
1035.496668
 30
0.0
 70
     8
  0
VERTEX
  5
87A
  8
1
 62
     7
 10
1885.239646
 20
1035.4847540000001
 30
0.0
 70
     8
  0
VERTEX
  5
87B
  8
1
 62
     7
 10
1885.2396349999999
 20
1035.4786360000001
 30
0.0
 70
     8
  0
VERTEX
  5
87C
  8
1
 62
     7
 10
1885.2396309999999
 20
1035.4763820000001
 30
0.0
 70
     8
  0
VERTEX
  5
87D
  8
1
 62
     7
 10
1885.23963
 20
1035.47606
 30
0.0
 70
     8
  0
VERTEX
  5
87E
  8
1
 62
     7
 10
1885.23963
 20
1035.47606
 30
0.0
 70
     8
  0
VERTEX
  5
87F
  8
1
 62
     7
 10
1885.239617
 20
1035.4698719999999
 30
0.0
 70
     8
  0
VERTEX
  5
880
  8
1
 62
     7
 10
1885.239523
 20
1035.426553
 30
0.0
 70
     8
  0
VERTEX
  5
881
  8
1
 62
     7
 10
1885.23927
 20
1035.3089729999999
 30
0.0
 70
     8
  0
VERTEX
  5
882
  8
1
 62
     7
 10
1885.238777
 20
1035.0800019999999
 30
0.0
 70
     8
  0
VERTEX
  5
883
  8
1
 62
     7
 10
1885.2379629999989
 20
1034.7025080000001
 30
0.0
 70
     8
  0
VERTEX
  5
884
  8
1
 62
     7
 10
1885.23675
 20
1034.1393619999999
 30
0.0
 70
     8
  0
VERTEX
  5
885
  8
1
 62
     7
 10
1885.2350570000001
 20
1033.353433
 30
0.0
 70
     8
  0
VERTEX
  5
886
  8
1
 62
     7
 10
1885.2328030000001
 20
1032.307591
 30
0.0
 70
     8
  0
VERTEX
  5
887
  8
1
 62
     7
 10
1885.22991
 20
1030.9647050000001
 30
0.0
 70
     8
  0
VERTEX
  5
888
  8
1
 62
     7
 10
1885.2262969999999
 20
1029.287644
 30
0.0
 70
     8
  0
VERTEX
  5
889
  8
1
 62
     7
 10
1885.2262969999999
 20
1029.287644
 30
0.0
 70
     8
  0
VERTEX
  5
88A
  8
1
 62
     7
 10
1885.2219230000001
 20
1027.2578430000001
 30
0.0
 70
     8
  0
VERTEX
  5
88B
  8
1
 62
     7
 10
1885.2169100000001
 20
1024.930998
 30
0.0
 70
     8
  0
VERTEX
  5
88C
  8
1
 62
     7
 10
1885.211417
 20
1022.3813709999999
 30
0.0
 70
     8
  0
VERTEX
  5
88D
  8
1
 62
     7
 10
1885.2056030000001
 20
1019.683221
 30
0.0
 70
     8
  0
VERTEX
  5
88E
  8
1
 62
     7
 10
1885.1996300000001
 20
1016.91081
 30
0.0
 70
     8
  0
VERTEX
  5
88F
  8
1
 62
     7
 10
1885.193657
 20
1014.1384
 30
0.0
 70
     8
  0
VERTEX
  5
890
  8
1
 62
     7
 10
1885.1878429999999
 20
1011.44025
 30
0.0
 70
     8
  0
VERTEX
  5
891
  8
1
 62
     7
 10
1885.18235
 20
1008.890622
 30
0.0
 70
     8
  0
VERTEX
  5
892
  8
1
 62
     7
 10
1885.1773370000001
 20
1006.563778
 30
0.0
 70
     8
  0
VERTEX
  5
893
  8
1
 62
     7
 10
1885.172963
 20
1004.533977
 30
0.0
 70
     8
  0
VERTEX
  5
894
  8
1
 62
     7
 10
1885.172963
 20
1004.533977
 30
0.0
 70
     8
  0
VERTEX
  5
895
  8
1
 62
     7
 10
1885.1693499999999
 20
1002.856916
 30
0.0
 70
     8
  0
VERTEX
  5
896
  8
1
 62
     7
 10
1885.166457
 20
1001.51403
 30
0.0
 70
     8
  0
VERTEX
  5
897
  8
1
 62
     7
 10
1885.164203
 20
1000.4681869999999
 30
0.0
 70
     8
  0
VERTEX
  5
898
  8
1
 62
     7
 10
1885.1625100000001
 20
999.68225799999993
 30
0.0
 70
     8
  0
VERTEX
  5
899
  8
1
 62
     7
 10
1885.161296999999
 20
999.11911199999975
 30
0.0
 70
     8
  0
VERTEX
  5
89A
  8
1
 62
     7
 10
1885.1604830000001
 20
998.74161900000013
 30
0.0
 70
     8
  0
VERTEX
  5
89B
  8
1
 62
     7
 10
1885.1599900000001
 20
998.5126479999999
 30
0.0
 70
     8
  0
VERTEX
  5
89C
  8
1
 62
     7
 10
1885.159737
 20
998.39506800000015
 30
0.0
 70
     8
  0
VERTEX
  5
89D
  8
1
 62
     7
 10
1885.159643
 20
998.35174900000004
 30
0.0
 70
     8
  0
VERTEX
  5
89E
  8
1
 62
     7
 10
1885.1596300000001
 20
998.34555999999986
 30
0.0
 70
     8
  0
VERTEX
  5
89F
  8
1
 62
     7
 10
1885.1596300000001
 20
998.34555999999986
 30
0.0
 70
     8
  0
VERTEX
  5
8A0
  8
1
 62
     7
 10
1885.1596300000001
 20
998.34555999999986
 30
0.0
 70
     8
  0
VERTEX
  5
8A1
  8
1
 62
     7
 10
1885.161372
 20
998.34553800000003
 30
0.0
 70
     8
  0
VERTEX
  5
8A2
  8
1
 62
     7
 10
1885.1735639999999
 20
998.34538299999997
 30
0.0
 70
     8
  0
VERTEX
  5
8A3
  8
1
 62
     7
 10
1885.206657
 20
998.34496200000001
 30
0.0
 70
     8
  0
VERTEX
  5
8A4
  8
1
 62
     7
 10
1885.2711019999999
 20
998.34414200000003
 30
0.0
 70
     8
  0
VERTEX
  5
8A5
  8
1
 62
     7
 10
1885.3773490000001
 20
998.34278899999993
 30
0.0
 70
     8
  0
VERTEX
  5
8A6
  8
1
 62
     7
 10
1885.535848
 20
998.34077200000002
 30
0.0
 70
     8
  0
VERTEX
  5
8A7
  8
1
 62
     7
 10
1885.7570499999999
 20
998.33795699999996
 30
0.0
 70
     8
  0
VERTEX
  5
8A8
  8
1
 62
     7
 10
1886.051406
 20
998.33421099999998
 30
0.0
 70
     8
  0
VERTEX
  5
8A9
  8
1
 62
     7
 10
1886.4293660000001
 20
998.32940099999985
 30
0.0
 70
     8
  0
VERTEX
  5
8AA
  8
1
 62
     7
 10
1886.90138
 20
998.32339399999989
 30
0.0
 70
     8
  0
VERTEX
  5
8AB
  8
1
 62
     7
 10
1886.90138
 20
998.32339399999989
 30
0.0
 70
     8
  0
VERTEX
  5
8AC
  8
1
 62
     7
 10
1887.4726740000001
 20
998.31612299999995
 30
0.0
 70
     8
  0
VERTEX
  5
8AD
  8
1
 62
     7
 10
1888.1275720000001
 20
998.30778799999985
 30
0.0
 70
     8
  0
VERTEX
  5
8AE
  8
1
 62
     7
 10
1888.8451729999999
 20
998.29865600000005
 30
0.0
 70
     8
  0
VERTEX
  5
8AF
  8
1
 62
     7
 10
1889.604576
 20
998.28899100000001
 30
0.0
 70
     8
  0
VERTEX
  5
8B0
  8
1
 62
     7
 10
1890.3848800000001
 20
998.27905999999984
 30
0.0
 70
     8
  0
VERTEX
  5
8B1
  8
1
 62
     7
 10
1891.165184
 20
998.26913000000002
 30
0.0
 70
     8
  0
VERTEX
  5
8B2
  8
1
 62
     7
 10
1891.924587
 20
998.2594650000002
 30
0.0
 70
     8
  0
VERTEX
  5
8B3
  8
1
 62
     7
 10
1892.642188
 20
998.25033199999984
 30
0.0
 70
     8
  0
VERTEX
  5
8B4
  8
1
 62
     7
 10
1893.297086
 20
998.24199799999985
 30
0.0
 70
     8
  0
VERTEX
  5
8B5
  8
1
 62
     7
 10
1893.8683799999999
 20
998.23472699999991
 30
0.0
 70
     8
  0
VERTEX
  5
8B6
  8
1
 62
     7
 10
1893.8683799999999
 20
998.23472699999991
 30
0.0
 70
     8
  0
VERTEX
  5
8B7
  8
1
 62
     7
 10
1894.3403940000001
 20
998.22871999999995
 30
0.0
 70
     8
  0
VERTEX
  5
8B8
  8
1
 62
     7
 10
1894.7183540000001
 20
998.22391000000005
 30
0.0
 70
     8
  0
VERTEX
  5
8B9
  8
1
 62
     7
 10
1895.01271
 20
998.22016299999996
 30
0.0
 70
     8
  0
VERTEX
  5
8BA
  8
1
 62
     7
 10
1895.2339119999999
 20
998.21734800000002
 30
0.0
 70
     8
  0
VERTEX
  5
8BB
  8
1
 62
     7
 10
1895.392411
 20
998.21533099999988
 30
0.0
 70
     8
  0
VERTEX
  5
8BC
  8
1
 62
     7
 10
1895.4986579999991
 20
998.21397899999988
 30
0.0
 70
     8
  0
VERTEX
  5
8BD
  8
1
 62
     7
 10
1895.563103
 20
998.21315899999991
 30
0.0
 70
     8
  0
VERTEX
  5
8BE
  8
1
 62
     7
 10
1895.596196
 20
998.21273799999994
 30
0.0
 70
     8
  0
VERTEX
  5
8BF
  8
1
 62
     7
 10
1895.6083880000001
 20
998.212582
 30
0.0
 70
     8
  0
VERTEX
  5
8C0
  8
1
 62
     7
 10
1895.61013
 20
998.21256000000005
 30
0.0
 70
     8
  0
VERTEX
  5
8C1
  8
1
 62
     7
 10
1895.61013
 20
998.21256000000005
 30
0.0
 70
     8
  0
VERTEX
  5
8C2
  8
1
 62
     7
 10
1895.61013
 20
998.21734500000014
 30
0.0
 70
     8
  0
VERTEX
  5
8C3
  8
1
 62
     7
 10
1895.61013
 20
998.25084000000004
 30
0.0
 70
     8
  0
VERTEX
  5
8C4
  8
1
 62
     7
 10
1895.61013
 20
998.34175299999981
 30
0.0
 70
     8
  0
VERTEX
  5
8C5
  8
1
 62
     7
 10
1895.61013
 20
998.51879499999995
 30
0.0
 70
     8
  0
VERTEX
  5
8C6
  8
1
 62
     7
 10
1895.61013
 20
998.81067499999995
 30
0.0
 70
     8
  0
VERTEX
  5
8C7
  8
1
 62
     7
 10
1895.61013
 20
999.24610199999995
 30
0.0
 70
     8
  0
VERTEX
  5
8C8
  8
1
 62
     7
 10
1895.61013
 20
999.8537869999999
 30
0.0
 70
     8
  0
VERTEX
  5
8C9
  8
1
 62
     7
 10
1895.61013
 20
1000.662438
 30
0.0
 70
     8
  0
VERTEX
  5
8CA
  8
1
 62
     7
 10
1895.61013
 20
1001.700765
 30
0.0
 70
     8
  0
VERTEX
  5
8CB
  8
1
 62
     7
 10
1895.61013
 20
1002.997477
 30
0.0
 70
     8
  0
VERTEX
  5
8CC
  8
1
 62
     7
 10
1895.61013
 20
1002.997477
 30
0.0
 70
     8
  0
VERTEX
  5
8CD
  8
1
 62
     7
 10
1895.61013
 20
1004.564736
 30
0.0
 70
     8
  0
VERTEX
  5
8CE
  8
1
 62
     7
 10
1895.6101309999999
 20
1006.348508
 30
0.0
 70
     8
  0
VERTEX
  5
8CF
  8
1
 62
     7
 10
1895.610132
 20
1008.2782099999999
 30
0.0
 70
     8
  0
VERTEX
  5
8D0
  8
1
 62
     7
 10
1895.6101349999999
 20
1010.283262
 30
0.0
 70
     8
  0
VERTEX
  5
8D1
  8
1
 62
     7
 10
1895.61014
 20
1012.293081
 30
0.0
 70
     8
  0
VERTEX
  5
8D2
  8
1
 62
     7
 10
1895.610148
 20
1014.237085
 30
0.0
 70
     8
  0
VERTEX
  5
8D3
  8
1
 62
     7
 10
1895.6101590000001
 20
1016.0446920000001
 30
0.0
 70
     8
  0
VERTEX
  5
8D4
  8
1
 62
     7
 10
1895.610173
 20
1017.64532
 30
0.0
 70
     8
  0
VERTEX
  5
8D5
  8
1
 62
     7
 10
1895.610191
 20
1018.968386
 30
0.0
 70
     8
  0
VERTEX
  5
8D6
  8
1
 62
     7
 10
1895.6102129999999
 20
1019.94331
 30
0.0
 70
     8
  0
VERTEX
  5
8D7
  8
1
 62
     7
 10
1895.6102129999999
 20
1019.94331
 30
0.0
 70
     8
  0
VERTEX
  5
8D8
  8
1
 62
     7
 10
1895.6102410000001
 20
1020.525224
 30
0.0
 70
     8
  0
VERTEX
  5
8D9
  8
1
 62
     7
 10
1895.6102719999999
 20
1020.772118
 30
0.0
 70
     8
  0
VERTEX
  5
8DA
  8
1
 62
     7
 10
1895.610306
 20
1020.7677
 30
0.0
 70
     8
  0
VERTEX
  5
8DB
  8
1
 62
     7
 10
1895.6103430000001
 20
1020.595674
 30
0.0
 70
     8
  0
VERTEX
  5
8DC
  8
1
 62
     7
 10
1895.6103800000001
 20
1020.339748
 30
0.0
 70
     8
  0
VERTEX
  5
8DD
  8
1
 62
     7
 10
1895.6104170000001
 20
1020.083626
 30
0.0
 70
     8
  0
VERTEX
  5
8DE
  8
1
 62
     7
 10
1895.6104539999999
 20
1019.911016
 30
0.0
 70
     8
  0
VERTEX
  5
8DF
  8
1
 62
     7
 10
1895.610488
 20
1019.905622
 30
0.0
 70
     8
  0
VERTEX
  5
8E0
  8
1
 62
     7
 10
1895.6105190000001
 20
1020.151152
 30
0.0
 70
     8
  0
VERTEX
  5
8E1
  8
1
 62
     7
 10
1895.610547
 20
1020.73131
 30
0.0
 70
     8
  0
VERTEX
  5
8E2
  8
1
 62
     7
 10
1895.610547
 20
1020.73131
 30
0.0
 70
     8
  0
VERTEX
  5
8E3
  8
1
 62
     7
 10
1895.6105689999999
 20
1021.704102
 30
0.0
 70
     8
  0
VERTEX
  5
8E4
  8
1
 62
     7
 10
1895.6105869999999
 20
1023.024725
 30
0.0
 70
     8
  0
VERTEX
  5
8E5
  8
1
 62
     7
 10
1895.6106010000001
 20
1024.6226750000001
 30
0.0
 70
     8
  0
VERTEX
  5
8E6
  8
1
 62
     7
 10
1895.6106119999999
 20
1026.4274479999999
 30
0.0
 70
     8
  0
VERTEX
  5
8E7
  8
1
 62
     7
 10
1895.6106199999999
 20
1028.3685390000001
 30
0.0
 70
     8
  0
VERTEX
  5
8E8
  8
1
 62
     7
 10
1895.610625
 20
1030.375446
 30
0.0
 70
     8
  0
VERTEX
  5
8E9
  8
1
 62
     7
 10
1895.6106279999999
 20
1032.3776640000001
 30
0.0
 70
     8
  0
VERTEX
  5
8EA
  8
1
 62
     7
 10
1895.610629
 20
1034.3046890000001
 30
0.0
 70
     8
  0
VERTEX
  5
8EB
  8
1
 62
     7
 10
1895.6106299999999
 20
1036.0860170000001
 30
0.0
 70
     8
  0
VERTEX
  5
8EC
  8
1
 62
     7
 10
1895.6106299999999
 20
1037.6511439999999
 30
0.0
 70
     8
  0
VERTEX
  5
8ED
  8
1
 62
     7
 10
1895.6106299999999
 20
1037.6511439999999
 30
0.0
 70
     8
  0
VERTEX
  5
8EE
  8
1
 62
     7
 10
1895.6106299999999
 20
1038.9467749999999
 30
0.0
 70
     8
  0
VERTEX
  5
8EF
  8
1
 62
     7
 10
1895.6106299999999
 20
1039.988456
 30
0.0
 70
     8
  0
VERTEX
  5
8F0
  8
1
 62
     7
 10
1895.6106299999999
 20
1040.808941
 30
0.0
 70
     8
  0
VERTEX
  5
8F1
  8
1
 62
     7
 10
1895.6106299999999
 20
1041.440985
 30
0.0
 70
     8
  0
VERTEX
  5
8F2
  8
1
 62
     7
 10
1895.6106299999999
 20
1041.917342
 30
0.0
 70
     8
  0
VERTEX
  5
8F3
  8
1
 62
     7
 10
1895.6106299999999
 20
1042.2707660000001
 30
0.0
 70
     8
  0
VERTEX
  5
8F4
  8
1
 62
     7
 10
1895.6106299999999
 20
1042.5340120000001
 30
0.0
 70
     8
  0
VERTEX
  5
8F5
  8
1
 62
     7
 10
1895.6106299999999
 20
1042.739834
 30
0.0
 70
     8
  0
VERTEX
  5
8F6
  8
1
 62
     7
 10
1895.6106299999999
 20
1042.9209880000001
 30
0.0
 70
     8
  0
VERTEX
  5
8F7
  8
1
 62
     7
 10
1895.6106299999999
 20
1043.1102269999999
 30
0.0
 70
     8
  0
VERTEX
  5
8F8
  8
1
 62
     7
 10
1895.6106299999999
 20
1043.1102269999999
 30
0.0
 70
     8
  0
VERTEX
  5
8F9
  8
1
 62
     7
 10
1895.610277
 20
1043.33376
 30
0.0
 70
     8
  0
VERTEX
  5
8FA
  8
1
 62
     7
 10
1895.6078050000001
 20
1043.591615
 30
0.0
 70
     8
  0
VERTEX
  5
8FB
  8
1
 62
     7
 10
1895.601097
 20
1043.8772710000001
 30
0.0
 70
     8
  0
VERTEX
  5
8FC
  8
1
 62
     7
 10
1895.588033
 20
1044.184211
 30
0.0
 70
     8
  0
VERTEX
  5
8FD
  8
1
 62
     7
 10
1895.566495
 20
1044.5059140000001
 30
0.0
 70
     8
  0
VERTEX
  5
8FE
  8
1
 62
     7
 10
1895.5343640000001
 20
1044.835863
 30
0.0
 70
     8
  0
VERTEX
  5
8FF
  8
1
 62
     7
 10
1895.4895220000001
 20
1045.167537
 30
0.0
 70
     8
  0
VERTEX
  5
900
  8
1
 62
     7
 10
1895.4298510000001
 20
1045.4944190000001
 30
0.0
 70
     8
  0
VERTEX
  5
901
  8
1
 62
     7
 10
1895.3532319999999
 20
1045.809988
 30
0.0
 70
     8
  0
VERTEX
  5
902
  8
1
 62
     7
 10
1895.2575469999999
 20
1046.1077270000001
 30
0.0
 70
     8
  0
VERTEX
  5
903
  8
1
 62
     7
 10
1895.2575469999999
 20
1046.1077270000001
 30
0.0
 70
     8
  0
VERTEX
  5
904
  8
1
 62
     7
 10
1895.1410900000001
 20
1046.382333
 30
0.0
 70
     8
  0
VERTEX
  5
905
  8
1
 62
     7
 10
1895.003815
 20
1046.6333749999999
 30
0.0
 70
     8
  0
VERTEX
  5
906
  8
1
 62
     7
 10
1894.846088
 20
1046.861639
 30
0.0
 70
     8
  0
VERTEX
  5
907
  8
1
 62
     7
 10
1894.6682760000001
 20
1047.0679110000001
 30
0.0
 70
     8
  0
VERTEX
  5
908
  8
1
 62
     7
 10
1894.4707450000001
 20
1047.2529770000001
 30
0.0
 70
     8
  0
VERTEX
  5
909
  8
1
 62
     7
 10
1894.2538609999999
 20
1047.417623
 30
0.0
 70
     8
  0
VERTEX
  5
90A
  8
1
 62
     7
 10
1894.0179909999999
 20
1047.562635
 30
0.0
 70
     8
  0
VERTEX
  5
90B
  8
1
 62
     7
 10
1893.7635009999999
 20
1047.688799
 30
0.0
 70
     8
  0
VERTEX
  5
90C
  8
1
 62
     7
 10
1893.490759
 20
1047.7969009999999
 30
0.0
 70
     8
  0
VERTEX
  5
90D
  8
1
 62
     7
 10
1893.2001299999999
 20
1047.887727
 30
0.0
 70
     8
  0
VERTEX
  5
90E
  8
1
 62
     7
 10
1893.2001299999999
 20
1047.887727
 30
0.0
 70
     8
  0
VERTEX
  5
90F
  8
1
 62
     7
 10
1892.892857
 20
1047.962207
 30
0.0
 70
     8
  0
VERTEX
  5
910
  8
1
 62
     7
 10
1892.5736870000001
 20
1048.0218460000001
 30
0.0
 70
     8
  0
VERTEX
  5
911
  8
1
 62
     7
 10
1892.248241
 20
1048.0682919999999
 30
0.0
 70
     8
  0
VERTEX
  5
912
  8
1
 62
     7
 10
1891.922143
 20
1048.103196
 30
0.0
 70
     8
  0
VERTEX
  5
913
  8
1
 62
     7
 10
1891.601015
 20
1048.1282060000001
 30
0.0
 70
     8
  0
VERTEX
  5
914
  8
1
 62
     7
 10
1891.2904799999999
 20
1048.1449709999999
 30
0.0
 70
     8
  0
VERTEX
  5
915
  8
1
 62
     7
 10
1890.9961599999999
 20
1048.1551400000001
 30
0.0
 70
     8
  0
VERTEX
  5
916
  8
1
 62
     7
 10
1890.723677
 20
1048.1603620000001
 30
0.0
 70
     8
  0
VERTEX
  5
917
  8
1
 62
     7
 10
1890.478654
 20
1048.1622850000001
 30
0.0
 70
     8
  0
VERTEX
  5
918
  8
1
 62
     7
 10
1890.266713
 20
1048.16256
 30
0.0
 70
     8
  0
VERTEX
  5
919
  8
1
 62
     7
 10
1890.266713
 20
1048.16256
 30
0.0
 70
     8
  0
VERTEX
  5
91A
  8
1
 62
     7
 10
1890.0918959999999
 20
1048.16256
 30
0.0
 70
     8
  0
VERTEX
  5
91B
  8
1
 62
     7
 10
1889.9519130000001
 20
1048.16256
 30
0.0
 70
     8
  0
VERTEX
  5
91C
  8
1
 62
     7
 10
1889.8428939999999
 20
1048.16256
 30
0.0
 70
     8
  0
VERTEX
  5
91D
  8
1
 62
     7
 10
1889.760968
 20
1048.16256
 30
0.0
 70
     8
  0
VERTEX
  5
91E
  8
1
 62
     7
 10
1889.7022649999999
 20
1048.16256
 30
0.0
 70
     8
  0
VERTEX
  5
91F
  8
1
 62
     7
 10
1889.6629150000001
 20
1048.16256
 30
0.0
 70
     8
  0
VERTEX
  5
920
  8
1
 62
     7
 10
1889.6390469999999
 20
1048.16256
 30
0.0
 70
     8
  0
VERTEX
  5
921
  8
1
 62
     7
 10
1889.6267909999999
 20
1048.16256
 30
0.0
 70
     8
  0
VERTEX
  5
922
  8
1
 62
     7
 10
1889.6222749999999
 20
1048.16256
 30
0.0
 70
     8
  0
VERTEX
  5
923
  8
1
 62
     7
 10
1889.6216300000001
 20
1048.16256
 30
0.0
 70
     8
  0
VERTEX
  5
924
  8
1
 62
     7
 10
1889.6216300000001
 20
1048.16256
 30
0.0
 70
     8
  0
VERTEX
  5
925
  8
1
 62
     7
 10
1889.616653
 20
1048.16256
 30
0.0
 70
     8
  0
VERTEX
  5
926
  8
1
 62
     7
 10
1889.5818159999999
 20
1048.16256
 30
0.0
 70
     8
  0
VERTEX
  5
927
  8
1
 62
     7
 10
1889.4872580000001
 20
1048.16256
 30
0.0
 70
     8
  0
VERTEX
  5
928
  8
1
 62
     7
 10
1889.303118
 20
1048.16256
 30
0.0
 70
     8
  0
VERTEX
  5
929
  8
1
 62
     7
 10
1888.999536
 20
1048.16256
 30
0.0
 70
     8
  0
VERTEX
  5
92A
  8
1
 62
     7
 10
1888.546652
 20
1048.16256
 30
0.0
 70
     8
  0
VERTEX
  5
92B
  8
1
 62
     7
 10
1887.9146049999999
 20
1048.16256
 30
0.0
 70
     8
  0
VERTEX
  5
92C
  8
1
 62
     7
 10
1887.0735340000001
 20
1048.16256
 30
0.0
 70
     8
  0
VERTEX
  5
92D
  8
1
 62
     7
 10
1885.993579
 20
1048.16256
 30
0.0
 70
     8
  0
VERTEX
  5
92E
  8
1
 62
     7
 10
1884.6448800000001
 20
1048.16256
 30
0.0
 70
     8
  0
VERTEX
  5
92F
  8
1
 62
     7
 10
1884.6448800000001
 20
1048.16256
 30
0.0
 70
     8
  0
VERTEX
  5
930
  8
1
 62
     7
 10
1883.012506
 20
1048.16256
 30
0.0
 70
     8
  0
VERTEX
  5
931
  8
1
 62
     7
 10
1881.1412479999999
 20
1048.16256
 30
0.0
 70
     8
  0
VERTEX
  5
932
  8
1
 62
     7
 10
1879.090827
 20
1048.16256
 30
0.0
 70
     8
  0
VERTEX
  5
933
  8
1
 62
     7
 10
1876.9209639999999
 20
1048.16256
 30
0.0
 70
     8
  0
VERTEX
  5
934
  8
1
 62
     7
 10
1874.69138
 20
1048.16256
 30
0.0
 70
     8
  0
VERTEX
  5
935
  8
1
 62
     7
 10
1872.461796
 20
1048.16256
 30
0.0
 70
     8
  0
VERTEX
  5
936
  8
1
 62
     7
 10
1870.291933
 20
1048.16256
 30
0.0
 70
     8
  0
VERTEX
  5
937
  8
1
 62
     7
 10
1868.2415120000001
 20
1048.16256
 30
0.0
 70
     8
  0
VERTEX
  5
938
  8
1
 62
     7
 10
1866.3702539999999
 20
1048.16256
 30
0.0
 70
     8
  0
VERTEX
  5
939
  8
1
 62
     7
 10
1864.7378799999999
 20
1048.16256
 30
0.0
 70
     8
  0
VERTEX
  5
93A
  8
1
 62
     7
 10
1864.7378799999999
 20
1048.16256
 30
0.0
 70
     8
  0
VERTEX
  5
93B
  8
1
 62
     7
 10
1863.389181
 20
1048.16256
 30
0.0
 70
     8
  0
VERTEX
  5
93C
  8
1
 62
     7
 10
1862.3092260000001
 20
1048.16256
 30
0.0
 70
     8
  0
VERTEX
  5
93D
  8
1
 62
     7
 10
1861.468155
 20
1048.16256
 30
0.0
 70
     8
  0
VERTEX
  5
93E
  8
1
 62
     7
 10
1860.836108
 20
1048.16256
 30
0.0
 70
     8
  0
VERTEX
  5
93F
  8
1
 62
     7
 10
1860.3832239999999
 20
1048.16256
 30
0.0
 70
     8
  0
VERTEX
  5
940
  8
1
 62
     7
 10
1860.0796419999999
 20
1048.16256
 30
0.0
 70
     8
  0
VERTEX
  5
941
  8
1
 62
     7
 10
1859.8955020000001
 20
1048.16256
 30
0.0
 70
     8
  0
VERTEX
  5
942
  8
1
 62
     7
 10
1859.8009440000001
 20
1048.16256
 30
0.0
 70
     8
  0
VERTEX
  5
943
  8
1
 62
     7
 10
1859.7661069999999
 20
1048.16256
 30
0.0
 70
     8
  0
VERTEX
  5
944
  8
1
 62
     7
 10
1859.7611300000001
 20
1048.16256
 30
0.0
 70
     8
  0
VERTEX
  5
945
  8
1
 62
     7
 10
1859.7611300000001
 20
1048.16256
 30
0.0
 70
     8
  0
VERTEX
  5
946
  8
1
 62
     7
 10
1859.760798
 20
1048.16256
 30
0.0
 70
     8
  0
VERTEX
  5
947
  8
1
 62
     7
 10
1859.7584750000001
 20
1048.16256
 30
0.0
 70
     8
  0
VERTEX
  5
948
  8
1
 62
     7
 10
1859.75217
 20
1048.16256
 30
0.0
 70
     8
  0
VERTEX
  5
949
  8
1
 62
     7
 10
1859.7398929999999
 20
1048.16256
 30
0.0
 70
     8
  0
VERTEX
  5
94A
  8
1
 62
     7
 10
1859.7196510000001
 20
1048.16256
 30
0.0
 70
     8
  0
VERTEX
  5
94B
  8
1
 62
     7
 10
1859.6894539999989
 20
1048.16256
 30
0.0
 70
     8
  0
VERTEX
  5
94C
  8
1
 62
     7
 10
1859.6473109999999
 20
1048.16256
 30
0.0
 70
     8
  0
VERTEX
  5
94D
  8
1
 62
     7
 10
1859.5912310000001
 20
1048.16256
 30
0.0
 70
     8
  0
VERTEX
  5
94E
  8
1
 62
     7
 10
1859.519223
 20
1048.16256
 30
0.0
 70
     8
  0
VERTEX
  5
94F
  8
1
 62
     7
 10
1859.4292969999999
 20
1048.16256
 30
0.0
 70
     8
  0
VERTEX
  5
950
  8
1
 62
     7
 10
1859.4292969999999
 20
1048.16256
 30
0.0
 70
     8
  0
VERTEX
  5
951
  8
1
 62
     7
 10
1859.320115
 20
1048.162176
 30
0.0
 70
     8
  0
VERTEX
  5
952
  8
1
 62
     7
 10
1859.192965
 20
1048.159488
 30
0.0
 70
     8
  0
VERTEX
  5
953
  8
1
 62
     7
 10
1859.049786
 20
1048.152192
 30
0.0
 70
     8
  0
VERTEX
  5
954
  8
1
 62
     7
 10
1858.892521
 20
1048.137984
 30
0.0
 70
     8
  0
VERTEX
  5
955
  8
1
 62
     7
 10
1858.723109
 20
1048.11456
 30
0.0
 70
     8
  0
VERTEX
  5
956
  8
1
 62
     7
 10
1858.5434929999999
 20
1048.079616
 30
0.0
 70
     8
  0
VERTEX
  5
957
  8
1
 62
     7
 10
1858.3556120000001
 20
1048.0308480000001
 30
0.0
 70
     8
  0
VERTEX
  5
958
  8
1
 62
     7
 10
1858.161409
 20
1047.965952
 30
0.0
 70
     8
  0
VERTEX
  5
959
  8
1
 62
     7
 10
1857.9628230000001
 20
1047.8826240000001
 30
0.0
 70
     8
  0
VERTEX
  5
95A
  8
1
 62
     7
 10
1857.7617969999999
 20
1047.77856
 30
0.0
 70
     8
  0
VERTEX
  5
95B
  8
1
 62
     7
 10
1857.7617969999999
 20
1047.77856
 30
0.0
 70
     8
  0
VERTEX
  5
95C
  8
1
 62
     7
 10
1857.5602699999999
 20
1047.652278
 30
0.0
 70
     8
  0
VERTEX
  5
95D
  8
1
 62
     7
 10
1857.3601860000001
 20
1047.5055789999999
 30
0.0
 70
     8
  0
VERTEX
  5
95E
  8
1
 62
     7
 10
1857.1634859999999
 20
1047.3410879999999
 30
0.0
 70
     8
  0
VERTEX
  5
95F
  8
1
 62
     7
 10
1856.972111
 20
1047.1614300000001
 30
0.0
 70
     8
  0
VERTEX
  5
960
  8
1
 62
     7
 10
1856.7880050000001
 20
1046.969227
 30
0.0
 70
     8
  0
VERTEX
  5
961
  8
1
 62
     7
 10
1856.6131089999999
 20
1046.767104
 30
0.0
 70
     8
  0
VERTEX
  5
962
  8
1
 62
     7
 10
1856.4493640000001
 20
1046.5576860000001
 30
0.0
 70
     8
  0
VERTEX
  5
963
  8
1
 62
     7
 10
1856.298714
 20
1046.3435950000001
 30
0.0
 70
     8
  0
VERTEX
  5
964
  8
1
 62
     7
 10
1856.1631
 20
1046.1274559999999
 30
0.0
 70
     8
  0
VERTEX
  5
965
  8
1
 62
     7
 10
1856.044463
 20
1045.9118940000001
 30
0.0
 70
     8
  0
VERTEX
  5
966
  8
1
 62
     7
 10
1856.044463
 20
1045.9118940000001
 30
0.0
 70
     8
  0
VERTEX
  5
967
  8
1
 62
     7
 10
1855.944133
 20
1045.6993709999999
 30
0.0
 70
     8
  0
VERTEX
  5
968
  8
1
 62
     7
 10
1855.860979
 20
1045.491712
 30
0.0
 70
     8
  0
VERTEX
  5
969
  8
1
 62
     7
 10
1855.7932599999999
 20
1045.2905820000001
 30
0.0
 70
     8
  0
VERTEX
  5
96A
  8
1
 62
     7
 10
1855.739231
 20
1045.0976430000001
 30
0.0
 70
     8
  0
VERTEX
  5
96B
  8
1
 62
     7
 10
1855.6971510000001
 20
1044.9145599999999
 30
0.0
 70
     8
  0
VERTEX
  5
96C
  8
1
 62
     7
 10
1855.6652750000001
 20
1044.7429979999999
 30
0.0
 70
     8
  0
VERTEX
  5
96D
  8
1
 62
     7
 10
1855.6418619999999
 20
1044.584619
 30
0.0
 70
     8
  0
VERTEX
  5
96E
  8
1
 62
     7
 10
1855.6251669999999
 20
1044.441088
 30
0.0
 70
     8
  0
VERTEX
  5
96F
  8
1
 62
     7
 10
1855.6134489999999
 20
1044.3140699999999
 30
0.0
 70
     8
  0
VERTEX
  5
970
  8
1
 62
     7
 10
1855.604963
 20
1044.2052269999999
 30
0.0
 70
     8
  0
VERTEX
  5
971
  8
1
 62
     7
 10
1855.604963
 20
1044.2052269999999
 30
0.0
 70
     8
  0
VERTEX
  5
972
  8
1
 62
     7
 10
1855.598197
 20
1044.115129
 30
0.0
 70
     8
  0
VERTEX
  5
973
  8
1
 62
     7
 10
1855.592551
 20
1044.0399600000001
 30
0.0
 70
     8
  0
VERTEX
  5
974
  8
1
 62
     7
 10
1855.587657
 20
1043.9748099999999
 30
0.0
 70
     8
  0
VERTEX
  5
975
  8
1
 62
     7
 10
1855.5831459999999
 20
1043.9147680000001
 30
0.0
 70
     8
  0
VERTEX
  5
976
  8
1
 62
     7
 10
1855.5786479999999
 20
1043.8549250000001
 30
0.0
 70
     8
  0
VERTEX
  5
977
  8
1
 62
     7
 10
1855.573795
 20
1043.7903690000001
 30
0.0
 70
     8
  0
VERTEX
  5
978
  8
1
 62
     7
 10
1855.568217
 20
1043.7161900000001
 30
0.0
 70
     8
  0
VERTEX
  5
979
  8
1
 62
     7
 10
1855.561545
 20
1043.6274780000001
 30
0.0
 70
     8
  0
VERTEX
  5
97A
  8
1
 62
     7
 10
1855.55341
 20
1043.519321
 30
0.0
 70
     8
  0
VERTEX
  5
97B
  8
1
 62
     7
 10
1855.5434419999999
 20
1043.38681
 30
0.0
 70
     8
  0
VERTEX
  5
97C
  8
1
 62
     7
 10
1855.5434419999999
 20
1043.38681
 30
0.0
 70
     8
  0
VERTEX
  5
97D
  8
1
 62
     7
 10
1855.5311079999999
 20
1043.2259590000001
 30
0.0
 70
     8
  0
VERTEX
  5
97E
  8
1
 62
     7
 10
1855.5152069999999
 20
1043.036478
 30
0.0
 70
     8
  0
VERTEX
  5
97F
  8
1
 62
     7
 10
1855.4943740000001
 20
1042.8190029999989
 30
0.0
 70
     8
  0
VERTEX
  5
980
  8
1
 62
     7
 10
1855.4672430000001
 20
1042.574169
 30
0.0
 70
     8
  0
VERTEX
  5
981
  8
1
 62
     7
 10
1855.4324489999999
 20
1042.302612
 30
0.0
 70
     8
  0
VERTEX
  5
982
  8
1
 62
     7
 10
1855.3886259999999
 20
1042.004968
 30
0.0
 70
     8
  0
VERTEX
  5
983
  8
1
 62
     7
 10
1855.3344090000001
 20
1041.6818720000001
 30
0.0
 70
     8
  0
VERTEX
  5
984
  8
1
 62
     7
 10
1855.268433
 20
1041.3339599999999
 30
0.0
 70
     8
  0
VERTEX
  5
985
  8
1
 62
     7
 10
1855.1893319999999
 20
1040.9618660000001
 30
0.0
 70
     8
  0
VERTEX
  5
986
  8
1
 62
     7
 10
1855.0957410000001
 20
1040.566227
 30
0.0
 70
     8
  0
VERTEX
  5
987
  8
1
 62
     7
 10
1855.0957410000001
 20
1040.566227
 30
0.0
 70
     8
  0
VERTEX
  5
988
  8
1
 62
     7
 10
1854.861787
 20
1039.707474
 30
0.0
 70
     8
  0
VERTEX
  5
989
  8
1
 62
     7
 10
1854.5664589999999
 20
1038.7658819999999
 30
0.0
 70
     8
  0
VERTEX
  5
98A
  8
1
 62
     7
 10
1854.211804
 20
1037.7502509999999
 30
0.0
 70
     8
  0
VERTEX
  5
98B
  8
1
 62
     7
 10
1853.7998700000001
 20
1036.669384
 30
0.0
 70
     8
  0
VERTEX
  5
98C
  8
1
 62
     7
 10
1853.3327059999999
 20
1035.5320810000001
 30
0.0
 70
     8
  0
VERTEX
  5
98D
  8
1
 62
     7
 10
1852.812361
 20
1034.347143
 30
0.0
 70
     8
  0
VERTEX
  5
98E
  8
1
 62
     7
 10
1852.2408820000001
 20
1033.1233709999999
 30
0.0
 70
     8
  0
VERTEX
  5
98F
  8
1
 62
     7
 10
1851.6203190000001
 20
1031.8695660000001
 30
0.0
 70
     8
  0
VERTEX
  5
990
  8
1
 62
     7
 10
1850.9527189999999
 20
1030.5945280000001
 30
0.0
 70
     8
  0
VERTEX
  5
991
  8
1
 62
     7
 10
1850.2401299999999
 20
1029.3070600000001
 30
0.0
 70
     8
  0
VERTEX
  5
992
  8
1
 62
     7
 10
1811.8391300000001
 20
973.47655999999995
 30
0.0
 70
    16
  0
VERTEX
  5
993
  8
1
 62
     7
 10
1699.5146299999999
 20
972.84406000000001
 30
0.0
 70
    16
  0
VERTEX
  5
994
  8
1
 62
     7
 10
1589.96713
 20
963.26156000000015
 30
0.0
 70
    16
  0
VERTEX
  5
995
  8
1
 62
     7
 10
1589.96713
 20
963.26156000000015
 30
0.0
 70
    16
  0
VERTEX
  5
996
  8
1
 62
     7
 10
1589.96713
 20
963.26156000000015
 30
0.0
 70
    16
  0
VERTEX
  5
997
  8
1
 62
     7
 10
1588.63813
 20
962.63405999999998
 30
0.0
 70
    16
  0
VERTEX
  5
998
  8
1
 62
     7
 10
1588.63813
 20
962.63405999999998
 30
0.0
 70
    16
  0
VERTEX
  5
999
  8
1
 62
     7
 10
1588.63813
 20
962.63405999999998
 30
0.0
 70
    16
  0
VERTEX
  5
99A
  8
1
 62
     7
 10
1588.63813
 20
962.63405999999998
 30
0.0
 70
    16
  0
VERTEX
  5
99B
  8
1
 62
     7
 10
1588.06663
 20
962.1335600000001
 30
0.0
 70
    16
  0
VERTEX
  5
99C
  8
1
 62
     7
 10
1588.06663
 20
962.1335600000001
 30
0.0
 70
    16
  0
VERTEX
  5
99D
  8
1
 62
     7
 10
1588.06663
 20
962.1335600000001
 30
0.0
 70
    16
  0
VERTEX
  5
99E
  8
1
 62
     7
 10
1588.06663
 20
962.1335600000001
 30
0.0
 70
    16
  0
VERTEX
  5
99F
  8
1
 62
     7
 10
1588.0661299999999
 20
962.13306
 30
0.0
 70
    16
  0
VERTEX
  5
9A0
  8
1
 62
     7
 10
1588.0661299999999
 20
962.13306
 30
0.0
 70
    16
  0
VERTEX
  5
9A1
  8
1
 62
     7
 10
1588.0661299999999
 20
962.13306
 30
0.0
 70
    16
  0
VERTEX
  5
9A2
  8
1
 62
     7
 10
1588.0661299999999
 20
962.13306
 30
0.0
 70
    16
  0
VERTEX
  5
9A3
  8
1
 62
     7
 10
1577.87463
 20
953.24156000000005
 30
0.0
 70
    16
  0
VERTEX
  5
9A4
  8
1
 62
     7
 10
1577.87463
 20
953.24156000000005
 30
0.0
 70
    16
  0
VERTEX
  5
9A5
  8
1
 62
     7
 10
1577.87463
 20
953.24156000000005
 30
0.0
 70
    16
  0
VERTEX
  5
9A6
  8
1
 62
     7
 10
1577.87463
 20
953.24156000000005
 30
0.0
 70
    16
  0
VERTEX
  5
9A7
  8
1
 62
     7
 10
1577.8806300000001
 20
938.66056000000015
 30
0.0
 70
    16
  0
VERTEX
  5
9A8
  8
1
 62
     7
 10
1577.8806300000001
 20
938.66056000000015
 30
0.0
 70
    16
  0
VERTEX
  5
9A9
  8
1
 62
     7
 10
1577.8806300000001
 20
938.66056000000015
 30
0.0
 70
    16
  0
VERTEX
  5
9AA
  8
1
 62
     7
 10
1577.8806300000001
 20
938.66056000000015
 30
0.0
 70
    16
  0
VERTEX
  5
9AB
  8
1
 62
     7
 10
1585.0806299999999
 20
938.66056000000015
 30
0.0
 70
    16
  0
VERTEX
  5
9AC
  8
1
 62
     7
 10
1585.0806299999999
 20
938.66056000000015
 30
0.0
 70
    16
  0
VERTEX
  5
9AD
  8
1
 62
     7
 10
1585.0806299999999
 20
938.66056000000015
 30
0.0
 70
    16
  0
VERTEX
  5
9AE
  8
1
 62
     7
 10
1585.0806299999999
 20
938.66056000000015
 30
0.0
 70
    16
  0
VERTEX
  5
9AF
  8
1
 62
     7
 10
1590.6806300000001
 20
948.77706000000012
 30
0.0
 70
    16
  0
VERTEX
  5
9B0
  8
1
 62
     7
 10
1590.6806300000001
 20
948.77706000000012
 30
0.0
 70
    16
  0
VERTEX
  5
9B1
  8
1
 62
     7
 10
1590.6806300000001
 20
948.77706000000012
 30
0.0
 70
    16
  0
VERTEX
  5
9B2
  8
1
 62
     7
 10
1591.5046299999999
 20
949.80705999999998
 30
0.0
 70
    16
  0
VERTEX
  5
9B3
  8
1
 62
     7
 10
1595.08213
 20
952.12256000000014
 30
0.0
 70
    16
  0
VERTEX
  5
9B4
  8
1
 62
     7
 10
1596.57963
 20
952.46655999999996
 30
0.0
 70
    16
  0
VERTEX
  5
9B5
  8
1
 62
     7
 10
1596.57963
 20
952.46655999999996
 30
0.0
 70
    16
  0
VERTEX
  5
9B6
  8
1
 62
     7
 10
1669.3251299999999
 20
964.87156000000004
 30
0.0
 70
    16
  0
VERTEX
  5
9B7
  8
1
 62
     7
 10
1830.2491299999999
 20
954.22355999999991
 30
0.0
 70
    16
  0
VERTEX
  5
9B8
  8
1
 62
     7
 10
1865.6721299999999
 20
1036.05556
 30
0.0
 70
    16
  0
VERTEX
  5
9B9
  8
1
 62
     7
 10
1865.6721299999999
 20
1036.05556
 30
0.0
 70
    16
  0
VERTEX
  5
9BA
  8
1
 62
     7
 10
1866.4511299999999
 20
1037.85556
 30
0.0
 70
    16
  0
VERTEX
  5
9BB
  8
1
 62
     7
 10
1866.53763
 20
1037.78306
 30
0.0
 70
    16
  0
VERTEX
  5
9BC
  8
1
 62
     7
 10
1868.51313
 20
1037.7835600000001
 30
0.0
 70
    16
  0
VERTEX
  5
9BD
  8
1
 62
     7
 10
1868.51313
 20
1037.7835600000001
 30
0.0
 70
    16
  0
VERTEX
  5
9BE
  8
1
 62
     7
 10
1868.51313
 20
1037.7835600000001
 30
0.0
 70
    16
  0
VERTEX
  5
9BF
  8
1
 62
     7
 10
1883.0501300000001
 20
1037.8035600000001
 30
0.0
 70
    16
  0
VERTEX
  5
9C0
  8
1
 62
     7
 10
1883.0501300000001
 20
1037.8035600000001
 30
0.0
 70
    16
  0
VERTEX
  5
9C1
  8
1
 62
     7
 10
1883.0501300000001
 20
1037.8035600000001
 30
0.0
 70
    16
  0
VERTEX
  5
9C2
  8
1
 62
     7
 10
1884.6186299999999
 20
1037.80556
 30
0.0
 70
    16
  0
VERTEX
  5
9C3
  8
1
 62
     7
 10
1885.2431300000001
 20
1037.40806
 30
0.0
 70
    16
  0
VERTEX
  5
9C4
  8
1
 62
     7
 10
1885.23963
 20
1035.47606
 30
0.0
 70
    16
  0
VERTEX
  5
9C5
  8
1
 62
     7
 10
1885.23963
 20
1035.47606
 30
0.0
 70
    16
  0
VERTEX
  5
9C6
  8
1
 62
     7
 10
1885.23963
 20
1035.47606
 30
0.0
 70
    16
  0
VERTEX
  5
9C7
  8
1
 62
     7
 10
1885.1596300000001
 20
998.34555999999986
 30
0.0
 70
    16
  0
VERTEX
  5
9C8
  8
1
 62
     7
 10
1885.1596300000001
 20
998.34555999999986
 30
0.0
 70
    16
  0
VERTEX
  5
9C9
  8
1
 62
     7
 10
1885.1596300000001
 20
998.34555999999986
 30
0.0
 70
    16
  0
VERTEX
  5
9CA
  8
1
 62
     7
 10
1885.1596300000001
 20
998.34555999999986
 30
0.0
 70
    16
  0
VERTEX
  5
9CB
  8
1
 62
     7
 10
1895.61013
 20
998.21256000000005
 30
0.0
 70
    16
  0
VERTEX
  5
9CC
  8
1
 62
     7
 10
1895.61013
 20
998.21256000000005
 30
0.0
 70
    16
  0
VERTEX
  5
9CD
  8
1
 62
     7
 10
1895.61013
 20
998.21256000000005
 30
0.0
 70
    16
  0
VERTEX
  5
9CE
  8
1
 62
     7
 10
1895.61013
 20
1026.9220600000001
 30
0.0
 70
    16
  0
VERTEX
  5
9CF
  8
1
 62
     7
 10
1895.6106299999999
 20
1013.75906
 30
0.0
 70
    16
  0
VERTEX
  5
9D0
  8
1
 62
     7
 10
1895.6106299999999
 20
1042.42956
 30
0.0
 70
    16
  0
VERTEX
  5
9D1
  8
1
 62
     7
 10
1895.6106299999999
 20
1042.42956
 30
0.0
 70
    16
  0
VERTEX
  5
9D2
  8
1
 62
     7
 10
1895.6106299999999
 20
1046.5135600000001
 30
0.0
 70
    16
  0
VERTEX
  5
9D3
  8
1
 62
     7
 10
1893.4921300000001
 20
1048.16256
 30
0.0
 70
    16
  0
VERTEX
  5
9D4
  8
1
 62
     7
 10
1889.6216300000001
 20
1048.16256
 30
0.0
 70
    16
  0
VERTEX
  5
9D5
  8
1
 62
     7
 10
1889.6216300000001
 20
1048.16256
 30
0.0
 70
    16
  0
VERTEX
  5
9D6
  8
1
 62
     7
 10
1889.6216300000001
 20
1048.16256
 30
0.0
 70
    16
  0
VERTEX
  5
9D7
  8
1
 62
     7
 10
1859.7611300000001
 20
1048.16256
 30
0.0
 70
    16
  0
VERTEX
  5
9D8
  8
1
 62
     7
 10
1859.7611300000001
 20
1048.16256
 30
0.0
 70
    16
  0
VERTEX
  5
9D9
  8
1
 62
     7
 10
1859.7611300000001
 20
1048.16256
 30
0.0
 70
    16
  0
VERTEX
  5
9DA
  8
1
 62
     7
 10
1857.7701300000001
 20
1048.16256
 30
0.0
 70
    16
  0
VERTEX
  5
9DB
  8
1
 62
     7
 10
1855.7291299999999
 20
1045.8585599999999
 30
0.0
 70
    16
  0
VERTEX
  5
9DC
  8
1
 62
     7
 10
1855.5801300000001
 20
1043.87456
 30
0.0
 70
    16
  0
VERTEX
  5
9DD
  8
1
 62
     7
 10
1855.5801300000001
 20
1043.87456
 30
0.0
 70
    16
  0
VERTEX
  5
9DE
  8
1
 62
     7
 10
1855.2866300000001
 20
1039.9725599999999
 30
0.0
 70
    16
  0
VERTEX
  5
9DF
  8
1
 62
     7
 10
1852.68813
 20
1033.6095600000001
 30
0.0
 70
    16
  0
VERTEX
  5
9E0
  8
1
 62
     7
 10
1850.2401299999999
 20
1029.3070600000001
 30
0.0
 70
    16
  0
SEQEND
  5
9E1
  8
1
 62
     7
  0
LINE
  5
9E2
  8
LAYER01
  6
CONTINUOUS
 62
     7
 10
1887.4726740000001
 20
998.31612299999995
 30
0.0
 11
1847.1224649999999
 21
998.31612299999995
 31
0.0
  0
DIMENSION
  5
9E3
  8
LAYER01
 62
     1
  2
*D20
 10
1895.6106279999999
 20
1194.356096
 30
0.0
 11
1982.896342
 21
1224.356096
 31
0.0
 13
1855.0957410000001
 23
1120.471395
 33
0.0
 14
1895.6106279999999
 24
1120.471395
 34
0.0
  0
DIMENSION
  5
9E4
  8
LAYER01
 62
     1
  2
*D21
 10
1855.0957410000001
 20
1194.356096
 30
0.0
 11
1677.8424359999999
 21
1224.356096
 31
0.0
 13
1500.5891300000001
 23
1120.471395
 33
0.0
 14
1855.0957410000001
 24
1120.471395
 34
0.0
  0
LINE
  5
9E5
  8
1
  6
CONTINUOUS
 62
     7
 10
1494.4251300000001
 20
1048.2655600000001
 30
0.0
 11
1859.7611300000001
 21
1048.16256
 31
0.0
  0
LINE
  5
9E6
  8
1
  6
CONTINUOUS
 62
     7
 10
1531.881128
 20
953.24467100000004
 30
0.0
 11
1577.87463
 21
953.24156000000005
 31
0.0
  0
LINE
  5
9E7
  8
1
  6
CONTINUOUS
 62
     7
 10
1531.88013
 20
938.49105999999995
 30
0.0
 11
1577.8806300000001
 21
938.66056000000015
 31
0.0
  0
LINE
  5
9E8
  8
LAYER01
  6
CONTINUOUS
 62
     7
 10
1458.1335469999999
 20
1048.2655130000001
 30
0.0
 11
1458.1335469999999
 21
1037.777394
 31
0.0
  0
LINE
  5
9E9
  8
LAYER01
  6
STRICHPUNKTIERT
 62
     6
 10
1440.6335469999999
 20
1072.162167
 30
0.0
 11
1440.6335469999999
 21
1014.515862
 31
0.0
  0
DIMENSION
  5
9EA
  8
LAYER01
 62
     1
  2
*D22
 10
1968.412832
 20
998.31612299999995
 30
0.0
 11
1938.412832
 21
1023.239342
 31
0.0
 53
90.0
 13
1914.8261259999999
 23
1048.16256
 33
0.0
 14
1914.8261259999999
 24
998.31612299999995
 34
0.0
 50
90.0
  0
INSERT
  5
A01
  8
LAYER01
  6
CONTINUOUS
 62
     7
  2
WMF0
 10
1094.122927438362
 20
-1586.9623910708931
 30
0.0
 41
0.25
 42
0.25
 43
0.25
  0
ENDSEC
  0
EOF
