  0
SECTION
  2
HEADER
  9
$ACADVER
  1
AC1009
  9
$INSBASE
 10
0.0
 20
0.0
 30
0.0
  9
$EXTMIN
 10
-6868.7909449999997
 20
-727.389546
 30
0.0
  9
$EXTMAX
 10
-2898.9497260000012
 20
2030.286415
 30
0.0
  9
$LIMMIN
 10
-500.87865799999997
 20
-838.78993299999991
  9
$LIMMAX
 10
3699.1213419999999
 20
2131.210067
  9
$ORTHOMODE
 70
     1
  9
$REGENMODE
 70
     1
  9
$FILLMODE
 70
     1
  9
$QTEXTMODE
 70
     0
  9
$MIRRTEXT
 70
     0
  9
$DRAGMODE
 70
     2
  9
$LTSCALE
 40
50.0
  9
$OSMODE
 70
    43
  9
$ATTMODE
 70
     1
  9
$TEXTSIZE
 40
0.0
  9
$TRACEWID
 40
0.05
  9
$TEXTSTYLE
  7
STANDARD
  9
$CLAYER
  8
LAYER01
  9
$CELTYPE
  6
VERDECKT
  9
$CECOLOR
 62
     7
  9
$DIMSCALE
 40
1.0
  9
$DIMASZ
 40
0.18
  9
$DIMEXO
 40
0.0625
  9
$DIMDLI
 40
0.38
  9
$DIMRND
 40
0.0
  9
$DIMDLE
 40
0.0
  9
$DIMEXE
 40
0.18
  9
$DIMTP
 40
0.0
  9
$DIMTM
 40
0.0
  9
$DIMTXT
 40
0.18
  9
$DIMCEN
 40
0.09
  9
$DIMTSZ
 40
0.0
  9
$DIMTOL
 70
     0
  9
$DIMLIM
 70
     0
  9
$DIMTIH
 70
     1
  9
$DIMTOH
 70
     1
  9
$DIMSE1
 70
     0
  9
$DIMSE2
 70
     0
  9
$DIMTAD
 70
     0
  9
$DIMZIN
 70
     0
  9
$DIMBLK
  1

  9
$DIMASO
 70
     1
  9
$DIMSHO
 70
     1
  9
$DIMPOST
  1

  9
$DIMAPOST
  1

  9
$DIMALT
 70
     0
  9
$DIMALTD
 70
     2
  9
$DIMALTF
 40
25.399999999999999
  9
$DIMLFAC
 40
1.0
  9
$DIMTOFL
 70
     0
  9
$DIMTVP
 40
0.0
  9
$DIMTIX
 70
     0
  9
$DIMSOXD
 70
     0
  9
$DIMSAH
 70
     0
  9
$DIMBLK1
  1

  9
$DIMBLK2
  1

  9
$DIMSTYLE
  2
STANDARD
  9
$DIMCLRD
 70
     0
  9
$DIMCLRE
 70
     0
  9
$DIMCLRT
 70
     0
  9
$DIMTFAC
 40
1.0
  9
$DIMGAP
 40
0.09
  9
$LUNITS
 70
     2
  9
$LUPREC
 70
     4
  9
$SKETCHINC
 40
0.1
  9
$FILLETRAD
 40
10.0
  9
$AUNITS
 70
     0
  9
$AUPREC
 70
     0
  9
$MENU
  1
acad
  9
$ELEVATION
 40
0.0
  9
$PELEVATION
 40
0.0
  9
$THICKNESS
 40
0.0
  9
$LIMCHECK
 70
     0
  9
$BLIPMODE
 70
     0
  9
$CHAMFERA
 40
0.0
  9
$CHAMFERB
 40
0.0
  9
$SKPOLY
 70
     0
  9
$TDCREATE
 40
2305814.0418137149
  9
$TDUPDATE
 40
2457835.7342929868
  9
$TDINDWG
 40
0.0044088194
  9
$TDUSRTIMER
 40
0.0044087963
  9
$USRTIMER
 70
     1
  9
$ANGBASE
 50
0.0
  9
$ANGDIR
 70
     0
  9
$PDMODE
 70
     0
  9
$PDSIZE
 40
0.0
  9
$PLINEWID
 40
0.0
  9
$COORDS
 70
     1
  9
$SPLFRAME
 70
     0
  9
$SPLINETYPE
 70
     6
  9
$SPLINESEGS
 70
    10
  9
$ATTDIA
 70
     0
  9
$ATTREQ
 70
     1
  9
$HANDLING
 70
     1
  9
$HANDSEED
  5
F71
  9
$SURFTAB1
 70
     6
  9
$SURFTAB2
 70
     6
  9
$SURFTYPE
 70
     6
  9
$SURFU
 70
     6
  9
$SURFV
 70
     6
  9
$UCSNAME
  2

  9
$UCSORG
 10
0.0
 20
0.0
 30
0.0
  9
$UCSXDIR
 10
1.0
 20
0.0
 30
0.0
  9
$UCSYDIR
 10
0.0
 20
1.0
 30
0.0
  9
$PUCSNAME
  2

  9
$PUCSORG
 10
0.0
 20
0.0
 30
0.0
  9
$PUCSXDIR
 10
1.0
 20
0.0
 30
0.0
  9
$PUCSYDIR
 10
0.0
 20
1.0
 30
0.0
  9
$USERI1
 70
     0
  9
$USERI2
 70
     0
  9
$USERI3
 70
     0
  9
$USERI4
 70
     0
  9
$USERI5
 70
     0
  9
$USERR1
 40
0.0
  9
$USERR2
 40
0.0
  9
$USERR3
 40
0.0
  9
$USERR4
 40
0.0
  9
$USERR5
 40
0.0
  9
$WORLDVIEW
 70
     1
  9
$SHADEDGE
 70
     3
  9
$SHADEDIF
 70
    70
  9
$TILEMODE
 70
     1
  9
$MAXACTVP
 70
    64
  9
$PLIMCHECK
 70
     0
  9
$PEXTMIN
 10
1.0000000000000000E+020
 20
1.0000000000000000E+020
 30
1.0000000000000000E+020
  9
$PEXTMAX
 10
-1.0000000000000000E+020
 20
-1.0000000000000000E+020
 30
-1.0000000000000000E+020
  9
$PLIMMIN
 10
0.0
 20
0.0
  9
$PLIMMAX
 10
12.0
 20
9.0
  9
$UNITMODE
 70
     0
  9
$VISRETAIN
 70
     1
  9
$PLINEGEN
 70
     0
  9
$PSLTSCALE
 70
     1
  0
ENDSEC
  0
SECTION
  2
TABLES
  0
TABLE
  2
VPORT
 70
     1
  0
VPORT
  2
*ACTIVE
 70
     0
 10
0.0
 20
0.0
 11
1.0
 21
1.0
 12
-4761.7237371573747
 22
697.31371481320002
 13
0.0
 23
0.0
 14
1.0
 24
1.0
 15
0.0
 25
0.0
 16
0.0
 26
0.0
 36
1.0
 17
0.0
 27
0.0
 37
0.0
 40
3388.101509807404
 41
1.38508064516129
 42
50.0
 43
0.0
 44
0.0
 50
0.0
 51
0.0
 71
     0
 72
   100
 73
     1
 74
     1
 75
     0
 76
     0
 77
     0
 78
     0
  0
ENDTAB
  0
TABLE
  2
LTYPE
 70
    11
  0
LTYPE
  2
CONTINUOUS
 70
     0
  3
Solid line
 72
    65
 73
     0
 40
0.0
  0
LTYPE
  2
VERDECKT
 70
     0
  3
_ _ _ _ _ _ _ _ _ _ _ _ _ _ _ _ _ _ _ _ _ _ 
 72
    65
 73
     2
 40
0.25
 49
0.125
 49
-0.125
  0
LTYPE
  2
GESTRICHELT
 70
     0
  3
__ __ __ __ __ __ __ __ __ __ __ __ __ __ __
 72
    65
 73
     2
 40
0.75
 49
0.5
 49
-0.25
  0
LTYPE
  2
MITTELLINIE
 70
     0
  3
____ _ ____ _ ____ _ ____ _ ____ _ ____ _ __
 72
    65
 73
     4
 40
2.0
 49
1.25
 49
-0.25
 49
0.25
 49
-0.25
  0
LTYPE
  2
PHANTOM
 70
     0
  3
_____ _ _ _____ _ _ _____ _ _ _____ _ _ ____
 72
    65
 73
     6
 40
2.5
 49
1.25
 49
-0.25
 49
0.25
 49
-0.25
 49
0.25
 49
-0.25
  0
LTYPE
  2
PUNKTIERT
 70
     0
  3
............................................
 72
    65
 73
     2
 40
0.25
 49
0.0
 49
-0.25
  0
LTYPE
  2
STRICHPUNKTIERT
 70
     0
  3
__ . __ . __ . __ . __ . __ . __ . __ . __ .
 72
    65
 73
     4
 40
1.0
 49
0.5
 49
-0.25
 49
0.0
 49
-0.25
  0
LTYPE
  2
RAND
 70
     0
  3
__ __ . __ __ . __ __ . __ __ . __ __ . __ _
 72
    65
 73
     6
 40
1.75
 49
0.5
 49
-0.25
 49
0.5
 49
-0.25
 49
0.0
 49
-0.25
  0
LTYPE
  2
TRENNLINIE
 70
     0
  3
__ . . __ . . __ . . __ . . __ . . __ . . __
 72
    65
 73
     6
 40
1.25
 49
0.5
 49
-0.25
 49
0.0
 49
-0.25
 49
0.0
 49
-0.25
  0
LTYPE
  2
ENG_PUNKTIERT
 70
     0
  3
Schließen                                   
 72
    65
 73
     2
 40
0.1
 49
0.05
 49
-0.05
  0
LTYPE
  2
CLOSE
 70
     0
  3
                                            
 72
    65
 73
     0
 40
0.0
  0
ENDTAB
  0
TABLE
  2
LAYER
 70
   254
  0
LAYER
  2
0
 70
     0
 62
     7
  6
CONTINUOUS
  0
LAYER
  2
LAYER01
 70
     0
 62
     7
  6
CONTINUOUS
  0
LAYER
  2
LAYER02
 70
     0
 62
     7
  6
CONTINUOUS
  0
LAYER
  2
LAYER03
 70
     0
 62
     7
  6
CONTINUOUS
  0
LAYER
  2
LAYER04
 70
     0
 62
     7
  6
CONTINUOUS
  0
LAYER
  2
LAYER05
 70
     0
 62
     7
  6
CONTINUOUS
  0
LAYER
  2
LAYER06
 70
     0
 62
     7
  6
CONTINUOUS
  0
LAYER
  2
LAYER07
 70
     0
 62
     7
  6
CONTINUOUS
  0
LAYER
  2
LAYER08
 70
     0
 62
     7
  6
CONTINUOUS
  0
LAYER
  2
LAYER09
 70
     0
 62
     7
  6
CONTINUOUS
  0
LAYER
  2
LAYER10
 70
     0
 62
     7
  6
CONTINUOUS
  0
LAYER
  2
KERA4
 70
     0
 62
     7
  6
CONTINUOUS
  0
LAYER
  2
2
 70
     0
 62
     7
  6
CONTINUOUS
  0
LAYER
  2
5
 70
     0
 62
     7
  6
CONTINUOUS
  0
LAYER
  2
RAUMAUFM
 70
     0
 62
     7
  6
CONTINUOUS
  0
LAYER
  2
EINRICHT
 70
     0
 62
     7
  6
CONTINUOUS
  0
LAYER
  2
HILFE
 70
     0
 62
     7
  6
CONTINUOUS
  0
LAYER
  2
SCHNITTE
 70
     0
 62
     7
  6
CONTINUOUS
  0
LAYER
  2
SCHRAFF1
 70
     0
 62
     7
  6
CONTINUOUS
  0
LAYER
  2
SCHRAFF2
 70
     0
 62
     7
  6
CONTINUOUS
  0
LAYER
  2
BEMASS-1
 70
     0
 62
     7
  6
CONTINUOUS
  0
LAYER
  2
BEMASS-2
 70
     0
 62
     7
  6
CONTINUOUS
  0
LAYER
  2
TEXT
 70
     0
 62
     7
  6
CONTINUOUS
  0
LAYER
  2
SYMBOLE
 70
     0
 62
     7
  6
CONTINUOUS
  0
LAYER
  2
RAHMEN
 70
     0
 62
     7
  6
CONTINUOUS
  0
LAYER
  2
SCHRIFTF
 70
     0
 62
     7
  6
CONTINUOUS
  0
LAYER
  2
ACHSEN
 70
     0
 62
     7
  6
CONTINUOUS
  0
LAYER
  2
ZEICHN
 70
     0
 62
     7
  6
CONTINUOUS
  0
LAYER
  2
7
 70
     0
 62
     7
  6
CONTINUOUS
  0
LAYER
  2
1
 70
     0
 62
     7
  6
CONTINUOUS
  0
LAYER
  2
6
 70
     0
 62
     7
  6
CONTINUOUS
  0
LAYER
  2
4
 70
     0
 62
     7
  6
CONTINUOUS
  0
LAYER
  2
GRUNDEBENE
 70
     0
 62
     7
  6
CONTINUOUS
  0
LAYER
  2
GRUNDRISS
 70
     0
 62
     7
  6
CONTINUOUS
  0
LAYER
  2
BEMASSUNGGRUNDRISS
 70
     0
 62
     7
  6
CONTINUOUS
  0
LAYER
  2
WANDELEMENTE
 70
     0
 62
     7
  6
CONTINUOUS
  0
LAYER
  2
KUECHE
 70
     0
 62
     7
  6
CONTINUOUS
  0
LAYER
  2
THEKEBROETCHEN
 70
     0
 62
     7
  6
CONTINUOUS
  0
LAYER
  2
CENTERLINIE
 70
     0
 62
     7
  6
CONTINUOUS
  0
LAYER
  2
UMRISSE
 70
     0
 62
     7
  6
CONTINUOUS
  0
LAYER
  2
MAUER
 70
     0
 62
     7
  6
CONTINUOUS
  0
LAYER
  2
SCHRAFFUR
 70
     0
 62
     7
  6
CONTINUOUS
  0
LAYER
  2
MASSLINIE
 70
     0
 62
     7
  6
CONTINUOUS
  0
LAYER
  2
PV
 70
     0
 62
     7
  6
CONTINUOUS
  0
LAYER
  2
BESCHRIFTUNG
 70
     0
 62
     7
  6
CONTINUOUS
  0
LAYER
  2
AS
 70
     0
 62
     7
  6
CONTINUOUS
  0
LAYER
  2
PL
 70
     0
 62
     7
  6
CONTINUOUS
  0
LAYER
  2
UK
 70
     0
 62
     7
  6
CONTINUOUS
  0
LAYER
  2
TEXT3
 70
     0
 62
     7
  6
CONTINUOUS
  0
LAYER
  2
TEXT7
 70
     0
 62
     7
  6
CONTINUOUS
  0
LAYER
  2
BEPL1
 70
     0
 62
     7
  6
CONTINUOUS
  0
LAYER
  2
BEPL2
 70
     0
 62
     7
  6
CONTINUOUS
  0
LAYER
  2
BEPL2V
 70
     0
 62
     7
  6
CONTINUOUS
  0
LAYER
  2
BEPL4
 70
     0
 62
     7
  6
CONTINUOUS
  0
LAYER
  2
BEPL
 70
     0
 62
     7
  6
CONTINUOUS
  0
LAYER
  2
UK1
 70
     0
 62
     7
  6
CONTINUOUS
  0
LAYER
  2
UK2
 70
     0
 62
     7
  6
CONTINUOUS
  0
LAYER
  2
UK2V
 70
     0
 62
     7
  6
CONTINUOUS
  0
LAYER
  2
UK3
 70
     0
 62
     7
  6
CONTINUOUS
  0
LAYER
  2
TEXT2
 70
     0
 62
     7
  6
CONTINUOUS
  0
LAYER
  2
HILF2S
 70
     0
 62
     7
  6
CONTINUOUS
  0
LAYER
  2
UK1V
 70
     0
 62
     7
  6
CONTINUOUS
  0
LAYER
  2
GAIN_ZRA
 70
     0
 62
     7
  6
CONTINUOUS
  0
LAYER
  2
GAIN_ZSF
 70
     0
 62
     7
  6
CONTINUOUS
  0
LAYER
  2
RAHM4
 70
     0
 62
     7
  6
CONTINUOUS
  0
LAYER
  2
KORPUSBAND
 70
     0
 62
     7
  6
CONTINUOUS
  0
LAYER
  2
E---LGPL--------
 70
     0
 62
     7
  6
CONTINUOUS
  0
LAYER
  2
E---NPFL--------
 70
     0
 62
     7
  6
CONTINUOUS
  0
LAYER
  2
E---PLNKTXT-----
 70
     0
 62
     7
  6
CONTINUOUS
  0
LAYER
  2
E---PLNK--------
 70
     0
 62
     7
  6
CONTINUOUS
  0
LAYER
  2
E---PLNR--------
 70
     0
 62
     7
  6
CONTINUOUS
  0
LAYER
  2
D547_ARCHICAD
 70
     0
 62
     7
  6
CONTINUOUS
  0
LAYER
  2
D547_E---TEXT--------
 70
     0
 62
     7
  6
CONTINUOUS
  0
LAYER
  2
E---LEGD--------
 70
     0
 62
     7
  6
CONTINUOUS
  0
LAYER
  2
D43_ARCHICAD
 70
     0
 62
     7
  6
CONTINUOUS
  0
LAYER
  2
D43_FENSTER_VON_B---FASS--
 70
     0
 62
     7
  6
CONTINUOUS
  0
LAYER
  2
D43_E---SCHN--------
 70
     0
 62
     7
  6
CONTINUOUS
  0
LAYER
  2
D43_B---MW-N--------
 70
     0
 62
     7
  6
CONTINUOUS
  0
LAYER
  2
D43_B---DECK--------
 70
     0
 62
     7
  6
CONTINUOUS
  0
LAYER
  2
D43_B---MW-S--------
 70
     0
 62
     7
  6
CONTINUOUS
  0
LAYER
  2
D43_B---MW----------
 70
     0
 62
     7
  6
CONTINUOUS
  0
LAYER
  2
D43_B---FASS--------
 70
     0
 62
     7
  6
CONTINUOUS
  0
LAYER
  2
D43_E---RASG--------
 70
     0
 62
     7
  6
CONTINUOUS
  0
LAYER
  2
D40_ARCHICAD
 70
     0
 62
     7
  6
CONTINUOUS
  0
LAYER
  2
D40_E---MW--------
 70
     0
 62
     7
  6
CONTINUOUS
  0
LAYER
  2
D40_E---FASSKON-----
 70
     0
 62
     7
  6
CONTINUOUS
  0
LAYER
  2
D40_TÜREN_VON_B---MW-N----
 70
     0
 62
     7
  6
CONTINUOUS
  0
LAYER
  2
D40_E---MW-L------
 70
     0
 62
     7
  6
CONTINUOUS
  0
LAYER
  2
D40_TÜREN_VON_B---MW------
 70
     0
 62
     7
  6
CONTINUOUS
  0
LAYER
  2
D40_E---VERM--------
 70
     0
 62
     7
  6
CONTINUOUS
  0
LAYER
  2
D40_FENSTER_VON_E---MW-L--
 70
     0
 62
     7
  6
CONTINUOUS
  0
LAYER
  2
D40_FENSTER_VON_B---MW-N--
 70
     0
 62
     7
  6
CONTINUOUS
  0
LAYER
  2
D40_E---SCHN--------
 70
     0
 62
     7
  6
CONTINUOUS
  0
LAYER
  2
D40_E---AUFZ--------
 70
     0
 62
     7
  6
CONTINUOUS
  0
LAYER
  2
D40_E---DECK--------
 70
     0
 62
     7
  6
CONTINUOUS
  0
LAYER
  2
D40_E---RAUMINF-----
 70
     0
 62
     7
  6
CONTINUOUS
  0
LAYER
  2
D40_E---TEXT--------
 70
     0
 62
     7
  6
CONTINUOUS
  0
LAYER
  2
D40_B---TEXT--------
 70
     0
 62
     7
  6
CONTINUOUS
  0
LAYER
  2
D40_B---MW-N--------
 70
     0
 62
     7
  6
CONTINUOUS
  0
LAYER
  2
D40_B---DECK--------
 70
     0
 62
     7
  6
CONTINUOUS
  0
LAYER
  2
D40_B---AUFZ--------
 70
     0
 62
     7
  6
CONTINUOUS
  0
LAYER
  2
D40_B---MW-S--------
 70
     0
 62
     7
  6
CONTINUOUS
  0
LAYER
  2
D40_B---MW----------
 70
     0
 62
     7
  6
CONTINUOUS
  0
LAYER
  2
D40_E---MOEB--------
 70
     0
 62
     7
  6
CONTINUOUS
  0
LAYER
  2
D40_B---UMGB--------
 70
     0
 62
     7
  6
CONTINUOUS
  0
LAYER
  2
D40_B---FASS--------
 70
     0
 62
     7
  6
CONTINUOUS
  0
LAYER
  2
D40_E---DACH--------
 70
     0
 62
     7
  6
CONTINUOUS
  0
LAYER
  2
D40_E---BODE--------
 70
     0
 62
     7
  6
CONTINUOUS
  0
LAYER
  2
D40_E---TREP--------
 70
     0
 62
     7
  6
CONTINUOUS
  0
LAYER
  2
D40_E---RASG--------
 70
     0
 62
     7
  6
CONTINUOUS
  0
LAYER
  2
D40_B---MW-K--------
 70
     0
 62
     7
  6
CONTINUOUS
  0
LAYER
  2
D40_E---FASSGLA-----
 70
     0
 62
     7
  6
CONTINUOUS
  0
LAYER
  2
D40_B---VERM--------
 70
     0
 62
     7
  6
CONTINUOUS
  0
LAYER
  2
D40_E---UMGBGSG-----
 70
     0
 62
     7
  6
CONTINUOUS
  0
LAYER
  2
D40_E---RASF--------
 70
     0
 62
     7
  6
CONTINUOUS
  0
LAYER
  2
D40_E---PFLA--------
 70
     0
 62
     7
  6
CONTINUOUS
  0
LAYER
  2
D40_E---KONS-ST-----
 70
     0
 62
     7
  6
CONTINUOUS
  0
LAYER
  2
D40_E---WERB--------
 70
     0
 62
     7
  6
CONTINUOUS
  0
LAYER
  2
D40_E---TUERINF-----
 70
     0
 62
     7
  6
CONTINUOUS
  0
LAYER
  2
D40_E---WOLK--------
 70
     0
 62
     7
  6
CONTINUOUS
  0
LAYER
  2
D40_B---MW-L--------
 70
     0
 62
     7
  6
CONTINUOUS
  0
LAYER
  2
D40_B---SANI--------
 70
     0
 62
     7
  6
CONTINUOUS
  0
LAYER
  2
D40_E---SANI--------
 70
     0
 62
     7
  6
CONTINUOUS
  0
LAYER
  2
D40_E---MW-K------
 70
     0
 62
     7
  6
CONTINUOUS
  0
LAYER
  2
D40_E---OBJE--------
 70
     0
 62
     7
  6
CONTINUOUS
  0
LAYER
  2
D40_E---ASPR--------
 70
     0
 62
     7
  6
CONTINUOUS
  0
LAYER
  2
D40_E---VERMTGA-----
 70
     0
 62
     7
  6
CONTINUOUS
  0
LAYER
  2
D40_E---PARK--------
 70
     0
 62
     7
  6
CONTINUOUS
  0
LAYER
  2
D40_E---ISOL--------
 70
     0
 62
     7
  6
CONTINUOUS
  0
LAYER
  2
D40_E---TUER--------
 70
     0
 62
     7
  6
CONTINUOUS
  0
LAYER
  2
D40_E---MW--BRA---
 70
     0
 62
     7
  6
CONTINUOUS
  0
LAYER
  2
D41_ARCHICAD
 70
     0
 62
     7
  6
CONTINUOUS
  0
LAYER
  2
D41_E---MW--------
 70
     0
 62
     7
  6
CONTINUOUS
  0
LAYER
  2
D41_E---FASSKON-----
 70
     0
 62
     7
  6
CONTINUOUS
  0
LAYER
  2
D41_TÜREN_VON_B---MW-N----
 70
     0
 62
     7
  6
CONTINUOUS
  0
LAYER
  2
D41_E---MW-L------
 70
     0
 62
     7
  6
CONTINUOUS
  0
LAYER
  2
D41_TÜREN_VON_B---MW------
 70
     0
 62
     7
  6
CONTINUOUS
  0
LAYER
  2
D41_E---VERM--------
 70
     0
 62
     7
  6
CONTINUOUS
  0
LAYER
  2
D41_FENSTER_VON_E---MW-L--
 70
     0
 62
     7
  6
CONTINUOUS
  0
LAYER
  2
D41_FENSTER_VON_B---MW-N--
 70
     0
 62
     7
  6
CONTINUOUS
  0
LAYER
  2
D41_E---SCHN--------
 70
     0
 62
     7
  6
CONTINUOUS
  0
LAYER
  2
D41_E---AUFZ--------
 70
     0
 62
     7
  6
CONTINUOUS
  0
LAYER
  2
D41_E---DECK--------
 70
     0
 62
     7
  6
CONTINUOUS
  0
LAYER
  2
D41_E---RAUMINF-----
 70
     0
 62
     7
  6
CONTINUOUS
  0
LAYER
  2
D41_E---TEXT--------
 70
     0
 62
     7
  6
CONTINUOUS
  0
LAYER
  2
D41_B---TEXT--------
 70
     0
 62
     7
  6
CONTINUOUS
  0
LAYER
  2
D41_B---MW-N--------
 70
     0
 62
     7
  6
CONTINUOUS
  0
LAYER
  2
D41_B---DECK--------
 70
     0
 62
     7
  6
CONTINUOUS
  0
LAYER
  2
D41_B---AUFZ--------
 70
     0
 62
     7
  6
CONTINUOUS
  0
LAYER
  2
D41_B---MW-S--------
 70
     0
 62
     7
  6
CONTINUOUS
  0
LAYER
  2
D41_B---MW----------
 70
     0
 62
     7
  6
CONTINUOUS
  0
LAYER
  2
D41_E---MOEB--------
 70
     0
 62
     7
  6
CONTINUOUS
  0
LAYER
  2
D41_B---UMGB--------
 70
     0
 62
     7
  6
CONTINUOUS
  0
LAYER
  2
D41_B---FASS--------
 70
     0
 62
     7
  6
CONTINUOUS
  0
LAYER
  2
D41_E---DACH--------
 70
     0
 62
     7
  6
CONTINUOUS
  0
LAYER
  2
D41_E---BODE--------
 70
     0
 62
     7
  6
CONTINUOUS
  0
LAYER
  2
D41_E---TREP--------
 70
     0
 62
     7
  6
CONTINUOUS
  0
LAYER
  2
D41_E---RASG--------
 70
     0
 62
     7
  6
CONTINUOUS
  0
LAYER
  2
D41_B---MW-K--------
 70
     0
 62
     7
  6
CONTINUOUS
  0
LAYER
  2
D41_E---FASSGLA-----
 70
     0
 62
     7
  6
CONTINUOUS
  0
LAYER
  2
D41_B---VERM--------
 70
     0
 62
     7
  6
CONTINUOUS
  0
LAYER
  2
D41_E---UMGBGSG-----
 70
     0
 62
     7
  6
CONTINUOUS
  0
LAYER
  2
D41_E---RASF--------
 70
     0
 62
     7
  6
CONTINUOUS
  0
LAYER
  2
D41_E---PFLA--------
 70
     0
 62
     7
  6
CONTINUOUS
  0
LAYER
  2
D41_E---KONS-ST-----
 70
     0
 62
     7
  6
CONTINUOUS
  0
LAYER
  2
D41_E---WERB--------
 70
     0
 62
     7
  6
CONTINUOUS
  0
LAYER
  2
D41_E---TUERINF-----
 70
     0
 62
     7
  6
CONTINUOUS
  0
LAYER
  2
D41_E---WOLK--------
 70
     0
 62
     7
  6
CONTINUOUS
  0
LAYER
  2
D41_B---MW-L--------
 70
     0
 62
     7
  6
CONTINUOUS
  0
LAYER
  2
D41_B---SANI--------
 70
     0
 62
     7
  6
CONTINUOUS
  0
LAYER
  2
D41_E---SANI--------
 70
     0
 62
     7
  6
CONTINUOUS
  0
LAYER
  2
D41_E---MW-K------
 70
     0
 62
     7
  6
CONTINUOUS
  0
LAYER
  2
D41_E---OBJE--------
 70
     0
 62
     7
  6
CONTINUOUS
  0
LAYER
  2
D41_E---ASPR--------
 70
     0
 62
     7
  6
CONTINUOUS
  0
LAYER
  2
D41_E---VERMTGA-----
 70
     0
 62
     7
  6
CONTINUOUS
  0
LAYER
  2
D41_E---PARK--------
 70
     0
 62
     7
  6
CONTINUOUS
  0
LAYER
  2
D41_E---ISOL--------
 70
     0
 62
     7
  6
CONTINUOUS
  0
LAYER
  2
D41_E---TUER--------
 70
     0
 62
     7
  6
CONTINUOUS
  0
LAYER
  2
D41_E---MW--BRA---
 70
     0
 62
     7
  6
CONTINUOUS
  0
LAYER
  2
D42_ARCHICAD
 70
     0
 62
     7
  6
CONTINUOUS
  0
LAYER
  2
D42_FENSTER_VON_B---FASS--
 70
     0
 62
     7
  6
CONTINUOUS
  0
LAYER
  2
D42_E---SCHN--------
 70
     0
 62
     7
  6
CONTINUOUS
  0
LAYER
  2
D42_B---MW-N--------
 70
     0
 62
     7
  6
CONTINUOUS
  0
LAYER
  2
D42_B---DECK--------
 70
     0
 62
     7
  6
CONTINUOUS
  0
LAYER
  2
D42_B---MW-S--------
 70
     0
 62
     7
  6
CONTINUOUS
  0
LAYER
  2
D42_B---MW----------
 70
     0
 62
     7
  6
CONTINUOUS
  0
LAYER
  2
D42_B---FASS--------
 70
     0
 62
     7
  6
CONTINUOUS
  0
LAYER
  2
D42_E---RASG--------
 70
     0
 62
     7
  6
CONTINUOUS
  0
LAYER
  2
CONSTRUCTION_CLASS
 70
     0
 62
     7
  6
CONTINUOUS
  0
LAYER
  2
PATTERN_CLASS
 70
     0
 62
     7
  6
CONTINUOUS
  0
LAYER
  2
KONSTRUKTION
 70
     0
 62
     7
  6
CONTINUOUS
  0
LAYER
  2
BEMAßUNG
 70
     0
 62
     7
  6
CONTINUOUS
  0
LAYER
  2
HILFSGEOMETRIE
 70
     0
 62
     7
  6
CONTINUOUS
  0
LAYER
  2
UNSICHTBAR
 70
     0
 62
     7
  6
CONTINUOUS
  0
LAYER
  2
LOGO
 70
     0
 62
     7
  6
CONTINUOUS
  0
LAYER
  2
VERWALTUNG
 70
     0
 62
     7
  6
CONTINUOUS
  0
LAYER
  2
UNSICHTBARE_GEWINDE
 70
     0
 62
     7
  6
CONTINUOUS
  0
LAYER
  2
SICHTBARE_GEWINDE
 70
     0
 62
     7
  6
CONTINUOUS
  0
LAYER
  2
DEFPOINTS
 70
     0
 62
     7
  6
CONTINUOUS
  0
LAYER
  2
THICK
 70
     0
 62
     7
  6
CONTINUOUS
  0
LAYER
  2
HIDDEN
 70
     0
 62
     7
  6
CONTINUOUS
  0
LAYER
  2
SCHRAFFURGRUNDRISS
 70
     0
 62
     7
  6
CONTINUOUS
  0
LAYER
  2
BEMASSUNG_GRUNDRISS
 70
     0
 62
     7
  6
CONTINUOUS
  0
LAYER
  2
STATIK
 70
     0
 62
     7
  6
CONTINUOUS
  0
LAYER
  2
TÜREN
 70
     0
 62
     7
  6
CONTINUOUS
  0
LAYER
  2
SANITÄR
 70
     0
 62
     7
  6
CONTINUOUS
  0
LAYER
  2
BEMASSUNG_GIPSKARTON
 70
     0
 62
     7
  6
CONTINUOUS
  0
LAYER
  2
EINRICHTUNGEN
 70
     0
 62
     7
  6
CONTINUOUS
  0
LAYER
  2
BECKEN
 70
     0
 62
     7
  6
CONTINUOUS
  0
LAYER
  2
BELEUCHTUNG
 70
     0
 62
     7
  6
CONTINUOUS
  0
LAYER
  2
BESCHRIFTUNGEN
 70
     0
 62
     7
  6
CONTINUOUS
  0
LAYER
  2
ELEKTRO_1__DOSEN_SCHALTER
 70
     0
 62
     7
  6
CONTINUOUS
  0
LAYER
  2
DEFAULT_1
 70
     0
 62
     7
  6
CONTINUOUS
  0
LAYER
  2
AM_0
 70
     0
 62
     7
  6
CONTINUOUS
  0
LAYER
  2
FRAME0_7
 70
     0
 62
     7
  6
CONTINUOUS
  0
LAYER
  2
AM_BOR
 70
     0
 62
     7
  6
CONTINUOUS
  0
LAYER
  2
RAHM2
 70
     0
 62
     7
  6
CONTINUOUS
  0
LAYER
  2
RAHM3
 70
     0
 62
     7
  6
CONTINUOUS
  0
LAYER
  2
FRAME0_5
 70
     0
 62
     7
  6
CONTINUOUS
  0
LAYER
  2
8
 70
     0
 62
     7
  6
CONTINUOUS
  0
LAYER
  2
AM_5
 70
     0
 62
     7
  6
CONTINUOUS
  0
LAYER
  2
AM_7
 70
     0
 62
     7
  6
CONTINUOUS
  0
LAYER
  2
HILFSLINIEN
 70
     0
 62
     7
  6
CONTINUOUS
  0
LAYER
  2
DRAWING_TEMPLATE
 70
     0
 62
     7
  6
CONTINUOUS
  0
LAYER
  2
TECHNOBOX_EXTERNALREFSYMBO
 70
     0
 62
     7
  6
CONTINUOUS
  0
LAYER
  2
TECHNOBOX_POLYCLIPSYMBOL_L
 70
     0
 62
     7
  6
CONTINUOUS
  0
LAYER
  2
100
 70
     0
 62
     7
  6
CONTINUOUS
  0
LAYER
  2
101
 70
     0
 62
     7
  6
CONTINUOUS
  0
LAYER
  2
KONTUR
 70
     0
 62
     7
  6
CONTINUOUS
  0
LAYER
  2
MITTELLINIE
 70
     0
 62
     7
  6
CONTINUOUS
  0
LAYER
  2
GESTRICHELT
 70
     0
 62
     7
  6
CONTINUOUS
  0
LAYER
  2
HILFSLINIE
 70
     0
 62
     7
  6
CONTINUOUS
  0
LAYER
  2
TEXT-25
 70
     0
 62
     7
  6
CONTINUOUS
  0
LAYER
  2
TEXT35
 70
     0
 62
     7
  6
CONTINUOUS
  0
LAYER
  2
TEXT-50
 70
     0
 62
     7
  6
CONTINUOUS
  0
LAYER
  2
TEXT-70
 70
     0
 62
     7
  6
CONTINUOUS
  0
LAYER
  2
ANSICHTSFENSTER
 70
     0
 62
     7
  6
CONTINUOUS
  0
LAYER
  2
KERA0
 70
     0
 62
     7
  6
CONTINUOUS
  0
LAYER
  2
KERA1
 70
     0
 62
     7
  6
CONTINUOUS
  0
LAYER
  2
KERA2
 70
     0
 62
     7
  6
CONTINUOUS
  0
LAYER
  2
KERA3
 70
     0
 62
     7
  6
CONTINUOUS
  0
LAYER
  2
KERA5
 70
     0
 62
     7
  6
CONTINUOUS
  0
LAYER
  2
KERA6
 70
     0
 62
     7
  6
CONTINUOUS
  0
LAYER
  2
KERA7
 70
     0
 62
     7
  6
CONTINUOUS
  0
LAYER
  2
20
 70
     0
 62
     7
  6
CONTINUOUS
  0
LAYER
  2
50
 70
     0
 62
     7
  6
CONTINUOUS
  0
LAYER
  2
EBENE_1
 70
     0
 62
     7
  6
CONTINUOUS
  0
LAYER
  2
EBENE_2
 70
     0
 62
     7
  6
CONTINUOUS
  0
LAYER
  2
EBENE_5
 70
     0
 62
     7
  6
CONTINUOUS
  0
LAYER
  2
3
 70
     0
 62
     7
  6
CONTINUOUS
  0
LAYER
  2
GEB-KONTUR-A
 70
     0
 62
     7
  6
CONTINUOUS
  0
LAYER
  2
GEB-SYMETRIE
 70
     0
 62
     7
  6
CONTINUOUS
  0
LAYER
  2
GEB-ART-NR
 70
     0
 62
     7
  6
CONTINUOUS
  0
LAYER
  2
PROJECTION
 70
     0
 62
     7
  6
CONTINUOUS
  0
ENDTAB
  0
TABLE
  2
STYLE
 70
     3
  0
STYLE
  2
STANDARD
 70
     0
 40
0.0
 41
1.0
 50
0.0
 71
     0
 42
0.0
  3
txt
  4

  0
STYLE
  2
ANNOTATIVE
 70
     0
 40
0.0
 41
1.0
 50
0.0
 71
     0
 42
0.2
  3
txt
  4

  0
STYLE
  2
SIMPLEX
 70
     0
 40
0.0
 41
1.0
 50
0.0
 71
     0
 42
0.0
  3
simplex
  4

  0
ENDTAB
  0
TABLE
  2
VIEW
 70
     0
  0
ENDTAB
  0
TABLE
  2
UCS
 70
     0
  0
ENDTAB
  0
TABLE
  2
APPID
 70
     3
  0
APPID
  2
ACAD
 70
     0
  0
APPID
  2
ACADANNOTATIVE
 70
     0
  0
APPID
  2
ACAD_MLEADERVER
 70
     0
  0
ENDTAB
  0
TABLE
  2
DIMSTYLE
 70
     2
  0
DIMSTYLE
  2
STANDARD
 70
     0
  3

  4

  5

  6

  7

 40
1.0
 41
0.18
 42
0.0625
 43
0.38
 44
0.18
 45
0.0
 46
0.0
 47
0.0
 48
0.0
140
0.18
141
0.09
142
0.0
143
25.399999999999999
144
1.0
145
0.0
146
1.0
147
0.09
 71
     0
 72
     0
 73
     1
 74
     1
 75
     0
 76
     0
 77
     0
 78
     0
170
     0
171
     2
172
     0
173
     0
174
     0
175
     0
176
     0
177
     0
178
     0
  0
DIMSTYLE
  2
ANNOTATIVE
 70
     0
  3

  4

  5

  6

  7

 40
1.0
 41
0.18
 42
0.0625
 43
0.38
 44
0.18
 45
0.0
 46
0.0
 47
0.0
 48
0.0
140
0.18
141
0.09
142
0.0
143
25.399999999999999
144
1.0
145
0.0
146
1.0
147
0.09
 71
     0
 72
     0
 73
     1
 74
     1
 75
     0
 76
     0
 77
     0
 78
     0
170
     0
171
     2
172
     0
173
     0
174
     0
175
     0
176
     0
177
     0
178
     0
  0
ENDTAB
  0
ENDSEC
  0
SECTION
  2
BLOCKS
  0
BLOCK
  8
0
  2
$MODEL_SPACE
 70
     0
 10
0.0
 20
0.0
 30
0.0
  3
$MODEL_SPACE
  1

  0
ENDBLK
  5
76
  8
0
  0
BLOCK
 67
     1
  8
0
  2
$PAPER_SPACE
 70
     0
 10
0.0
 20
0.0
 30
0.0
  3
$PAPER_SPACE
  1

  0
ENDBLK
  5
72
 67
     1
  8
0
  0
BLOCK
  8
0
  2
TRIGO-G1
 70
     0
 10
0.0
 20
0.0
 30
0.0
  3
TRIGO-G1
  1

  0
POLYLINE
  5
185
  8
LAYER01
  6
CONTINUOUS
 62
     7
 66
     1
 10
0.0
 20
0.0
 30
0.0
 70
     1
  0
VERTEX
  5
AC3
  8
LAYER01
  6
CONTINUOUS
 62
     7
 10
5333.4588920000006
 20
1798.015065
 30
0.0
  0
VERTEX
  5
AC4
  8
LAYER01
  6
CONTINUOUS
 62
     7
 10
5376.0820270000004
 20
1798.015065
 30
0.0
  0
VERTEX
  5
AC5
  8
LAYER01
  6
CONTINUOUS
 62
     7
 10
5429.6087539999999
 20
1676.0930760000001
 30
0.0
  0
VERTEX
  5
AC6
  8
LAYER01
  6
CONTINUOUS
 62
     7
 10
5483.1354810000003
 20
1798.015065
 30
0.0
  0
VERTEX
  5
AC7
  8
LAYER01
  6
CONTINUOUS
 62
     7
 10
5527.7410869999994
 20
1798.015065
 30
0.0
  0
VERTEX
  5
AC8
  8
LAYER01
  6
CONTINUOUS
 62
     7
 10
5429.6087539999999
 20
1579.9432139999999
 30
0.0
  0
VERTEX
  5
AC9
  8
LAYER01
  6
CONTINUOUS
 62
     7
 10
5333.4588920000006
 20
1798.015065
 30
0.0
  0
VERTEX
  5
ACA
  8
LAYER01
  6
CONTINUOUS
 62
     7
 10
5333.4588920000006
 20
1798.015065
 30
0.0
  0
SEQEND
  5
ACB
  8
LAYER01
  6
CONTINUOUS
 62
     7
  0
POLYLINE
  5
18F
  8
LAYER01
  6
CONTINUOUS
 62
     7
 66
     1
 10
0.0
 20
0.0
 30
0.0
 70
     1
  0
VERTEX
  5
ACC
  8
LAYER01
  6
CONTINUOUS
 62
     7
 10
5479.1705380000003
 20
1649.329712
 30
0.0
  0
VERTEX
  5
ACD
  8
LAYER01
  6
CONTINUOUS
 62
     7
 10
5494.0390740000003
 20
1684.0229609999999
 30
0.0
  0
VERTEX
  5
ACE
  8
LAYER01
  6
CONTINUOUS
 62
     7
 10
5558.4693930000012
 20
1684.0229609999999
 30
0.0
  0
VERTEX
  5
ACF
  8
LAYER01
  6
CONTINUOUS
 62
     7
 10
5525.7586160000001
 20
1755.3919310000001
 30
0.0
  0
VERTEX
  5
AD0
  8
LAYER01
  6
CONTINUOUS
 62
     7
 10
5544.5920939999996
 20
1800.9887719999999
 30
0.0
  0
VERTEX
  5
AD1
  8
LAYER01
  6
CONTINUOUS
 62
     7
 10
5632.812069999999
 20
1614.636463
 30
0.0
  0
VERTEX
  5
AD2
  8
LAYER01
  6
CONTINUOUS
 62
     7
 10
5632.812069999999
 20
1798.015065
 30
0.0
  0
VERTEX
  5
AD3
  8
LAYER01
  6
CONTINUOUS
 62
     7
 10
5750.7691169999998
 20
1798.015065
 30
0.0
  0
VERTEX
  5
AD4
  8
LAYER01
  6
CONTINUOUS
 62
     7
 10
5750.7691169999998
 20
1798.015065
 30
0.0
  0
VERTEX
  5
AD5
  8
LAYER01
  6
CONTINUOUS
 62
     7
 10
5761.6727090000004
 20
1796.032594
 30
0.0
  0
VERTEX
  5
AD6
  8
LAYER01
  6
CONTINUOUS
 62
     7
 10
5771.5850659999996
 20
1792.0676510000001
 30
0.0
  0
VERTEX
  5
AD7
  8
LAYER01
  6
CONTINUOUS
 62
     7
 10
5780.506187
 20
1785.129001
 30
0.0
  0
VERTEX
  5
AD8
  8
LAYER01
  6
CONTINUOUS
 62
     7
 10
5788.4360729999989
 20
1778.190351
 30
0.0
  0
VERTEX
  5
AD9
  8
LAYER01
  6
CONTINUOUS
 62
     7
 10
5795.3747219999996
 20
1769.2692300000001
 30
0.0
  0
VERTEX
  5
ADA
  8
LAYER01
  6
CONTINUOUS
 62
     7
 10
5800.3309009999994
 20
1759.356873
 30
0.0
  0
VERTEX
  5
ADB
  8
LAYER01
  6
CONTINUOUS
 62
     7
 10
5804.2958440000011
 20
1747.462045
 30
0.0
  0
VERTEX
  5
ADC
  8
LAYER01
  6
CONTINUOUS
 62
     7
 10
5805.2870789999997
 20
1736.5584530000001
 30
0.0
  0
VERTEX
  5
ADD
  8
LAYER01
  6
CONTINUOUS
 62
     7
 10
5805.2870789999997
 20
1736.5584530000001
 30
0.0
  0
VERTEX
  5
ADE
  8
LAYER01
  6
CONTINUOUS
 62
     7
 10
5805.2870789999997
 20
1724.6636239999989
 30
0.0
  0
VERTEX
  5
ADF
  8
LAYER01
  6
CONTINUOUS
 62
     7
 10
5803.3046080000004
 20
1714.7512670000001
 30
0.0
  0
VERTEX
  5
AE0
  8
LAYER01
  6
CONTINUOUS
 62
     7
 10
5799.3396649999986
 20
1704.8389110000001
 30
0.0
  0
VERTEX
  5
AE1
  8
LAYER01
  6
CONTINUOUS
 62
     7
 10
5794.383487000001
 20
1695.9177890000001
 30
0.0
  0
VERTEX
  5
AE2
  8
LAYER01
  6
CONTINUOUS
 62
     7
 10
5787.444837
 20
1687.9879040000001
 30
0.0
  0
VERTEX
  5
AE3
  8
LAYER01
  6
CONTINUOUS
 62
     7
 10
5779.5149510000001
 20
1681.049254
 30
0.0
  0
VERTEX
  5
AE4
  8
LAYER01
  6
CONTINUOUS
 62
     7
 10
5770.5938299999998
 20
1676.0930760000001
 30
0.0
  0
VERTEX
  5
AE5
  8
LAYER01
  6
CONTINUOUS
 62
     7
 10
5759.690238000001
 20
1672.1281329999999
 30
0.0
  0
VERTEX
  5
AE6
  8
LAYER01
  6
CONTINUOUS
 62
     7
 10
5823.1293219999989
 20
1587.8730989999999
 30
0.0
  0
VERTEX
  5
AE7
  8
LAYER01
  6
CONTINUOUS
 62
     7
 10
5823.1293219999989
 20
1798.015065
 30
0.0
  0
VERTEX
  5
AE8
  8
LAYER01
  6
CONTINUOUS
 62
     7
 10
5864.7612209999998
 20
1798.015065
 30
0.0
  0
VERTEX
  5
AE9
  8
LAYER01
  6
CONTINUOUS
 62
     7
 10
5864.7612209999998
 20
1585.8906280000001
 30
0.0
  0
VERTEX
  5
AEA
  8
LAYER01
  6
CONTINUOUS
 62
     7
 10
5775.5500089999996
 20
1585.8906280000001
 30
0.0
  0
VERTEX
  5
AEB
  8
LAYER01
  6
CONTINUOUS
 62
     7
 10
5689.3125040000004
 20
1695.9177890000001
 30
0.0
  0
VERTEX
  5
AEC
  8
LAYER01
  6
CONTINUOUS
 62
     7
 10
5732.9268739999998
 20
1695.9177890000001
 30
0.0
  0
VERTEX
  5
AED
  8
LAYER01
  6
CONTINUOUS
 62
     7
 10
5732.9268739999998
 20
1695.9177890000001
 30
0.0
  0
VERTEX
  5
AEE
  8
LAYER01
  6
CONTINUOUS
 62
     7
 10
5738.874288
 20
1696.9090249999999
 30
0.0
  0
VERTEX
  5
AEF
  8
LAYER01
  6
CONTINUOUS
 62
     7
 10
5744.8217020000002
 20
1698.891496
 30
0.0
  0
VERTEX
  5
AF0
  8
LAYER01
  6
CONTINUOUS
 62
     7
 10
5749.7778809999991
 20
1701.8652039999999
 30
0.0
  0
VERTEX
  5
AF1
  8
LAYER01
  6
CONTINUOUS
 62
     7
 10
5754.7340590000003
 20
1705.830146
 30
0.0
  0
VERTEX
  5
AF2
  8
LAYER01
  6
CONTINUOUS
 62
     7
 10
5757.7077659999986
 20
1710.786325
 30
0.0
  0
VERTEX
  5
AF3
  8
LAYER01
  6
CONTINUOUS
 62
     7
 10
5760.6814729999987
 20
1716.733739
 30
0.0
  0
VERTEX
  5
AF4
  8
LAYER01
  6
CONTINUOUS
 62
     7
 10
5762.6639450000002
 20
1722.681153
 30
0.0
  0
VERTEX
  5
AF5
  8
LAYER01
  6
CONTINUOUS
 62
     7
 10
5762.6639450000002
 20
1729.619803
 30
0.0
  0
VERTEX
  5
AF6
  8
LAYER01
  6
CONTINUOUS
 62
     7
 10
5762.6639450000002
 20
1729.619803
 30
0.0
  0
VERTEX
  5
AF7
  8
LAYER01
  6
CONTINUOUS
 62
     7
 10
5762.6639450000002
 20
1735.567217
 30
0.0
  0
VERTEX
  5
AF8
  8
LAYER01
  6
CONTINUOUS
 62
     7
 10
5760.6814729999987
 20
1741.514631
 30
0.0
  0
VERTEX
  5
AF9
  8
LAYER01
  6
CONTINUOUS
 62
     7
 10
5758.6990020000003
 20
1747.462045
 30
0.0
  0
VERTEX
  5
AFA
  8
LAYER01
  6
CONTINUOUS
 62
     7
 10
5754.7340590000003
 20
1752.418224
 30
0.0
  0
VERTEX
  5
AFB
  8
LAYER01
  6
CONTINUOUS
 62
     7
 10
5750.7691169999998
 20
1756.3831660000001
 30
0.0
  0
VERTEX
  5
AFC
  8
LAYER01
  6
CONTINUOUS
 62
     7
 10
5744.8217020000002
 20
1759.356873
 30
0.0
  0
VERTEX
  5
AFD
  8
LAYER01
  6
CONTINUOUS
 62
     7
 10
5738.874288
 20
1761.3393450000001
 30
0.0
  0
VERTEX
  5
AFE
  8
LAYER01
  6
CONTINUOUS
 62
     7
 10
5732.9268739999998
 20
1762.3305800000001
 30
0.0
  0
VERTEX
  5
AFF
  8
LAYER01
  6
CONTINUOUS
 62
     7
 10
5677.4176760000009
 20
1762.3305800000001
 30
0.0
  0
VERTEX
  5
B00
  8
LAYER01
  6
CONTINUOUS
 62
     7
 10
5677.4176760000009
 20
1585.8906280000001
 30
0.0
  0
VERTEX
  5
B01
  8
LAYER01
  6
CONTINUOUS
 62
     7
 10
5606.0487060000014
 20
1585.8906280000001
 30
0.0
  0
VERTEX
  5
B02
  8
LAYER01
  6
CONTINUOUS
 62
     7
 10
5576.3116360000004
 20
1649.329712
 30
0.0
  0
VERTEX
  5
B03
  8
LAYER01
  6
CONTINUOUS
 62
     7
 10
5479.1705380000003
 20
1649.329712
 30
0.0
  0
VERTEX
  5
B04
  8
LAYER01
  6
CONTINUOUS
 62
     7
 10
5479.1705380000003
 20
1649.329712
 30
0.0
  0
SEQEND
  5
B05
  8
LAYER01
  6
CONTINUOUS
 62
     7
  0
POLYLINE
  5
1CA
  8
LAYER01
  6
CONTINUOUS
 62
     7
 66
     1
 10
0.0
 20
0.0
 30
0.0
 70
     1
  0
VERTEX
  5
B06
  8
LAYER01
  6
CONTINUOUS
 62
     7
 10
6057.0609439999989
 20
1784.1377660000001
 30
0.0
  0
VERTEX
  5
B07
  8
LAYER01
  6
CONTINUOUS
 62
     7
 10
6030.2975800000004
 20
1750.4357520000001
 30
0.0
  0
VERTEX
  5
B08
  8
LAYER01
  6
CONTINUOUS
 62
     7
 10
6030.2975800000004
 20
1750.4357520000001
 30
0.0
  0
VERTEX
  5
B09
  8
LAYER01
  6
CONTINUOUS
 62
     7
 10
6021.3764590000001
 20
1756.3831660000001
 30
0.0
  0
VERTEX
  5
B0A
  8
LAYER01
  6
CONTINUOUS
 62
     7
 10
6012.4553380000007
 20
1761.3393450000001
 30
0.0
  0
VERTEX
  5
B0B
  8
LAYER01
  6
CONTINUOUS
 62
     7
 10
6002.5429810000014
 20
1764.313052
 30
0.0
  0
VERTEX
  5
B0C
  8
LAYER01
  6
CONTINUOUS
 62
     7
 10
5991.6393889999999
 20
1764.313052
 30
0.0
  0
VERTEX
  5
B0D
  8
LAYER01
  6
CONTINUOUS
 62
     7
 10
5991.6393889999999
 20
1764.313052
 30
0.0
  0
VERTEX
  5
B0E
  8
LAYER01
  6
CONTINUOUS
 62
     7
 10
5984.7007389999999
 20
1764.313052
 30
0.0
  0
VERTEX
  5
B0F
  8
LAYER01
  6
CONTINUOUS
 62
     7
 10
5977.7620889999998
 20
1763.3218159999999
 30
0.0
  0
VERTEX
  5
B10
  8
LAYER01
  6
CONTINUOUS
 62
     7
 10
5970.8234389999998
 20
1761.3393450000001
 30
0.0
  0
VERTEX
  5
B11
  8
LAYER01
  6
CONTINUOUS
 62
     7
 10
5963.8847889999997
 20
1758.365638
 30
0.0
  0
VERTEX
  5
B12
  8
LAYER01
  6
CONTINUOUS
 62
     7
 10
5957.9373750000004
 20
1755.3919310000001
 30
0.0
  0
VERTEX
  5
B13
  8
LAYER01
  6
CONTINUOUS
 62
     7
 10
5952.9811970000001
 20
1751.4269879999999
 30
0.0
  0
VERTEX
  5
B14
  8
LAYER01
  6
CONTINUOUS
 62
     7
 10
5947.0337829999999
 20
1747.462045
 30
0.0
  0
VERTEX
  5
B15
  8
LAYER01
  6
CONTINUOUS
 62
     7
 10
5943.0688399999999
 20
1742.5058670000001
 30
0.0
  0
VERTEX
  5
B16
  8
LAYER01
  6
CONTINUOUS
 62
     7
 10
5938.1126610000001
 20
1736.5584530000001
 30
0.0
  0
VERTEX
  5
B17
  8
LAYER01
  6
CONTINUOUS
 62
     7
 10
5935.138954
 20
1730.611038
 30
0.0
  0
VERTEX
  5
B18
  8
LAYER01
  6
CONTINUOUS
 62
     7
 10
5931.1740119999986
 20
1724.6636239999989
 30
0.0
  0
VERTEX
  5
B19
  8
LAYER01
  6
CONTINUOUS
 62
     7
 10
5928.2003049999994
 20
1718.71621
 30
0.0
  0
VERTEX
  5
B1A
  8
LAYER01
  6
CONTINUOUS
 62
     7
 10
5926.2178329999988
 20
1711.77756
 30
0.0
  0
VERTEX
  5
B1B
  8
LAYER01
  6
CONTINUOUS
 62
     7
 10
5925.2265980000002
 20
1704.8389110000001
 30
0.0
  0
VERTEX
  5
B1C
  8
LAYER01
  6
CONTINUOUS
 62
     7
 10
5924.2353620000004
 20
1697.900261
 30
0.0
  0
VERTEX
  5
B1D
  8
LAYER01
  6
CONTINUOUS
 62
     7
 10
5923.2441259999996
 20
1689.9703750000001
 30
0.0
  0
VERTEX
  5
B1E
  8
LAYER01
  6
CONTINUOUS
 62
     7
 10
5923.2441259999996
 20
1689.9703750000001
 30
0.0
  0
VERTEX
  5
B1F
  8
LAYER01
  6
CONTINUOUS
 62
     7
 10
5924.2353620000004
 20
1683.0317250000001
 30
0.0
  0
VERTEX
  5
B20
  8
LAYER01
  6
CONTINUOUS
 62
     7
 10
5925.2265980000002
 20
1676.0930760000001
 30
0.0
  0
VERTEX
  5
B21
  8
LAYER01
  6
CONTINUOUS
 62
     7
 10
5926.2178329999988
 20
1669.1544260000001
 30
0.0
  0
VERTEX
  5
B22
  8
LAYER01
  6
CONTINUOUS
 62
     7
 10
5929.1915399999998
 20
1663.2070120000001
 30
0.0
  0
VERTEX
  5
B23
  8
LAYER01
  6
CONTINUOUS
 62
     7
 10
5931.1740119999986
 20
1657.2595980000001
 30
0.0
  0
VERTEX
  5
B24
  8
LAYER01
  6
CONTINUOUS
 62
     7
 10
5935.138954
 20
1651.312183
 30
0.0
  0
VERTEX
  5
B25
  8
LAYER01
  6
CONTINUOUS
 62
     7
 10
5939.103897
 20
1645.364769
 30
0.0
  0
VERTEX
  5
B26
  8
LAYER01
  6
CONTINUOUS
 62
     7
 10
5943.0688399999999
 20
1640.4085909999999
 30
0.0
  0
VERTEX
  5
B27
  8
LAYER01
  6
CONTINUOUS
 62
     7
 10
5948.0250180000003
 20
1635.4524120000001
 30
0.0
  0
VERTEX
  5
B28
  8
LAYER01
  6
CONTINUOUS
 62
     7
 10
5952.9811970000001
 20
1631.48747
 30
0.0
  0
VERTEX
  5
B29
  8
LAYER01
  6
CONTINUOUS
 62
     7
 10
5958.9286110000012
 20
1628.5137629999999
 30
0.0
  0
VERTEX
  5
B2A
  8
LAYER01
  6
CONTINUOUS
 62
     7
 10
5964.8760249999987
 20
1625.540056
 30
0.0
  0
VERTEX
  5
B2B
  8
LAYER01
  6
CONTINUOUS
 62
     7
 10
5971.8146749999996
 20
1622.5663489999999
 30
0.0
  0
VERTEX
  5
B2C
  8
LAYER01
  6
CONTINUOUS
 62
     7
 10
5977.7620889999998
 20
1620.583877
 30
0.0
  0
VERTEX
  5
B2D
  8
LAYER01
  6
CONTINUOUS
 62
     7
 10
5984.7007389999999
 20
1619.592641
 30
0.0
  0
VERTEX
  5
B2E
  8
LAYER01
  6
CONTINUOUS
 62
     7
 10
5992.6306240000004
 20
1619.592641
 30
0.0
  0
VERTEX
  5
B2F
  8
LAYER01
  6
CONTINUOUS
 62
     7
 10
5992.6306240000004
 20
1619.592641
 30
0.0
  0
VERTEX
  5
B30
  8
LAYER01
  6
CONTINUOUS
 62
     7
 10
6003.5342170000013
 20
1620.583877
 30
0.0
  0
VERTEX
  5
B31
  8
LAYER01
  6
CONTINUOUS
 62
     7
 10
6012.4553380000007
 20
1622.5663489999999
 30
0.0
  0
VERTEX
  5
B32
  8
LAYER01
  6
CONTINUOUS
 62
     7
 10
6021.3764590000001
 20
1627.5225270000001
 30
0.0
  0
VERTEX
  5
B33
  8
LAYER01
  6
CONTINUOUS
 62
     7
 10
6030.2975800000004
 20
1633.4699410000001
 30
0.0
  0
VERTEX
  5
B34
  8
LAYER01
  6
CONTINUOUS
 62
     7
 10
6056.069708
 20
1598.7766919999999
 30
0.0
  0
VERTEX
  5
B35
  8
LAYER01
  6
CONTINUOUS
 62
     7
 10
6056.069708
 20
1598.7766919999999
 30
0.0
  0
VERTEX
  5
B36
  8
LAYER01
  6
CONTINUOUS
 62
     7
 10
6041.2011730000004
 20
1589.8555710000001
 30
0.0
  0
VERTEX
  5
B37
  8
LAYER01
  6
CONTINUOUS
 62
     7
 10
6033.2712869999987
 20
1586.881864
 30
0.0
  0
VERTEX
  5
B38
  8
LAYER01
  6
CONTINUOUS
 62
     7
 10
6026.3326379999999
 20
1583.9081570000001
 30
0.0
  0
VERTEX
  5
B39
  8
LAYER01
  6
CONTINUOUS
 62
     7
 10
6018.402752
 20
1581.9256849999999
 30
0.0
  0
VERTEX
  5
B3A
  8
LAYER01
  6
CONTINUOUS
 62
     7
 10
6010.4728670000004
 20
1580.93445
 30
0.0
  0
VERTEX
  5
B3B
  8
LAYER01
  6
CONTINUOUS
 62
     7
 10
5992.6306240000004
 20
1579.9432139999999
 30
0.0
  0
VERTEX
  5
B3C
  8
LAYER01
  6
CONTINUOUS
 62
     7
 10
5992.6306240000004
 20
1579.9432139999999
 30
0.0
  0
VERTEX
  5
B3D
  8
LAYER01
  6
CONTINUOUS
 62
     7
 10
5980.7357959999999
 20
1580.93445
 30
0.0
  0
VERTEX
  5
B3E
  8
LAYER01
  6
CONTINUOUS
 62
     7
 10
5969.8322029999999
 20
1582.916921
 30
0.0
  0
VERTEX
  5
B3F
  8
LAYER01
  6
CONTINUOUS
 62
     7
 10
5958.9286110000012
 20
1584.899392
 30
0.0
  0
VERTEX
  5
B40
  8
LAYER01
  6
CONTINUOUS
 62
     7
 10
5949.0162540000001
 20
1588.864335
 30
0.0
  0
VERTEX
  5
B41
  8
LAYER01
  6
CONTINUOUS
 62
     7
 10
5939.103897
 20
1593.820514
 30
0.0
  0
VERTEX
  5
B42
  8
LAYER01
  6
CONTINUOUS
 62
     7
 10
5930.1827759999987
 20
1598.7766919999999
 30
0.0
  0
VERTEX
  5
B43
  8
LAYER01
  6
CONTINUOUS
 62
     7
 10
5921.2616549999993
 20
1605.715342
 30
0.0
  0
VERTEX
  5
B44
  8
LAYER01
  6
CONTINUOUS
 62
     7
 10
5913.3317690000003
 20
1612.653992
 30
0.0
  0
VERTEX
  5
B45
  8
LAYER01
  6
CONTINUOUS
 62
     7
 10
5905.4018840000008
 20
1620.583877
 30
0.0
  0
VERTEX
  5
B46
  8
LAYER01
  6
CONTINUOUS
 62
     7
 10
5899.4544700000006
 20
1629.5049979999999
 30
0.0
  0
VERTEX
  5
B47
  8
LAYER01
  6
CONTINUOUS
 62
     7
 10
5893.5070560000004
 20
1638.4261200000001
 30
0.0
  0
VERTEX
  5
B48
  8
LAYER01
  6
CONTINUOUS
 62
     7
 10
5888.5508770000006
 20
1648.3384759999999
 30
0.0
  0
VERTEX
  5
B49
  8
LAYER01
  6
CONTINUOUS
 62
     7
 10
5885.5771700000014
 20
1658.2508330000001
 30
0.0
  0
VERTEX
  5
B4A
  8
LAYER01
  6
CONTINUOUS
 62
     7
 10
5882.6034630000004
 20
1669.1544260000001
 30
0.0
  0
VERTEX
  5
B4B
  8
LAYER01
  6
CONTINUOUS
 62
     7
 10
5880.6209920000001
 20
1680.0580179999999
 30
0.0
  0
VERTEX
  5
B4C
  8
LAYER01
  6
CONTINUOUS
 62
     7
 10
5879.6297560000003
 20
1691.952847
 30
0.0
  0
VERTEX
  5
B4D
  8
LAYER01
  6
CONTINUOUS
 62
     7
 10
5879.6297560000003
 20
1691.952847
 30
0.0
  0
VERTEX
  5
B4E
  8
LAYER01
  6
CONTINUOUS
 62
     7
 10
5880.6209920000001
 20
1702.8564389999999
 30
0.0
  0
VERTEX
  5
B4F
  8
LAYER01
  6
CONTINUOUS
 62
     7
 10
5882.6034630000004
 20
1714.7512670000001
 30
0.0
  0
VERTEX
  5
B50
  8
LAYER01
  6
CONTINUOUS
 62
     7
 10
5884.5859339999997
 20
1724.6636239999989
 30
0.0
  0
VERTEX
  5
B51
  8
LAYER01
  6
CONTINUOUS
 62
     7
 10
5888.5508770000006
 20
1735.567217
 30
0.0
  0
VERTEX
  5
B52
  8
LAYER01
  6
CONTINUOUS
 62
     7
 10
5893.5070560000004
 20
1745.479574
 30
0.0
  0
VERTEX
  5
B53
  8
LAYER01
  6
CONTINUOUS
 62
     7
 10
5898.4632340000007
 20
1754.400695
 30
0.0
  0
VERTEX
  5
B54
  8
LAYER01
  6
CONTINUOUS
 62
     7
 10
5905.4018840000008
 20
1763.3218159999999
 30
0.0
  0
VERTEX
  5
B55
  8
LAYER01
  6
CONTINUOUS
 62
     7
 10
5912.3405339999999
 20
1771.251702
 30
0.0
  0
VERTEX
  5
B56
  8
LAYER01
  6
CONTINUOUS
 62
     7
 10
5920.2704190000004
 20
1778.190351
 30
0.0
  0
VERTEX
  5
B57
  8
LAYER01
  6
CONTINUOUS
 62
     7
 10
5929.1915399999998
 20
1785.129001
 30
0.0
  0
VERTEX
  5
B58
  8
LAYER01
  6
CONTINUOUS
 62
     7
 10
5938.1126610000001
 20
1790.08518
 30
0.0
  0
VERTEX
  5
B59
  8
LAYER01
  6
CONTINUOUS
 62
     7
 10
5948.0250180000003
 20
1795.0413579999999
 30
0.0
  0
VERTEX
  5
B5A
  8
LAYER01
  6
CONTINUOUS
 62
     7
 10
5957.9373750000004
 20
1799.0063009999999
 30
0.0
  0
VERTEX
  5
B5B
  8
LAYER01
  6
CONTINUOUS
 62
     7
 10
5968.8409680000004
 20
1801.980008
 30
0.0
  0
VERTEX
  5
B5C
  8
LAYER01
  6
CONTINUOUS
 62
     7
 10
5980.7357959999999
 20
1802.9712440000001
 30
0.0
  0
VERTEX
  5
B5D
  8
LAYER01
  6
CONTINUOUS
 62
     7
 10
5991.6393889999999
 20
1803.962479
 30
0.0
  0
VERTEX
  5
B5E
  8
LAYER01
  6
CONTINUOUS
 62
     7
 10
5991.6393889999999
 20
1803.962479
 30
0.0
  0
VERTEX
  5
B5F
  8
LAYER01
  6
CONTINUOUS
 62
     7
 10
6009.4816309999997
 20
1802.9712440000001
 30
0.0
  0
VERTEX
  5
B60
  8
LAYER01
  6
CONTINUOUS
 62
     7
 10
6018.402752
 20
1801.980008
 30
0.0
  0
VERTEX
  5
B61
  8
LAYER01
  6
CONTINUOUS
 62
     7
 10
6026.3326379999999
 20
1799.997537
 30
0.0
  0
VERTEX
  5
B62
  8
LAYER01
  6
CONTINUOUS
 62
     7
 10
6033.2712869999987
 20
1797.0238300000001
 30
0.0
  0
VERTEX
  5
B63
  8
LAYER01
  6
CONTINUOUS
 62
     7
 10
6041.2011730000004
 20
1794.050121999999
 30
0.0
  0
VERTEX
  5
B64
  8
LAYER01
  6
CONTINUOUS
 62
     7
 10
6049.1310579999999
 20
1789.093944
 30
0.0
  0
VERTEX
  5
B65
  8
LAYER01
  6
CONTINUOUS
 62
     7
 10
6057.0609439999989
 20
1784.1377660000001
 30
0.0
  0
VERTEX
  5
B66
  8
LAYER01
  6
CONTINUOUS
 62
     7
 10
6057.0609439999989
 20
1784.1377660000001
 30
0.0
  0
SEQEND
  5
B67
  8
LAYER01
  6
CONTINUOUS
 62
     7
  0
POLYLINE
  5
22D
  8
LAYER01
  6
CONTINUOUS
 62
     7
 66
     1
 10
0.0
 20
0.0
 30
0.0
 70
     1
  0
VERTEX
  5
B68
  8
LAYER01
  6
CONTINUOUS
 62
     7
 10
6153.210806
 20
1802.9712440000001
 30
0.0
  0
VERTEX
  5
B69
  8
LAYER01
  6
CONTINUOUS
 62
     7
 10
6153.210806
 20
1802.9712440000001
 30
0.0
  0
VERTEX
  5
B6A
  8
LAYER01
  6
CONTINUOUS
 62
     7
 10
6142.307213
 20
1801.980008
 30
0.0
  0
VERTEX
  5
B6B
  8
LAYER01
  6
CONTINUOUS
 62
     7
 10
6130.4123849999996
 20
1800.9887719999999
 30
0.0
  0
VERTEX
  5
B6C
  8
LAYER01
  6
CONTINUOUS
 62
     7
 10
6120.5000280000013
 20
1798.015065
 30
0.0
  0
VERTEX
  5
B6D
  8
LAYER01
  6
CONTINUOUS
 62
     7
 10
6109.5964350000004
 20
1794.050121999999
 30
0.0
  0
VERTEX
  5
B6E
  8
LAYER01
  6
CONTINUOUS
 62
     7
 10
6099.6840789999997
 20
1790.08518
 30
0.0
  0
VERTEX
  5
B6F
  8
LAYER01
  6
CONTINUOUS
 62
     7
 10
6090.762956999999
 20
1784.1377660000001
 30
0.0
  0
VERTEX
  5
B70
  8
LAYER01
  6
CONTINUOUS
 62
     7
 10
6081.8418359999987
 20
1778.190351
 30
0.0
  0
VERTEX
  5
B71
  8
LAYER01
  6
CONTINUOUS
 62
     7
 10
6073.911951
 20
1770.260466
 30
0.0
  0
VERTEX
  5
B72
  8
LAYER01
  6
CONTINUOUS
 62
     7
 10
6066.973301
 20
1762.3305800000001
 30
0.0
  0
VERTEX
  5
B73
  8
LAYER01
  6
CONTINUOUS
 62
     7
 10
6060.0346509999999
 20
1754.400695
 30
0.0
  0
VERTEX
  5
B74
  8
LAYER01
  6
CONTINUOUS
 62
     7
 10
6054.0872369999997
 20
1745.479574
 30
0.0
  0
VERTEX
  5
B75
  8
LAYER01
  6
CONTINUOUS
 62
     7
 10
6049.1310579999999
 20
1735.567217
 30
0.0
  0
VERTEX
  5
B76
  8
LAYER01
  6
CONTINUOUS
 62
     7
 10
6046.1573509999998
 20
1724.6636239999989
 30
0.0
  0
VERTEX
  5
B77
  8
LAYER01
  6
CONTINUOUS
 62
     7
 10
6043.1836439999988
 20
1714.7512670000001
 30
0.0
  0
VERTEX
  5
B78
  8
LAYER01
  6
CONTINUOUS
 62
     7
 10
6041.2011730000004
 20
1702.8564389999999
 30
0.0
  0
VERTEX
  5
B79
  8
LAYER01
  6
CONTINUOUS
 62
     7
 10
6040.2099369999996
 20
1691.952847
 30
0.0
  0
VERTEX
  5
B7A
  8
LAYER01
  6
CONTINUOUS
 62
     7
 10
6040.2099369999996
 20
1691.952847
 30
0.0
  0
VERTEX
  5
B7B
  8
LAYER01
  6
CONTINUOUS
 62
     7
 10
6041.2011730000004
 20
1680.0580179999999
 30
0.0
  0
VERTEX
  5
B7C
  8
LAYER01
  6
CONTINUOUS
 62
     7
 10
6042.1924090000002
 20
1669.1544260000001
 30
0.0
  0
VERTEX
  5
B7D
  8
LAYER01
  6
CONTINUOUS
 62
     7
 10
6045.1661159999994
 20
1658.2508330000001
 30
0.0
  0
VERTEX
  5
B7E
  8
LAYER01
  6
CONTINUOUS
 62
     7
 10
6049.1310579999999
 20
1648.3384759999999
 30
0.0
  0
VERTEX
  5
B7F
  8
LAYER01
  6
CONTINUOUS
 62
     7
 10
6053.0960009999999
 20
1638.4261200000001
 30
0.0
  0
VERTEX
  5
B80
  8
LAYER01
  6
CONTINUOUS
 62
     7
 10
6059.0434150000001
 20
1629.5049979999999
 30
0.0
  0
VERTEX
  5
B81
  8
LAYER01
  6
CONTINUOUS
 62
     7
 10
6064.9908290000003
 20
1620.583877
 30
0.0
  0
VERTEX
  5
B82
  8
LAYER01
  6
CONTINUOUS
 62
     7
 10
6071.9294790000013
 20
1612.653992
 30
0.0
  0
VERTEX
  5
B83
  8
LAYER01
  6
CONTINUOUS
 62
     7
 10
6079.8593650000003
 20
1604.7241059999999
 30
0.0
  0
VERTEX
  5
B84
  8
LAYER01
  6
CONTINUOUS
 62
     7
 10
6088.7804859999997
 20
1598.7766919999999
 30
0.0
  0
VERTEX
  5
B85
  8
LAYER01
  6
CONTINUOUS
 62
     7
 10
6097.701607
 20
1592.8292779999999
 30
0.0
  0
VERTEX
  5
B86
  8
LAYER01
  6
CONTINUOUS
 62
     7
 10
6107.6139640000001
 20
1587.8730989999999
 30
0.0
  0
VERTEX
  5
B87
  8
LAYER01
  6
CONTINUOUS
 62
     7
 10
6117.5263210000003
 20
1583.9081570000001
 30
0.0
  0
VERTEX
  5
B88
  8
LAYER01
  6
CONTINUOUS
 62
     7
 10
6128.4299129999999
 20
1581.9256849999999
 30
0.0
  0
VERTEX
  5
B89
  8
LAYER01
  6
CONTINUOUS
 62
     7
 10
6139.333505999999
 20
1579.9432139999999
 30
0.0
  0
VERTEX
  5
B8A
  8
LAYER01
  6
CONTINUOUS
 62
     7
 10
6150.2370989999999
 20
1578.9519780000001
 30
0.0
  0
VERTEX
  5
B8B
  8
LAYER01
  6
CONTINUOUS
 62
     7
 10
6150.2370989999999
 20
1578.9519780000001
 30
0.0
  0
VERTEX
  5
B8C
  8
LAYER01
  6
CONTINUOUS
 62
     7
 10
6162.1319270000004
 20
1579.9432139999999
 30
0.0
  0
VERTEX
  5
B8D
  8
LAYER01
  6
CONTINUOUS
 62
     7
 10
6173.035519
 20
1581.9256849999999
 30
0.0
  0
VERTEX
  5
B8E
  8
LAYER01
  6
CONTINUOUS
 62
     7
 10
6183.939112
 20
1584.899392
 30
0.0
  0
VERTEX
  5
B8F
  8
LAYER01
  6
CONTINUOUS
 62
     7
 10
6193.8514690000011
 20
1588.864335
 30
0.0
  0
VERTEX
  5
B90
  8
LAYER01
  6
CONTINUOUS
 62
     7
 10
6203.7638259999994
 20
1593.820514
 30
0.0
  0
VERTEX
  5
B91
  8
LAYER01
  6
CONTINUOUS
 62
     7
 10
6212.6849469999988
 20
1599.767928
 30
0.0
  0
VERTEX
  5
B92
  8
LAYER01
  6
CONTINUOUS
 62
     7
 10
6221.6060680000001
 20
1605.715342
 30
0.0
  0
VERTEX
  5
B93
  8
LAYER01
  6
CONTINUOUS
 62
     7
 10
6229.5359539999999
 20
1613.645227
 30
0.0
  0
VERTEX
  5
B94
  8
LAYER01
  6
CONTINUOUS
 62
     7
 10
6236.4746030000006
 20
1621.5751130000001
 30
0.0
  0
VERTEX
  5
B95
  8
LAYER01
  6
CONTINUOUS
 62
     7
 10
6242.422016999999
 20
1630.496234
 30
0.0
  0
VERTEX
  5
B96
  8
LAYER01
  6
CONTINUOUS
 62
     7
 10
6247.3781959999988
 20
1639.417355
 30
0.0
  0
VERTEX
  5
B97
  8
LAYER01
  6
CONTINUOUS
 62
     7
 10
6252.334374
 20
1649.329712
 30
0.0
  0
VERTEX
  5
B98
  8
LAYER01
  6
CONTINUOUS
 62
     7
 10
6256.2993169999991
 20
1660.233305
 30
0.0
  0
VERTEX
  5
B99
  8
LAYER01
  6
CONTINUOUS
 62
     7
 10
6258.2817880000002
 20
1671.1368970000001
 30
0.0
  0
VERTEX
  5
B9A
  8
LAYER01
  6
CONTINUOUS
 62
     7
 10
6259.2730240000001
 20
1682.0404900000001
 30
0.0
  0
VERTEX
  5
B9B
  8
LAYER01
  6
CONTINUOUS
 62
     7
 10
6260.2642599999999
 20
1693.9353180000001
 30
0.0
  0
VERTEX
  5
B9C
  8
LAYER01
  6
CONTINUOUS
 62
     7
 10
6260.2642599999999
 20
1693.9353180000001
 30
0.0
  0
VERTEX
  5
B9D
  8
LAYER01
  6
CONTINUOUS
 62
     7
 10
6259.2730240000001
 20
1704.8389110000001
 30
0.0
  0
VERTEX
  5
B9E
  8
LAYER01
  6
CONTINUOUS
 62
     7
 10
6257.2905529999998
 20
1715.7425029999999
 30
0.0
  0
VERTEX
  5
B9F
  8
LAYER01
  6
CONTINUOUS
 62
     7
 10
6254.3168459999997
 20
1725.6548600000001
 30
0.0
  0
VERTEX
  5
BA0
  8
LAYER01
  6
CONTINUOUS
 62
     7
 10
6251.3431389999996
 20
1735.567217
 30
0.0
  0
VERTEX
  5
BA1
  8
LAYER01
  6
CONTINUOUS
 62
     7
 10
6246.3869599999998
 20
1744.4883380000001
 30
0.0
  0
VERTEX
  5
BA2
  8
LAYER01
  6
CONTINUOUS
 62
     7
 10
6241.4307820000013
 20
1753.409459
 30
0.0
  0
VERTEX
  5
BA3
  8
LAYER01
  6
CONTINUOUS
 62
     7
 10
6235.4833680000002
 20
1762.3305800000001
 30
0.0
  0
VERTEX
  5
BA4
  8
LAYER01
  6
CONTINUOUS
 62
     7
 10
6228.544718000001
 20
1769.2692300000001
 30
0.0
  0
VERTEX
  5
BA5
  8
LAYER01
  6
CONTINUOUS
 62
     7
 10
6220.6148320000002
 20
1776.2078799999999
 30
0.0
  0
VERTEX
  5
BA6
  8
LAYER01
  6
CONTINUOUS
 62
     7
 10
6212.6849469999988
 20
1783.14653
 30
0.0
  0
VERTEX
  5
BA7
  8
LAYER01
  6
CONTINUOUS
 62
     7
 10
6203.7638259999994
 20
1788.1027079999999
 30
0.0
  0
VERTEX
  5
BA8
  8
LAYER01
  6
CONTINUOUS
 62
     7
 10
6194.842705
 20
1793.0588869999999
 30
0.0
  0
VERTEX
  5
BA9
  8
LAYER01
  6
CONTINUOUS
 62
     7
 10
6184.9303479999999
 20
1797.0238300000001
 30
0.0
  0
VERTEX
  5
BAA
  8
LAYER01
  6
CONTINUOUS
 62
     7
 10
6175.0179909999997
 20
1799.997537
 30
0.0
  0
VERTEX
  5
BAB
  8
LAYER01
  6
CONTINUOUS
 62
     7
 10
6164.1143979999988
 20
1801.980008
 30
0.0
  0
VERTEX
  5
BAC
  8
LAYER01
  6
CONTINUOUS
 62
     7
 10
6153.210806
 20
1802.9712440000001
 30
0.0
  0
VERTEX
  5
BAD
  8
LAYER01
  6
CONTINUOUS
 62
     7
 10
6153.210806
 20
1802.9712440000001
 30
0.0
  0
SEQEND
  5
BAE
  8
LAYER01
  6
CONTINUOUS
 62
     7
  0
POLYLINE
  5
275
  8
LAYER01
  6
CONTINUOUS
 62
     7
 66
     1
 10
0.0
 20
0.0
 30
0.0
 70
     1
  0
VERTEX
  5
BAF
  8
LAYER01
  6
CONTINUOUS
 62
     7
 10
6150.2370989999999
 20
1619.592641
 30
0.0
  0
VERTEX
  5
BB0
  8
LAYER01
  6
CONTINUOUS
 62
     7
 10
6150.2370989999999
 20
1619.592641
 30
0.0
  0
VERTEX
  5
BB1
  8
LAYER01
  6
CONTINUOUS
 62
     7
 10
6143.2984489999999
 20
1620.583877
 30
0.0
  0
VERTEX
  5
BB2
  8
LAYER01
  6
CONTINUOUS
 62
     7
 10
6136.3597989999998
 20
1621.5751130000001
 30
0.0
  0
VERTEX
  5
BB3
  8
LAYER01
  6
CONTINUOUS
 62
     7
 10
6129.4211489999998
 20
1622.5663489999999
 30
0.0
  0
VERTEX
  5
BB4
  8
LAYER01
  6
CONTINUOUS
 62
     7
 10
6122.4824990000006
 20
1625.540056
 30
0.0
  0
VERTEX
  5
BB5
  8
LAYER01
  6
CONTINUOUS
 62
     7
 10
6116.5350850000004
 20
1628.5137629999999
 30
0.0
  0
VERTEX
  5
BB6
  8
LAYER01
  6
CONTINUOUS
 62
     7
 10
6110.5876710000011
 20
1632.478705
 30
0.0
  0
VERTEX
  5
BB7
  8
LAYER01
  6
CONTINUOUS
 62
     7
 10
6105.6314929999999
 20
1636.4436479999999
 30
0.0
  0
VERTEX
  5
BB8
  8
LAYER01
  6
CONTINUOUS
 62
     7
 10
6100.6753140000001
 20
1641.399827
 30
0.0
  0
VERTEX
  5
BB9
  8
LAYER01
  6
CONTINUOUS
 62
     7
 10
6095.7191359999988
 20
1646.3560050000001
 30
0.0
  0
VERTEX
  5
BBA
  8
LAYER01
  6
CONTINUOUS
 62
     7
 10
6091.7541929999988
 20
1651.312183
 30
0.0
  0
VERTEX
  5
BBB
  8
LAYER01
  6
CONTINUOUS
 62
     7
 10
6088.7804859999997
 20
1657.2595980000001
 30
0.0
  0
VERTEX
  5
BBC
  8
LAYER01
  6
CONTINUOUS
 62
     7
 10
6085.8067789999996
 20
1664.198247
 30
0.0
  0
VERTEX
  5
BBD
  8
LAYER01
  6
CONTINUOUS
 62
     7
 10
6082.8330719999994
 20
1670.1456619999999
 30
0.0
  0
VERTEX
  5
BBE
  8
LAYER01
  6
CONTINUOUS
 62
     7
 10
6081.8418359999987
 20
1677.0843109999989
 30
0.0
  0
VERTEX
  5
BBF
  8
LAYER01
  6
CONTINUOUS
 62
     7
 10
6079.8593650000003
 20
1684.0229609999999
 30
0.0
  0
VERTEX
  5
BC0
  8
LAYER01
  6
CONTINUOUS
 62
     7
 10
6079.8593650000003
 20
1691.952847
 30
0.0
  0
VERTEX
  5
BC1
  8
LAYER01
  6
CONTINUOUS
 62
     7
 10
6079.8593650000003
 20
1691.952847
 30
0.0
  0
VERTEX
  5
BC2
  8
LAYER01
  6
CONTINUOUS
 62
     7
 10
6080.8505999999998
 20
1698.891496
 30
0.0
  0
VERTEX
  5
BC3
  8
LAYER01
  6
CONTINUOUS
 62
     7
 10
6081.8418359999987
 20
1705.830146
 30
0.0
  0
VERTEX
  5
BC4
  8
LAYER01
  6
CONTINUOUS
 62
     7
 10
6083.8243080000002
 20
1712.7687960000001
 30
0.0
  0
VERTEX
  5
BC5
  8
LAYER01
  6
CONTINUOUS
 62
     7
 10
6085.8067789999996
 20
1719.7074459999999
 30
0.0
  0
VERTEX
  5
BC6
  8
LAYER01
  6
CONTINUOUS
 62
     7
 10
6088.7804859999997
 20
1725.6548600000001
 30
0.0
  0
VERTEX
  5
BC7
  8
LAYER01
  6
CONTINUOUS
 62
     7
 10
6092.7454289999996
 20
1731.6022740000001
 30
0.0
  0
VERTEX
  5
BC8
  8
LAYER01
  6
CONTINUOUS
 62
     7
 10
6096.7103710000001
 20
1736.5584530000001
 30
0.0
  0
VERTEX
  5
BC9
  8
LAYER01
  6
CONTINUOUS
 62
     7
 10
6101.6665499999999
 20
1741.514631
 30
0.0
  0
VERTEX
  5
BCA
  8
LAYER01
  6
CONTINUOUS
 62
     7
 10
6106.6227280000012
 20
1746.4708089999999
 30
0.0
  0
VERTEX
  5
BCB
  8
LAYER01
  6
CONTINUOUS
 62
     7
 10
6111.578907000001
 20
1750.4357520000001
 30
0.0
  0
VERTEX
  5
BCC
  8
LAYER01
  6
CONTINUOUS
 62
     7
 10
6117.5263210000003
 20
1754.400695
 30
0.0
  0
VERTEX
  5
BCD
  8
LAYER01
  6
CONTINUOUS
 62
     7
 10
6124.4649710000003
 20
1757.3744019999999
 30
0.0
  0
VERTEX
  5
BCE
  8
LAYER01
  6
CONTINUOUS
 62
     7
 10
6130.4123849999996
 20
1759.356873
 30
0.0
  0
VERTEX
  5
BCF
  8
LAYER01
  6
CONTINUOUS
 62
     7
 10
6137.3510349999997
 20
1761.3393450000001
 30
0.0
  0
VERTEX
  5
BD0
  8
LAYER01
  6
CONTINUOUS
 62
     7
 10
6144.2896840000003
 20
1762.3305800000001
 30
0.0
  0
VERTEX
  5
BD1
  8
LAYER01
  6
CONTINUOUS
 62
     7
 10
6152.2195700000002
 20
1762.3305800000001
 30
0.0
  0
VERTEX
  5
BD2
  8
LAYER01
  6
CONTINUOUS
 62
     7
 10
6152.2195700000002
 20
1762.3305800000001
 30
0.0
  0
VERTEX
  5
BD3
  8
LAYER01
  6
CONTINUOUS
 62
     7
 10
6159.1582200000012
 20
1761.3393450000001
 30
0.0
  0
VERTEX
  5
BD4
  8
LAYER01
  6
CONTINUOUS
 62
     7
 10
6166.0968700000003
 20
1760.348109
 30
0.0
  0
VERTEX
  5
BD5
  8
LAYER01
  6
CONTINUOUS
 62
     7
 10
6172.0442839999996
 20
1758.365638
 30
0.0
  0
VERTEX
  5
BD6
  8
LAYER01
  6
CONTINUOUS
 62
     7
 10
6178.9829339999997
 20
1756.3831660000001
 30
0.0
  0
VERTEX
  5
BD7
  8
LAYER01
  6
CONTINUOUS
 62
     7
 10
6183.939112
 20
1753.409459
 30
0.0
  0
VERTEX
  5
BD8
  8
LAYER01
  6
CONTINUOUS
 62
     7
 10
6189.8865260000002
 20
1749.4445169999999
 30
0.0
  0
VERTEX
  5
BD9
  8
LAYER01
  6
CONTINUOUS
 62
     7
 10
6194.842705
 20
1745.479574
 30
0.0
  0
VERTEX
  5
BDA
  8
LAYER01
  6
CONTINUOUS
 62
     7
 10
6199.7988829999986
 20
1741.514631
 30
0.0
  0
VERTEX
  5
BDB
  8
LAYER01
  6
CONTINUOUS
 62
     7
 10
6203.7638259999994
 20
1736.5584530000001
 30
0.0
  0
VERTEX
  5
BDC
  8
LAYER01
  6
CONTINUOUS
 62
     7
 10
6207.728767999999
 20
1730.611038
 30
0.0
  0
VERTEX
  5
BDD
  8
LAYER01
  6
CONTINUOUS
 62
     7
 10
6211.6937109999999
 20
1725.6548600000001
 30
0.0
  0
VERTEX
  5
BDE
  8
LAYER01
  6
CONTINUOUS
 62
     7
 10
6214.667418
 20
1719.7074459999999
 30
0.0
  0
VERTEX
  5
BDF
  8
LAYER01
  6
CONTINUOUS
 62
     7
 10
6216.6498899999997
 20
1712.7687960000001
 30
0.0
  0
VERTEX
  5
BE0
  8
LAYER01
  6
CONTINUOUS
 62
     7
 10
6218.6323609999999
 20
1706.8213820000001
 30
0.0
  0
VERTEX
  5
BE1
  8
LAYER01
  6
CONTINUOUS
 62
     7
 10
6219.6235969999998
 20
1699.882732
 30
0.0
  0
VERTEX
  5
BE2
  8
LAYER01
  6
CONTINUOUS
 62
     7
 10
6219.6235969999998
 20
1692.944082
 30
0.0
  0
VERTEX
  5
BE3
  8
LAYER01
  6
CONTINUOUS
 62
     7
 10
6219.6235969999998
 20
1692.944082
 30
0.0
  0
VERTEX
  5
BE4
  8
LAYER01
  6
CONTINUOUS
 62
     7
 10
6219.6235969999998
 20
1685.014197
 30
0.0
  0
VERTEX
  5
BE5
  8
LAYER01
  6
CONTINUOUS
 62
     7
 10
6218.6323609999999
 20
1678.0755469999999
 30
0.0
  0
VERTEX
  5
BE6
  8
LAYER01
  6
CONTINUOUS
 62
     7
 10
6217.6411250000001
 20
1671.1368970000001
 30
0.0
  0
VERTEX
  5
BE7
  8
LAYER01
  6
CONTINUOUS
 62
     7
 10
6214.667418
 20
1665.1894830000001
 30
0.0
  0
VERTEX
  5
BE8
  8
LAYER01
  6
CONTINUOUS
 62
     7
 10
6212.6849469999988
 20
1658.2508330000001
 30
0.0
  0
VERTEX
  5
BE9
  8
LAYER01
  6
CONTINUOUS
 62
     7
 10
6208.7200039999989
 20
1652.3034190000001
 30
0.0
  0
VERTEX
  5
BEA
  8
LAYER01
  6
CONTINUOUS
 62
     7
 10
6204.7550609999998
 20
1646.3560050000001
 30
0.0
  0
VERTEX
  5
BEB
  8
LAYER01
  6
CONTINUOUS
 62
     7
 10
6199.7988829999986
 20
1641.399827
 30
0.0
  0
VERTEX
  5
BEC
  8
LAYER01
  6
CONTINUOUS
 62
     7
 10
6194.842705
 20
1636.4436479999999
 30
0.0
  0
VERTEX
  5
BED
  8
LAYER01
  6
CONTINUOUS
 62
     7
 10
6189.8865260000002
 20
1632.478705
 30
0.0
  0
VERTEX
  5
BEE
  8
LAYER01
  6
CONTINUOUS
 62
     7
 10
6183.939112
 20
1628.5137629999999
 30
0.0
  0
VERTEX
  5
BEF
  8
LAYER01
  6
CONTINUOUS
 62
     7
 10
6177.9916979999998
 20
1625.540056
 30
0.0
  0
VERTEX
  5
BF0
  8
LAYER01
  6
CONTINUOUS
 62
     7
 10
6171.0530479999998
 20
1623.5575839999999
 30
0.0
  0
VERTEX
  5
BF1
  8
LAYER01
  6
CONTINUOUS
 62
     7
 10
6164.1143979999988
 20
1621.5751130000001
 30
0.0
  0
VERTEX
  5
BF2
  8
LAYER01
  6
CONTINUOUS
 62
     7
 10
6157.1757479999997
 20
1620.583877
 30
0.0
  0
VERTEX
  5
BF3
  8
LAYER01
  6
CONTINUOUS
 62
     7
 10
6150.2370989999999
 20
1619.592641
 30
0.0
  0
VERTEX
  5
BF4
  8
LAYER01
  6
CONTINUOUS
 62
     7
 10
6150.2370989999999
 20
1619.592641
 30
0.0
  0
SEQEND
  5
BF5
  8
LAYER01
  6
CONTINUOUS
 62
     7
  0
POLYLINE
  5
2BD
  8
LAYER01
  6
CONTINUOUS
 62
     7
 66
     1
 10
0.0
 20
0.0
 30
0.0
 70
     1
  0
VERTEX
  5
BF6
  8
LAYER01
  6
CONTINUOUS
 62
     7
 10
6229.5359539999999
 20
1798.015065
 30
0.0
  0
VERTEX
  5
BF7
  8
LAYER01
  6
CONTINUOUS
 62
     7
 10
6334.6069360000001
 20
1798.015065
 30
0.0
  0
VERTEX
  5
BF8
  8
LAYER01
  6
CONTINUOUS
 62
     7
 10
6334.6069360000001
 20
1798.015065
 30
0.0
  0
VERTEX
  5
BF9
  8
LAYER01
  6
CONTINUOUS
 62
     7
 10
6346.501765
 20
1796.032594
 30
0.0
  0
VERTEX
  5
BFA
  8
LAYER01
  6
CONTINUOUS
 62
     7
 10
6357.4053569999996
 20
1791.076415
 30
0.0
  0
VERTEX
  5
BFB
  8
LAYER01
  6
CONTINUOUS
 62
     7
 10
6366.326478
 20
1785.129001
 30
0.0
  0
VERTEX
  5
BFC
  8
LAYER01
  6
CONTINUOUS
 62
     7
 10
6374.2563639999998
 20
1777.199116
 30
0.0
  0
VERTEX
  5
BFD
  8
LAYER01
  6
CONTINUOUS
 62
     7
 10
6381.1950139999999
 20
1769.2692300000001
 30
0.0
  0
VERTEX
  5
BFE
  8
LAYER01
  6
CONTINUOUS
 62
     7
 10
6386.1511920000003
 20
1759.356873
 30
0.0
  0
VERTEX
  5
BFF
  8
LAYER01
  6
CONTINUOUS
 62
     7
 10
6389.1248990000013
 20
1747.462045
 30
0.0
  0
VERTEX
  5
C00
  8
LAYER01
  6
CONTINUOUS
 62
     7
 10
6390.1161350000002
 20
1736.5584530000001
 30
0.0
  0
VERTEX
  5
C01
  8
LAYER01
  6
CONTINUOUS
 62
     7
 10
6390.1161350000002
 20
1736.5584530000001
 30
0.0
  0
VERTEX
  5
C02
  8
LAYER01
  6
CONTINUOUS
 62
     7
 10
6389.1248990000013
 20
1724.6636239999989
 30
0.0
  0
VERTEX
  5
C03
  8
LAYER01
  6
CONTINUOUS
 62
     7
 10
6387.1424280000001
 20
1714.7512670000001
 30
0.0
  0
VERTEX
  5
C04
  8
LAYER01
  6
CONTINUOUS
 62
     7
 10
6383.1774850000002
 20
1704.8389110000001
 30
0.0
  0
VERTEX
  5
C05
  8
LAYER01
  6
CONTINUOUS
 62
     7
 10
6378.2213069999998
 20
1695.9177890000001
 30
0.0
  0
VERTEX
  5
C06
  8
LAYER01
  6
CONTINUOUS
 62
     7
 10
6371.2826569999997
 20
1687.9879040000001
 30
0.0
  0
VERTEX
  5
C07
  8
LAYER01
  6
CONTINUOUS
 62
     7
 10
6364.3440069999988
 20
1682.0404900000001
 30
0.0
  0
VERTEX
  5
C08
  8
LAYER01
  6
CONTINUOUS
 62
     7
 10
6354.4316500000014
 20
1676.0930760000001
 30
0.0
  0
VERTEX
  5
C09
  8
LAYER01
  6
CONTINUOUS
 62
     7
 10
6344.5192930000012
 20
1672.1281329999999
 30
0.0
  0
VERTEX
  5
C0A
  8
LAYER01
  6
CONTINUOUS
 62
     7
 10
6408.9496130000007
 20
1585.8906280000001
 30
0.0
  0
VERTEX
  5
C0B
  8
LAYER01
  6
CONTINUOUS
 62
     7
 10
6359.3878290000002
 20
1585.8906280000001
 30
0.0
  0
VERTEX
  5
C0C
  8
LAYER01
  6
CONTINUOUS
 62
     7
 10
6273.1503240000002
 20
1695.9177890000001
 30
0.0
  0
VERTEX
  5
C0D
  8
LAYER01
  6
CONTINUOUS
 62
     7
 10
6321.7208719999999
 20
1695.9177890000001
 30
0.0
  0
VERTEX
  5
C0E
  8
LAYER01
  6
CONTINUOUS
 62
     7
 10
6321.7208719999999
 20
1695.9177890000001
 30
0.0
  0
VERTEX
  5
C0F
  8
LAYER01
  6
CONTINUOUS
 62
     7
 10
6327.6682869999986
 20
1697.900261
 30
0.0
  0
VERTEX
  5
C10
  8
LAYER01
  6
CONTINUOUS
 62
     7
 10
6332.6244649999999
 20
1699.882732
 30
0.0
  0
VERTEX
  5
C11
  8
LAYER01
  6
CONTINUOUS
 62
     7
 10
6336.5894079999998
 20
1703.847675
 30
0.0
  0
VERTEX
  5
C12
  8
LAYER01
  6
CONTINUOUS
 62
     7
 10
6340.5543509999998
 20
1707.8126179999999
 30
0.0
  0
VERTEX
  5
C13
  8
LAYER01
  6
CONTINUOUS
 62
     7
 10
6343.5280579999999
 20
1712.7687960000001
 30
0.0
  0
VERTEX
  5
C14
  8
LAYER01
  6
CONTINUOUS
 62
     7
 10
6346.501765
 20
1717.7249750000001
 30
0.0
  0
VERTEX
  5
C15
  8
LAYER01
  6
CONTINUOUS
 62
     7
 10
6347.4930000000004
 20
1723.6723890000001
 30
0.0
  0
VERTEX
  5
C16
  8
LAYER01
  6
CONTINUOUS
 62
     7
 10
6347.4930000000004
 20
1729.619803
 30
0.0
  0
VERTEX
  5
C17
  8
LAYER01
  6
CONTINUOUS
 62
     7
 10
6347.4930000000004
 20
1729.619803
 30
0.0
  0
VERTEX
  5
C18
  8
LAYER01
  6
CONTINUOUS
 62
     7
 10
6347.4930000000004
 20
1735.567217
 30
0.0
  0
VERTEX
  5
C19
  8
LAYER01
  6
CONTINUOUS
 62
     7
 10
6345.510529000001
 20
1740.5233949999999
 30
0.0
  0
VERTEX
  5
C1A
  8
LAYER01
  6
CONTINUOUS
 62
     7
 10
6343.5280579999999
 20
1745.479574
 30
0.0
  0
VERTEX
  5
C1B
  8
LAYER01
  6
CONTINUOUS
 62
     7
 10
6340.5543509999998
 20
1750.4357520000001
 30
0.0
  0
VERTEX
  5
C1C
  8
LAYER01
  6
CONTINUOUS
 62
     7
 10
6336.5894079999998
 20
1754.400695
 30
0.0
  0
VERTEX
  5
C1D
  8
LAYER01
  6
CONTINUOUS
 62
     7
 10
6332.6244649999999
 20
1757.3744019999999
 30
0.0
  0
VERTEX
  5
C1E
  8
LAYER01
  6
CONTINUOUS
 62
     7
 10
6326.6770509999997
 20
1760.348109
 30
0.0
  0
VERTEX
  5
C1F
  8
LAYER01
  6
CONTINUOUS
 62
     7
 10
6321.7208719999999
 20
1762.3305800000001
 30
0.0
  0
VERTEX
  5
C20
  8
LAYER01
  6
CONTINUOUS
 62
     7
 10
6265.2204380000003
 20
1762.3305800000001
 30
0.0
  0
VERTEX
  5
C21
  8
LAYER01
  6
CONTINUOUS
 62
     7
 10
6229.5359539999999
 20
1798.015065
 30
0.0
  0
VERTEX
  5
C22
  8
LAYER01
  6
CONTINUOUS
 62
     7
 10
6229.5359539999999
 20
1798.015065
 30
0.0
  0
SEQEND
  5
C23
  8
LAYER01
  6
CONTINUOUS
 62
     7
  0
POLYLINE
  5
2EC
  8
LAYER01
  6
CONTINUOUS
 62
     7
 66
     1
 10
0.0
 20
0.0
 30
0.0
 70
     1
  0
VERTEX
  5
C24
  8
LAYER01
  6
CONTINUOUS
 62
     7
 10
6435.7129770000001
 20
1745.479574
 30
0.0
  0
VERTEX
  5
C25
  8
LAYER01
  6
CONTINUOUS
 62
     7
 10
6435.7129770000001
 20
1745.479574
 30
0.0
  0
VERTEX
  5
C26
  8
LAYER01
  6
CONTINUOUS
 62
     7
 10
6440.6691549999987
 20
1746.4708089999999
 30
0.0
  0
VERTEX
  5
C27
  8
LAYER01
  6
CONTINUOUS
 62
     7
 10
6445.625332999999
 20
1747.462045
 30
0.0
  0
VERTEX
  5
C28
  8
LAYER01
  6
CONTINUOUS
 62
     7
 10
6450.5815119999988
 20
1750.4357520000001
 30
0.0
  0
VERTEX
  5
C29
  8
LAYER01
  6
CONTINUOUS
 62
     7
 10
6454.5464549999988
 20
1753.409459
 30
0.0
  0
VERTEX
  5
C2A
  8
LAYER01
  6
CONTINUOUS
 62
     7
 10
6457.5201619999998
 20
1757.3744019999999
 30
0.0
  0
VERTEX
  5
C2B
  8
LAYER01
  6
CONTINUOUS
 62
     7
 10
6459.5026329999992
 20
1761.3393450000001
 30
0.0
  0
VERTEX
  5
C2C
  8
LAYER01
  6
CONTINUOUS
 62
     7
 10
6461.4851040000012
 20
1766.295523
 30
0.0
  0
VERTEX
  5
C2D
  8
LAYER01
  6
CONTINUOUS
 62
     7
 10
6461.4851040000012
 20
1772.242937
 30
0.0
  0
VERTEX
  5
C2E
  8
LAYER01
  6
CONTINUOUS
 62
     7
 10
6461.4851040000012
 20
1772.242937
 30
0.0
  0
VERTEX
  5
C2F
  8
LAYER01
  6
CONTINUOUS
 62
     7
 10
6461.4851040000012
 20
1777.199116
 30
0.0
  0
VERTEX
  5
C30
  8
LAYER01
  6
CONTINUOUS
 62
     7
 10
6459.5026329999992
 20
1782.1552939999999
 30
0.0
  0
VERTEX
  5
C31
  8
LAYER01
  6
CONTINUOUS
 62
     7
 10
6457.5201619999998
 20
1786.1202370000001
 30
0.0
  0
VERTEX
  5
C32
  8
LAYER01
  6
CONTINUOUS
 62
     7
 10
6454.5464549999988
 20
1790.08518
 30
0.0
  0
VERTEX
  5
C33
  8
LAYER01
  6
CONTINUOUS
 62
     7
 10
6450.5815119999988
 20
1793.0588869999999
 30
0.0
  0
VERTEX
  5
C34
  8
LAYER01
  6
CONTINUOUS
 62
     7
 10
6445.625332999999
 20
1796.032594
 30
0.0
  0
VERTEX
  5
C35
  8
LAYER01
  6
CONTINUOUS
 62
     7
 10
6440.6691549999987
 20
1797.0238300000001
 30
0.0
  0
VERTEX
  5
C36
  8
LAYER01
  6
CONTINUOUS
 62
     7
 10
6435.7129770000001
 20
1798.015065
 30
0.0
  0
VERTEX
  5
C37
  8
LAYER01
  6
CONTINUOUS
 62
     7
 10
6435.7129770000001
 20
1798.015065
 30
0.0
  0
VERTEX
  5
C38
  8
LAYER01
  6
CONTINUOUS
 62
     7
 10
6430.7567980000003
 20
1797.0238300000001
 30
0.0
  0
VERTEX
  5
C39
  8
LAYER01
  6
CONTINUOUS
 62
     7
 10
6425.80062
 20
1796.032594
 30
0.0
  0
VERTEX
  5
C3A
  8
LAYER01
  6
CONTINUOUS
 62
     7
 10
6420.8444409999993
 20
1793.0588869999999
 30
0.0
  0
VERTEX
  5
C3B
  8
LAYER01
  6
CONTINUOUS
 62
     7
 10
6416.8794980000002
 20
1790.08518
 30
0.0
  0
VERTEX
  5
C3C
  8
LAYER01
  6
CONTINUOUS
 62
     7
 10
6413.9057909999992
 20
1786.1202370000001
 30
0.0
  0
VERTEX
  5
C3D
  8
LAYER01
  6
CONTINUOUS
 62
     7
 10
6411.923319999999
 20
1782.1552939999999
 30
0.0
  0
VERTEX
  5
C3E
  8
LAYER01
  6
CONTINUOUS
 62
     7
 10
6409.9408489999996
 20
1777.199116
 30
0.0
  0
VERTEX
  5
C3F
  8
LAYER01
  6
CONTINUOUS
 62
     7
 10
6409.9408489999996
 20
1772.242937
 30
0.0
  0
VERTEX
  5
C40
  8
LAYER01
  6
CONTINUOUS
 62
     7
 10
6409.9408489999996
 20
1772.242937
 30
0.0
  0
VERTEX
  5
C41
  8
LAYER01
  6
CONTINUOUS
 62
     7
 10
6409.9408489999996
 20
1766.295523
 30
0.0
  0
VERTEX
  5
C42
  8
LAYER01
  6
CONTINUOUS
 62
     7
 10
6411.923319999999
 20
1761.3393450000001
 30
0.0
  0
VERTEX
  5
C43
  8
LAYER01
  6
CONTINUOUS
 62
     7
 10
6413.9057909999992
 20
1757.3744019999999
 30
0.0
  0
VERTEX
  5
C44
  8
LAYER01
  6
CONTINUOUS
 62
     7
 10
6416.8794980000002
 20
1753.409459
 30
0.0
  0
VERTEX
  5
C45
  8
LAYER01
  6
CONTINUOUS
 62
     7
 10
6420.8444409999993
 20
1750.4357520000001
 30
0.0
  0
VERTEX
  5
C46
  8
LAYER01
  6
CONTINUOUS
 62
     7
 10
6425.80062
 20
1747.462045
 30
0.0
  0
VERTEX
  5
C47
  8
LAYER01
  6
CONTINUOUS
 62
     7
 10
6430.7567980000003
 20
1746.4708089999999
 30
0.0
  0
VERTEX
  5
C48
  8
LAYER01
  6
CONTINUOUS
 62
     7
 10
6435.7129770000001
 20
1745.479574
 30
0.0
  0
VERTEX
  5
C49
  8
LAYER01
  6
CONTINUOUS
 62
     7
 10
6435.7129770000001
 20
1745.479574
 30
0.0
  0
SEQEND
  5
C4A
  8
LAYER01
  6
CONTINUOUS
 62
     7
  0
POLYLINE
  5
314
  8
LAYER01
  6
CONTINUOUS
 62
     7
 66
     1
 10
0.0
 20
0.0
 30
0.0
 70
     1
  0
VERTEX
  5
C4B
  8
LAYER01
  6
CONTINUOUS
 62
     7
 10
6435.7129770000001
 20
1794.050121999999
 30
0.0
  0
VERTEX
  5
C4C
  8
LAYER01
  6
CONTINUOUS
 62
     7
 10
6435.7129770000001
 20
1794.050121999999
 30
0.0
  0
VERTEX
  5
C4D
  8
LAYER01
  6
CONTINUOUS
 62
     7
 10
6439.6779190000007
 20
1793.0588869999999
 30
0.0
  0
VERTEX
  5
C4E
  8
LAYER01
  6
CONTINUOUS
 62
     7
 10
6443.6428619999997
 20
1792.0676510000001
 30
0.0
  0
VERTEX
  5
C4F
  8
LAYER01
  6
CONTINUOUS
 62
     7
 10
6447.6078049999996
 20
1790.08518
 30
0.0
  0
VERTEX
  5
C50
  8
LAYER01
  6
CONTINUOUS
 62
     7
 10
6450.5815119999988
 20
1787.1114729999999
 30
0.0
  0
VERTEX
  5
C51
  8
LAYER01
  6
CONTINUOUS
 62
     7
 10
6453.5552189999999
 20
1784.1377660000001
 30
0.0
  0
VERTEX
  5
C52
  8
LAYER01
  6
CONTINUOUS
 62
     7
 10
6455.5376899999992
 20
1780.1728230000001
 30
0.0
  0
VERTEX
  5
C53
  8
LAYER01
  6
CONTINUOUS
 62
     7
 10
6457.5201619999998
 20
1776.2078799999999
 30
0.0
  0
VERTEX
  5
C54
  8
LAYER01
  6
CONTINUOUS
 62
     7
 10
6457.5201619999998
 20
1772.242937
 30
0.0
  0
VERTEX
  5
C55
  8
LAYER01
  6
CONTINUOUS
 62
     7
 10
6457.5201619999998
 20
1772.242937
 30
0.0
  0
VERTEX
  5
C56
  8
LAYER01
  6
CONTINUOUS
 62
     7
 10
6457.5201619999998
 20
1767.2867590000001
 30
0.0
  0
VERTEX
  5
C57
  8
LAYER01
  6
CONTINUOUS
 62
     7
 10
6455.5376899999992
 20
1763.3218159999999
 30
0.0
  0
VERTEX
  5
C58
  8
LAYER01
  6
CONTINUOUS
 62
     7
 10
6453.5552189999999
 20
1759.356873
 30
0.0
  0
VERTEX
  5
C59
  8
LAYER01
  6
CONTINUOUS
 62
     7
 10
6450.5815119999988
 20
1756.3831660000001
 30
0.0
  0
VERTEX
  5
C5A
  8
LAYER01
  6
CONTINUOUS
 62
     7
 10
6447.6078049999996
 20
1753.409459
 30
0.0
  0
VERTEX
  5
C5B
  8
LAYER01
  6
CONTINUOUS
 62
     7
 10
6443.6428619999997
 20
1751.4269879999999
 30
0.0
  0
VERTEX
  5
C5C
  8
LAYER01
  6
CONTINUOUS
 62
     7
 10
6439.6779190000007
 20
1750.4357520000001
 30
0.0
  0
VERTEX
  5
C5D
  8
LAYER01
  6
CONTINUOUS
 62
     7
 10
6435.7129770000001
 20
1750.4357520000001
 30
0.0
  0
VERTEX
  5
C5E
  8
LAYER01
  6
CONTINUOUS
 62
     7
 10
6435.7129770000001
 20
1750.4357520000001
 30
0.0
  0
VERTEX
  5
C5F
  8
LAYER01
  6
CONTINUOUS
 62
     7
 10
6431.7480340000002
 20
1750.4357520000001
 30
0.0
  0
VERTEX
  5
C60
  8
LAYER01
  6
CONTINUOUS
 62
     7
 10
6426.7918549999986
 20
1751.4269879999999
 30
0.0
  0
VERTEX
  5
C61
  8
LAYER01
  6
CONTINUOUS
 62
     7
 10
6423.8181479999994
 20
1753.409459
 30
0.0
  0
VERTEX
  5
C62
  8
LAYER01
  6
CONTINUOUS
 62
     7
 10
6419.8532059999998
 20
1756.3831660000001
 30
0.0
  0
VERTEX
  5
C63
  8
LAYER01
  6
CONTINUOUS
 62
     7
 10
6417.8707340000001
 20
1759.356873
 30
0.0
  0
VERTEX
  5
C64
  8
LAYER01
  6
CONTINUOUS
 62
     7
 10
6415.8882629999989
 20
1763.3218159999999
 30
0.0
  0
VERTEX
  5
C65
  8
LAYER01
  6
CONTINUOUS
 62
     7
 10
6413.9057909999992
 20
1767.2867590000001
 30
0.0
  0
VERTEX
  5
C66
  8
LAYER01
  6
CONTINUOUS
 62
     7
 10
6413.9057909999992
 20
1772.242937
 30
0.0
  0
VERTEX
  5
C67
  8
LAYER01
  6
CONTINUOUS
 62
     7
 10
6413.9057909999992
 20
1772.242937
 30
0.0
  0
VERTEX
  5
C68
  8
LAYER01
  6
CONTINUOUS
 62
     7
 10
6413.9057909999992
 20
1776.2078799999999
 30
0.0
  0
VERTEX
  5
C69
  8
LAYER01
  6
CONTINUOUS
 62
     7
 10
6415.8882629999989
 20
1780.1728230000001
 30
0.0
  0
VERTEX
  5
C6A
  8
LAYER01
  6
CONTINUOUS
 62
     7
 10
6417.8707340000001
 20
1784.1377660000001
 30
0.0
  0
VERTEX
  5
C6B
  8
LAYER01
  6
CONTINUOUS
 62
     7
 10
6419.8532059999998
 20
1787.1114729999999
 30
0.0
  0
VERTEX
  5
C6C
  8
LAYER01
  6
CONTINUOUS
 62
     7
 10
6423.8181479999994
 20
1790.08518
 30
0.0
  0
VERTEX
  5
C6D
  8
LAYER01
  6
CONTINUOUS
 62
     7
 10
6426.7918549999986
 20
1792.0676510000001
 30
0.0
  0
VERTEX
  5
C6E
  8
LAYER01
  6
CONTINUOUS
 62
     7
 10
6431.7480340000002
 20
1793.0588869999999
 30
0.0
  0
VERTEX
  5
C6F
  8
LAYER01
  6
CONTINUOUS
 62
     7
 10
6435.7129770000001
 20
1794.050121999999
 30
0.0
  0
VERTEX
  5
C70
  8
LAYER01
  6
CONTINUOUS
 62
     7
 10
6435.7129770000001
 20
1794.050121999999
 30
0.0
  0
SEQEND
  5
C71
  8
LAYER01
  6
CONTINUOUS
 62
     7
  0
POLYLINE
  5
33C
  8
LAYER01
  6
CONTINUOUS
 62
     7
 66
     1
 10
0.0
 20
0.0
 30
0.0
 70
     1
  0
VERTEX
  5
C72
  8
LAYER01
  6
CONTINUOUS
 62
     7
 10
6439.6779190000007
 20
1770.260466
 30
0.0
  0
VERTEX
  5
C73
  8
LAYER01
  6
CONTINUOUS
 62
     7
 10
6439.6779190000007
 20
1770.260466
 30
0.0
  0
VERTEX
  5
C74
  8
LAYER01
  6
CONTINUOUS
 62
     7
 10
6442.6516259999989
 20
1771.251702
 30
0.0
  0
VERTEX
  5
C75
  8
LAYER01
  6
CONTINUOUS
 62
     7
 10
6445.625332999999
 20
1772.242937
 30
0.0
  0
VERTEX
  5
C76
  8
LAYER01
  6
CONTINUOUS
 62
     7
 10
6447.6078049999996
 20
1775.2166440000001
 30
0.0
  0
VERTEX
  5
C77
  8
LAYER01
  6
CONTINUOUS
 62
     7
 10
6447.6078049999996
 20
1778.190351
 30
0.0
  0
VERTEX
  5
C78
  8
LAYER01
  6
CONTINUOUS
 62
     7
 10
6447.6078049999996
 20
1778.190351
 30
0.0
  0
VERTEX
  5
C79
  8
LAYER01
  6
CONTINUOUS
 62
     7
 10
6447.6078049999996
 20
1782.1552939999999
 30
0.0
  0
VERTEX
  5
C7A
  8
LAYER01
  6
CONTINUOUS
 62
     7
 10
6444.6340980000004
 20
1785.129001
 30
0.0
  0
VERTEX
  5
C7B
  8
LAYER01
  6
CONTINUOUS
 62
     7
 10
6441.6603909999994
 20
1786.1202370000001
 30
0.0
  0
VERTEX
  5
C7C
  8
LAYER01
  6
CONTINUOUS
 62
     7
 10
6437.6954479999986
 20
1786.1202370000001
 30
0.0
  0
VERTEX
  5
C7D
  8
LAYER01
  6
CONTINUOUS
 62
     7
 10
6425.80062
 20
1786.1202370000001
 30
0.0
  0
VERTEX
  5
C7E
  8
LAYER01
  6
CONTINUOUS
 62
     7
 10
6425.80062
 20
1757.3744019999999
 30
0.0
  0
VERTEX
  5
C7F
  8
LAYER01
  6
CONTINUOUS
 62
     7
 10
6429.7655619999996
 20
1757.3744019999999
 30
0.0
  0
VERTEX
  5
C80
  8
LAYER01
  6
CONTINUOUS
 62
     7
 10
6429.7655619999996
 20
1770.260466
 30
0.0
  0
VERTEX
  5
C81
  8
LAYER01
  6
CONTINUOUS
 62
     7
 10
6435.7129770000001
 20
1770.260466
 30
0.0
  0
VERTEX
  5
C82
  8
LAYER01
  6
CONTINUOUS
 62
     7
 10
6442.6516259999989
 20
1757.3744019999999
 30
0.0
  0
VERTEX
  5
C83
  8
LAYER01
  6
CONTINUOUS
 62
     7
 10
6447.6078049999996
 20
1757.3744019999999
 30
0.0
  0
VERTEX
  5
C84
  8
LAYER01
  6
CONTINUOUS
 62
     7
 10
6439.6779190000007
 20
1770.260466
 30
0.0
  0
VERTEX
  5
C85
  8
LAYER01
  6
CONTINUOUS
 62
     7
 10
6439.6779190000007
 20
1770.260466
 30
0.0
  0
SEQEND
  5
C86
  8
LAYER01
  6
CONTINUOUS
 62
     7
  0
POLYLINE
  5
352
  8
LAYER01
  6
CONTINUOUS
 62
     7
 66
     1
 10
0.0
 20
0.0
 30
0.0
 70
     1
  0
VERTEX
  5
C87
  8
LAYER01
  6
CONTINUOUS
 62
     7
 10
6436.7042119999987
 20
1782.1552939999999
 30
0.0
  0
VERTEX
  5
C88
  8
LAYER01
  6
CONTINUOUS
 62
     7
 10
6436.7042119999987
 20
1782.1552939999999
 30
0.0
  0
VERTEX
  5
C89
  8
LAYER01
  6
CONTINUOUS
 62
     7
 10
6441.6603909999994
 20
1781.164059
 30
0.0
  0
VERTEX
  5
C8A
  8
LAYER01
  6
CONTINUOUS
 62
     7
 10
6443.6428619999997
 20
1780.1728230000001
 30
0.0
  0
VERTEX
  5
C8B
  8
LAYER01
  6
CONTINUOUS
 62
     7
 10
6443.6428619999997
 20
1778.190351
 30
0.0
  0
VERTEX
  5
C8C
  8
LAYER01
  6
CONTINUOUS
 62
     7
 10
6443.6428619999997
 20
1778.190351
 30
0.0
  0
VERTEX
  5
C8D
  8
LAYER01
  6
CONTINUOUS
 62
     7
 10
6442.6516259999989
 20
1776.2078799999999
 30
0.0
  0
VERTEX
  5
C8E
  8
LAYER01
  6
CONTINUOUS
 62
     7
 10
6440.6691549999987
 20
1775.2166440000001
 30
0.0
  0
VERTEX
  5
C8F
  8
LAYER01
  6
CONTINUOUS
 62
     7
 10
6434.7217410000003
 20
1774.2254089999999
 30
0.0
  0
VERTEX
  5
C90
  8
LAYER01
  6
CONTINUOUS
 62
     7
 10
6429.7655619999996
 20
1774.2254089999999
 30
0.0
  0
VERTEX
  5
C91
  8
LAYER01
  6
CONTINUOUS
 62
     7
 10
6429.7655619999996
 20
1782.1552939999999
 30
0.0
  0
VERTEX
  5
C92
  8
LAYER01
  6
CONTINUOUS
 62
     7
 10
6436.7042119999987
 20
1782.1552939999999
 30
0.0
  0
VERTEX
  5
C93
  8
LAYER01
  6
CONTINUOUS
 62
     7
 10
6436.7042119999987
 20
1782.1552939999999
 30
0.0
  0
SEQEND
  5
C94
  8
LAYER01
  6
CONTINUOUS
 62
     7
  0
ENDBLK
  5
361
  8
0
  0
BLOCK
  8
0
  2
TRIGO-G3
 70
     0
 10
0.0
 20
0.0
 30
0.0
  3
TRIGO-G3
  1

  0
TEXT
  5
364
  8
LAYER01
  6
VERDECKT
 62
     1
 10
2133.219951
 20
-311.285303
 30
0.0
 40
13.0
  1
A. Sprenger GmbH
  7
SIMPLEX
  0
TEXT
  5
365
  8
LAYER01
  6
VERDECKT
 62
     1
 10
2133.219951
 20
-333.57101699999998
 30
0.0
 40
13.0
  1
Berner Str. 10
  7
SIMPLEX
  0
TEXT
  5
366
  8
LAYER01
  6
VERDECKT
 62
     1
 10
2133.219951
 20
-355.85673100000002
 30
0.0
 40
13.0
  1
60437 Frankfurt
  7
SIMPLEX
  0
TEXT
  5
367
  8
LAYER01
  6
VERDECKT
 62
     1
 10
2133.219951
 20
-378.14244500000001
 30
0.0
 40
13.0
  1
Tel.: 069 - 507 27 41
  7
SIMPLEX
  0
TEXT
  5
368
  8
LAYER01
  6
VERDECKT
 62
     1
 10
2133.219951
 20
-400.42815999999988
 30
0.0
 40
13.0
  1
Fax: 069 - 507 72 91
  7
SIMPLEX
  0
TEXT
  5
369
  8
LAYER01
  6
VERDECKT
 62
     1
 10
2133.219951
 20
-422.71387399999998
 30
0.0
 40
13.0
  1
info@varicor.org
  7
SIMPLEX
  0
ENDBLK
  5
36A
  8
0
  0
BLOCK
  8
0
  2
TRIGO-G2
 70
     0
 10
0.0
 20
0.0
 30
0.0
  3
TRIGO-G2
  1

  0
TEXT
  5
36D
  8
LAYER01
  6
CONTINUOUS
 62
     1
 10
3499.283942
 20
-616.88954599999988
 30
0.0
 40
13.0
  1
Blatt
  7
SIMPLEX
  0
LINE
  5
36E
  8
LAYER01
  6
CONTINUOUS
 62
     1
 10
2114.783942
 20
-525.88954599999988
 30
0.0
 11
2894.783942
 21
-525.88954599999988
 31
0.0
  0
LINE
  5
36F
  8
LAYER01
  6
CONTINUOUS
 62
     1
 10
2114.783942
 20
-558.38954599999988
 30
0.0
 11
2894.783942
 21
-558.38954599999988
 31
0.0
  0
LINE
  5
370
  8
LAYER01
  6
CONTINUOUS
 62
     1
 10
2114.783942
 20
-590.889546
 30
0.0
 11
3583.783942
 21
-590.889546
 31
0.0
  0
LINE
  5
371
  8
LAYER01
  6
CONTINUOUS
 62
     1
 10
2114.783942
 20
-688.38954599999988
 30
0.0
 11
3583.783942
 21
-688.38954599999988
 31
0.0
  0
LINE
  5
372
  8
LAYER01
  6
CONTINUOUS
 62
     1
 10
2114.783942
 20
-428.389546
 30
0.0
 11
3583.783942
 21
-428.389546
 31
0.0
  0
POLYLINE
  5
373
  8
LAYER01
  6
CONTINUOUS
 62
     1
 66
     1
 10
0.0
 20
0.0
 30
0.0
 70
     1
  0
VERTEX
  5
C95
  8
LAYER01
  6
CONTINUOUS
 62
     1
 10
2114.783942
 20
-727.389546
 30
0.0
  0
VERTEX
  5
C96
  8
LAYER01
  6
CONTINUOUS
 62
     1
 10
2114.783942
 20
-291.889546
 30
0.0
  0
VERTEX
  5
C97
  8
LAYER01
  6
CONTINUOUS
 62
     1
 10
3583.783942
 20
-291.889546
 30
0.0
  0
VERTEX
  5
C98
  8
LAYER01
  6
CONTINUOUS
 62
     1
 10
3583.783942
 20
-727.389546
 30
0.0
  0
SEQEND
  5
C99
  8
LAYER01
  6
CONTINUOUS
 62
     1
  0
LINE
  5
379
  8
LAYER01
  6
CONTINUOUS
 62
     1
 10
2114.783942
 20
-460.889546
 30
0.0
 11
2894.783942
 21
-460.889546
 31
0.0
  0
LINE
  5
37A
  8
LAYER01
  6
CONTINUOUS
 62
     1
 10
2114.783942
 20
-493.389546
 30
0.0
 11
2894.783942
 21
-493.389546
 31
0.0
  0
LINE
  5
37B
  8
LAYER01
  6
CONTINUOUS
 62
     1
 10
2537.283942
 20
-291.889546
 30
0.0
 11
2537.283942
 21
-727.389546
 31
0.0
  0
INSERT
  5
37C
  8
LAYER01
  2
TRIGO-G3
 10
0.0
 20
0.0
 30
0.0
  0
LINE
  5
37D
  8
LAYER01
  6
CONTINUOUS
 62
     1
 10
2114.783942
 20
-655.889546
 30
0.0
 11
2537.283942
 21
-655.889546
 31
0.0
  0
LINE
  5
37E
  8
LAYER01
  6
CONTINUOUS
 62
     1
 10
2114.783942
 20
-623.389546
 30
0.0
 11
2537.283942
 21
-623.389546
 31
0.0
  0
LINE
  5
37F
  8
LAYER01
  6
CONTINUOUS
 62
     1
 10
2173.283942
 20
-428.389546
 30
0.0
 11
2173.283942
 21
-727.389546
 31
0.0
  0
TEXT
  5
380
  8
LAYER01
  6
CONTINUOUS
 62
     1
 10
2125.7029859999998
 20
-714.389546
 30
0.0
 40
12.35
  1
Zust
  7
SIMPLEX
  0
LINE
  5
381
  8
LAYER01
  6
CONTINUOUS
 62
     1
 10
2378.4039419999999
 20
-727.389546
 30
0.0
 11
2378.4039419999999
 21
-428.389546
 31
0.0
  0
LINE
  5
382
  8
LAYER01
  6
CONTINUOUS
 62
     1
 10
2478.783942
 20
-428.389546
 30
0.0
 11
2478.783942
 21
-727.389546
 31
0.0
  0
TEXT
  5
383
  8
LAYER01
  6
CONTINUOUS
 62
     1
 10
2230.6510469999998
 20
-714.389546
 30
0.0
 40
12.35
  1
Änderung
  7
SIMPLEX
  0
TEXT
  5
384
  8
LAYER01
  6
CONTINUOUS
 62
     1
 10
2396.6943299999998
 20
-714.389546
 30
0.0
 40
12.35
  1
Datum
  7
SIMPLEX
  0
TEXT
  5
385
  8
LAYER01
  6
CONTINUOUS
 62
     1
 10
2483.677017
 20
-714.389546
 30
0.0
 40
12.35
  1
Name
  7
SIMPLEX
  0
LINE
  5
386
  8
LAYER01
  6
CONTINUOUS
 62
     1
 10
3583.783942
 20
-343.889546
 30
0.0
 11
2894.783942
 21
-343.889546
 31
0.0
  0
LINE
  5
387
  8
LAYER01
  6
CONTINUOUS
 62
     1
 10
2621.783942
 20
-558.38954599999988
 30
0.0
 11
2621.783942
 21
-428.389546
 31
0.0
  0
TEXT
  5
388
  8
LAYER01
  6
CONTINUOUS
 62
     1
 10
2550.283942
 20
-486.889546
 30
0.0
 40
13.0
  1
Bearb.
  7
SIMPLEX
  0
TEXT
  5
389
  8
LAYER01
  6
CONTINUOUS
 62
     1
 10
2550.283942
 20
-551.889546
 30
0.0
 40
13.0
  1
Norm
  7
SIMPLEX
  0
TEXT
  5
38A
  8
LAYER01
  6
CONTINUOUS
 62
     1
 10
2550.283942
 20
-519.389546
 30
0.0
 40
13.0
  1
Gepr.
  7
SIMPLEX
  0
TEXT
  5
38B
  8
LAYER01
  6
CONTINUOUS
 62
     1
 10
2654.283942
 20
-454.38954599999988
 30
0.0
 40
13.0
  1
Datum
  7
SIMPLEX
  0
TEXT
  5
38C
  8
LAYER01
  6
CONTINUOUS
 62
     1
 10
2784.283942
 20
-454.38954599999988
 30
0.0
 40
13.0
  1
Name
  7
SIMPLEX
  0
TEXT
  5
38D
  8
LAYER01
  6
CONTINUOUS
 62
     1
 10
3551.283942
 20
-681.889546
 30
0.0
 40
13.0
  1
Bl.
  7
SIMPLEX
  0
LINE
  5
38E
  8
LAYER01
  6
CONTINUOUS
 62
     1
 10
2894.783942
 20
-727.389546
 30
0.0
 11
2894.783942
 21
-291.889546
 31
0.0
  0
LINE
  5
38F
  8
LAYER01
  6
CONTINUOUS
 62
     1
 10
2745.283942
 20
-590.889546
 30
0.0
 11
2745.283942
 21
-291.889546
 31
0.0
  0
LINE
  5
390
  8
LAYER01
  6
CONTINUOUS
 62
     1
 10
3304.283942
 20
-291.889546
 30
0.0
 11
3304.283942
 21
-343.889546
 31
0.0
  0
TEXT
  5
391
  8
LAYER01
  6
CONTINUOUS
 62
     1
 10
2908.9461409999999
 20
-325.07854900000001
 30
0.0
 40
13.0
  1
Maßstab
  7
SIMPLEX
  0
LINE
  5
392
  8
LAYER01
  6
CONTINUOUS
 62
     1
 10
3486.283942
 20
-590.889546
 30
0.0
 11
3486.283942
 21
-688.38954599999988
 31
0.0
  0
LINE
  5
393
  8
LAYER01
  6
CONTINUOUS
 62
     1
 10
3486.283942
 20
-655.889546
 30
0.0
 11
3583.783942
 21
-655.889546
 31
0.0
  0
ENDBLK
  5
394
  8
0
  0
BLOCK
  8
0
  2
TRIGO-G4
 70
     0
 10
0.0
 20
0.0
 30
0.0
  3
TRIGO-G4
  1

  0
ENDBLK
  5
397
  8
0
  0
BLOCK
  8
0
  2
TRIGO-G6
 70
     0
 10
0.0
 20
0.0
 30
0.0
  3
TRIGO-G6
  1

  0
TEXT
  5
39A
  8
LAYER01
  6
VERDECKT
 62
     1
 10
-4349.5137169999989
 20
-311.285303
 30
0.0
 40
13.0
  1
A. Sprenger GmbH
  7
SIMPLEX
  0
TEXT
  5
39B
  8
LAYER01
  6
VERDECKT
 62
     1
 10
-4349.5137169999989
 20
-333.57101699999998
 30
0.0
 40
13.0
  1
Berner Str. 10
  7
SIMPLEX
  0
TEXT
  5
39C
  8
LAYER01
  6
VERDECKT
 62
     1
 10
-4349.5137169999989
 20
-355.85673100000002
 30
0.0
 40
13.0
  1
60437 Frankfurt
  7
SIMPLEX
  0
TEXT
  5
39D
  8
LAYER01
  6
VERDECKT
 62
     1
 10
-4349.5137169999989
 20
-378.14244500000001
 30
0.0
 40
13.0
  1
Tel.: 069 - 507 27 41
  7
SIMPLEX
  0
TEXT
  5
39E
  8
LAYER01
  6
VERDECKT
 62
     1
 10
-4349.5137169999989
 20
-400.42815999999988
 30
0.0
 40
13.0
  1
Fax: 069 - 507 72 91
  7
SIMPLEX
  0
TEXT
  5
39F
  8
LAYER01
  6
VERDECKT
 62
     1
 10
-4349.5137169999989
 20
-422.71387399999998
 30
0.0
 40
13.0
  1
info@varicor.org
  7
SIMPLEX
  0
ENDBLK
  5
3A0
  8
0
  0
BLOCK
  8
0
  2
TRIGO-G5
 70
     0
 10
0.0
 20
0.0
 30
0.0
  3
TRIGO-G5
  1

  0
TEXT
  5
3A3
  8
LAYER01
  6
CONTINUOUS
 62
     1
 10
-2983.4497259999998
 20
-616.88954599999988
 30
0.0
 40
13.0
  1
Blatt
  7
SIMPLEX
  0
LINE
  5
3A4
  8
LAYER01
  6
CONTINUOUS
 62
     1
 10
-4367.9497259999989
 20
-525.88954599999988
 30
0.0
 11
-3587.9497259999998
 21
-525.88954599999988
 31
0.0
  0
LINE
  5
3A5
  8
LAYER01
  6
CONTINUOUS
 62
     1
 10
-4367.9497259999989
 20
-558.38954599999988
 30
0.0
 11
-3587.9497259999998
 21
-558.38954599999988
 31
0.0
  0
LINE
  5
3A6
  8
LAYER01
  6
CONTINUOUS
 62
     1
 10
-4367.9497259999989
 20
-590.889546
 30
0.0
 11
-2898.9497260000012
 21
-590.889546
 31
0.0
  0
LINE
  5
3A7
  8
LAYER01
  6
CONTINUOUS
 62
     1
 10
-4367.9497259999989
 20
-688.38954599999988
 30
0.0
 11
-2898.9497260000012
 21
-688.38954599999988
 31
0.0
  0
LINE
  5
3A8
  8
LAYER01
  6
CONTINUOUS
 62
     1
 10
-4367.9497259999989
 20
-428.389546
 30
0.0
 11
-2898.9497260000012
 21
-428.389546
 31
0.0
  0
POLYLINE
  5
3A9
  8
LAYER01
  6
CONTINUOUS
 62
     1
 66
     1
 10
0.0
 20
0.0
 30
0.0
 70
     1
  0
VERTEX
  5
C9A
  8
LAYER01
  6
CONTINUOUS
 62
     1
 10
-4367.9497259999989
 20
-727.389546
 30
0.0
  0
VERTEX
  5
C9B
  8
LAYER01
  6
CONTINUOUS
 62
     1
 10
-4367.9497259999989
 20
-291.889546
 30
0.0
  0
VERTEX
  5
C9C
  8
LAYER01
  6
CONTINUOUS
 62
     1
 10
-2898.9497260000012
 20
-291.889546
 30
0.0
  0
VERTEX
  5
C9D
  8
LAYER01
  6
CONTINUOUS
 62
     1
 10
-2898.9497260000012
 20
-727.389546
 30
0.0
  0
SEQEND
  5
C9E
  8
LAYER01
  6
CONTINUOUS
 62
     1
  0
LINE
  5
3AF
  8
LAYER01
  6
CONTINUOUS
 62
     1
 10
-4367.9497259999989
 20
-460.889546
 30
0.0
 11
-3587.9497259999998
 21
-460.889546
 31
0.0
  0
LINE
  5
3B0
  8
LAYER01
  6
CONTINUOUS
 62
     1
 10
-4367.9497259999989
 20
-493.389546
 30
0.0
 11
-3587.9497259999998
 21
-493.389546
 31
0.0
  0
LINE
  5
3B1
  8
LAYER01
  6
CONTINUOUS
 62
     1
 10
-3945.4497259999998
 20
-291.889546
 30
0.0
 11
-3945.4497259999998
 21
-727.389546
 31
0.0
  0
INSERT
  5
3B2
  8
LAYER01
  2
TRIGO-G6
 10
0.0
 20
0.0
 30
0.0
  0
LINE
  5
3B3
  8
LAYER01
  6
CONTINUOUS
 62
     1
 10
-4367.9497259999989
 20
-655.889546
 30
0.0
 11
-3945.4497259999998
 21
-655.889546
 31
0.0
  0
LINE
  5
3B4
  8
LAYER01
  6
CONTINUOUS
 62
     1
 10
-4367.9497259999989
 20
-623.389546
 30
0.0
 11
-3945.4497259999998
 21
-623.389546
 31
0.0
  0
LINE
  5
3B5
  8
LAYER01
  6
CONTINUOUS
 62
     1
 10
-4309.4497259999989
 20
-428.389546
 30
0.0
 11
-4309.4497259999989
 21
-727.389546
 31
0.0
  0
TEXT
  5
3B6
  8
LAYER01
  6
CONTINUOUS
 62
     1
 10
-4357.0306819999996
 20
-714.389546
 30
0.0
 40
12.35
  1
Zust
  7
SIMPLEX
  0
LINE
  5
3B7
  8
LAYER01
  6
CONTINUOUS
 62
     1
 10
-4104.3297259999999
 20
-727.389546
 30
0.0
 11
-4104.3297259999999
 21
-428.389546
 31
0.0
  0
LINE
  5
3B8
  8
LAYER01
  6
CONTINUOUS
 62
     1
 10
-4003.9497259999998
 20
-428.389546
 30
0.0
 11
-4003.9497259999998
 21
-727.389546
 31
0.0
  0
TEXT
  5
3B9
  8
LAYER01
  6
CONTINUOUS
 62
     1
 10
-4252.0826209999996
 20
-714.389546
 30
0.0
 40
12.35
  1
Änderung
  7
SIMPLEX
  0
TEXT
  5
3BA
  8
LAYER01
  6
CONTINUOUS
 62
     1
 10
-4086.0393379999991
 20
-714.389546
 30
0.0
 40
12.35
  1
Datum
  7
SIMPLEX
  0
TEXT
  5
3BB
  8
LAYER01
  6
CONTINUOUS
 62
     1
 10
-3999.0566509999999
 20
-714.389546
 30
0.0
 40
12.35
  1
Name
  7
SIMPLEX
  0
LINE
  5
3BC
  8
LAYER01
  6
CONTINUOUS
 62
     1
 10
-2898.9497260000012
 20
-343.889546
 30
0.0
 11
-3587.9497259999998
 21
-343.889546
 31
0.0
  0
LINE
  5
3BD
  8
LAYER01
  6
CONTINUOUS
 62
     1
 10
-3860.9497259999998
 20
-558.38954599999988
 30
0.0
 11
-3860.9497259999998
 21
-428.389546
 31
0.0
  0
TEXT
  5
3BE
  8
LAYER01
  6
CONTINUOUS
 62
     1
 10
-3932.4497259999998
 20
-486.889546
 30
0.0
 40
13.0
  1
Bearb.
  7
SIMPLEX
  0
TEXT
  5
3BF
  8
LAYER01
  6
CONTINUOUS
 62
     1
 10
-3932.4497259999998
 20
-551.889546
 30
0.0
 40
13.0
  1
Norm
  7
SIMPLEX
  0
TEXT
  5
3C0
  8
LAYER01
  6
CONTINUOUS
 62
     1
 10
-3932.4497259999998
 20
-519.389546
 30
0.0
 40
13.0
  1
Gepr.
  7
SIMPLEX
  0
TEXT
  5
3C1
  8
LAYER01
  6
CONTINUOUS
 62
     1
 10
-3828.4497259999998
 20
-454.38954599999988
 30
0.0
 40
13.0
  1
Datum
  7
SIMPLEX
  0
TEXT
  5
3C2
  8
LAYER01
  6
CONTINUOUS
 62
     1
 10
-3698.4497259999998
 20
-454.38954599999988
 30
0.0
 40
13.0
  1
Name
  7
SIMPLEX
  0
TEXT
  5
3C3
  8
LAYER01
  6
CONTINUOUS
 62
     1
 10
-2931.4497259999998
 20
-681.889546
 30
0.0
 40
13.0
  1
Bl.
  7
SIMPLEX
  0
LINE
  5
3C4
  8
LAYER01
  6
CONTINUOUS
 62
     1
 10
-3587.9497259999998
 20
-727.389546
 30
0.0
 11
-3587.9497259999998
 21
-291.889546
 31
0.0
  0
LINE
  5
3C5
  8
LAYER01
  6
CONTINUOUS
 62
     1
 10
-3737.4497259999998
 20
-590.889546
 30
0.0
 11
-3737.4497259999998
 21
-291.889546
 31
0.0
  0
LINE
  5
3C6
  8
LAYER01
  6
CONTINUOUS
 62
     1
 10
-3178.4497259999998
 20
-291.889546
 30
0.0
 11
-3178.4497259999998
 21
-343.889546
 31
0.0
  0
TEXT
  5
3C7
  8
LAYER01
  6
CONTINUOUS
 62
     1
 10
-3573.787527
 20
-325.07854900000001
 30
0.0
 40
13.0
  1
Maßstab
  7
SIMPLEX
  0
LINE
  5
3C8
  8
LAYER01
  6
CONTINUOUS
 62
     1
 10
-2996.4497259999998
 20
-590.889546
 30
0.0
 11
-2996.4497259999998
 21
-688.38954599999988
 31
0.0
  0
LINE
  5
3C9
  8
LAYER01
  6
CONTINUOUS
 62
     1
 10
-2996.4497259999998
 20
-655.889546
 30
0.0
 11
-2898.9497260000012
 21
-655.889546
 31
0.0
  0
ENDBLK
  5
3CA
  8
0
  0
BLOCK
  8
0
  2
TRIGO-G7
 70
     0
 10
0.0
 20
0.0
 30
0.0
  3
TRIGO-G7
  1

  0
ENDBLK
  5
3CD
  8
0
  0
BLOCK
  8
0
  2
*D7
 70
     1
 10
0.0
 20
0.0
 30
0.0
  3
*D7
  1

  0
LINE
  5
3D0
  8
LAYER01
 62
     5
 10
-5527.8394820000003
 20
-692.74522899999988
 30
0.0
 11
-5190.782389
 21
-692.74522899999988
 31
0.0
  0
LINE
  5
3D1
  8
LAYER01
 62
     5
 10
-5527.8394820000003
 20
-556.09723799999995
 30
0.0
 11
-5527.8394820000003
 21
-707.74522899999999
 31
0.0
  0
LINE
  5
3D2
  8
LAYER01
 62
     5
 10
-5190.782389
 20
-556.09723799999995
 30
0.0
 11
-5190.782389
 21
-707.74522899999999
 31
0.0
  0
SOLID
  5
3D3
  8
LAYER01
 62
     5
 10
-5503.8394820000003
 20
-696.74506899999994
 30
0.0
 11
-5527.8394820000003
 21
-692.74522899999988
 31
0.0
 12
-5503.8394820000003
 22
-688.74538899999993
 32
0.0
 13
-5503.8394820000003
 23
-688.74538899999993
 33
0.0
  0
SOLID
  5
3D4
  8
LAYER01
 62
     5
 10
-5214.7823889999991
 20
-696.74506899999994
 30
0.0
 11
-5190.782389
 21
-692.74522899999988
 31
0.0
 12
-5214.7823889999991
 22
-688.74538899999993
 32
0.0
 13
-5214.7823889999991
 23
-688.74538899999993
 33
0.0
  0
TEXT
  5
3D5
  8
LAYER01
  6
CONTINUOUS
 62
     5
 10
-5399.3109359999999
 20
-677.74522899999999
 30
0.0
 40
30.0
  1
335
  0
POINT
  5
3D6
  8
LAYER01
 62
     5
 10
-5527.8394820000003
 20
-544.09723799999995
 30
0.0
  0
POINT
  5
3D7
  8
LAYER01
 62
     5
 10
-5190.782389
 20
-544.09723799999995
 30
0.0
  0
POINT
  5
3D8
  8
LAYER01
 62
     5
 10
-5190.782389
 20
-692.74522899999988
 30
0.0
  0
ENDBLK
  5
3D9
  8
0
  0
BLOCK
  8
0
  2
*D8
 70
     1
 10
0.0
 20
0.0
 30
0.0
  3
*D8
  1

  0
LINE
  5
3DC
  8
LAYER01
 62
     7
 10
-5249.4749320000001
 20
-32.139136999999998
 30
0.0
 11
-5749.4749320000001
 21
-32.139136999999998
 31
0.0
  0
LINE
  5
3DD
  8
LAYER01
 62
     7
 10
-5249.4749320000001
 20
84.190234000000004
 30
0.0
 11
-5249.4749320000001
 21
-47.139136999999991
 31
0.0
  0
LINE
  5
3DE
  8
LAYER01
 62
     7
 10
-5749.4749320000001
 20
84.190234000000004
 30
0.0
 11
-5749.4749320000001
 21
-47.139136999999991
 31
0.0
  0
SOLID
  5
3DF
  8
LAYER01
 62
     7
 10
-5273.4749320000001
 20
-28.139296999999999
 30
0.0
 11
-5249.4749320000001
 21
-32.139136999999998
 31
0.0
 12
-5273.4749320000001
 22
-36.138977000000011
 32
0.0
 13
-5273.4749320000001
 23
-36.138977000000011
 33
0.0
  0
SOLID
  5
3E0
  8
LAYER01
 62
     7
 10
-5725.4749320000001
 20
-28.139296999999999
 30
0.0
 11
-5749.4749320000001
 21
-32.139136999999998
 31
0.0
 12
-5725.4749320000001
 22
-36.138977000000011
 32
0.0
 13
-5725.4749320000001
 23
-36.138977000000011
 33
0.0
  0
TEXT
  5
3E1
  8
LAYER01
  6
CONTINUOUS
 62
     7
 10
-5534.474932000001
 20
-17.139137000000002
 30
0.0
 40
30.0
  1
500
  0
POINT
  5
3E2
  8
LAYER01
 62
     7
 10
-5249.4749320000001
 20
96.190234000000004
 30
0.0
  0
POINT
  5
3E3
  8
LAYER01
 62
     7
 10
-5749.4749320000001
 20
96.190234000000004
 30
0.0
  0
POINT
  5
3E4
  8
LAYER01
 62
     7
 10
-5749.4749320000001
 20
-32.139136999999998
 30
0.0
  0
ENDBLK
  5
3E5
  8
0
  0
BLOCK
  8
0
  2
*D9
 70
     1
 10
0.0
 20
0.0
 30
0.0
  3
*D9
  1

  0
LINE
  5
3E8
  8
LAYER01
 62
     7
 10
-5805.5086890000002
 20
-395.097238
 30
0.0
 11
-5805.5086890000002
 21
-486.16563300000001
 31
0.0
  0
LINE
  5
3E9
  8
LAYER01
 62
     7
 10
-5729.2709679999998
 20
-395.097238
 30
0.0
 11
-5820.5086890000002
 21
-395.097238
 31
0.0
  0
LINE
  5
3EA
  8
LAYER01
 62
     7
 10
-5729.2709679999998
 20
-486.16563300000001
 30
0.0
 11
-5820.5086890000002
 21
-486.16563300000001
 31
0.0
  0
SOLID
  5
3EB
  8
LAYER01
 62
     7
 10
-5809.5085289999997
 20
-419.09723799999989
 30
0.0
 11
-5805.5086890000002
 21
-395.097238
 31
0.0
 12
-5801.5088489999998
 22
-419.09723799999989
 32
0.0
 13
-5801.5088489999998
 23
-419.09723799999989
 33
0.0
  0
SOLID
  5
3EC
  8
LAYER01
 62
     7
 10
-5809.5085289999997
 20
-462.16563300000001
 30
0.0
 11
-5805.5086890000002
 21
-486.16563300000001
 31
0.0
 12
-5801.5088489999998
 22
-462.16563300000001
 32
0.0
 13
-5801.5088489999998
 23
-462.16563300000001
 33
0.0
  0
TEXT
  5
3ED
  8
LAYER01
  6
CONTINUOUS
 62
     7
 10
-5820.5086890000002
 20
-460.6314349999999
 30
0.0
 40
30.0
  1
91
 50
90.0
  0
POINT
  5
3EE
  8
LAYER01
 62
     7
 10
-5717.2709679999998
 20
-395.097238
 30
0.0
  0
POINT
  5
3EF
  8
LAYER01
 62
     7
 10
-5717.2709679999998
 20
-486.16563300000001
 30
0.0
  0
POINT
  5
3F0
  8
LAYER01
 62
     7
 10
-5805.5086890000002
 20
-486.16563300000001
 30
0.0
  0
ENDBLK
  5
3F1
  8
0
  0
BLOCK
  8
0
  2
*D10
 70
     1
 10
0.0
 20
0.0
 30
0.0
  3
*D10
  1

  0
LINE
  5
3F4
  8
LAYER01
 62
     7
 10
-5746.4460319999998
 20
-365.097238
 30
0.0
 11
-5746.4460319999998
 21
-317.097238
 31
0.0
  0
LINE
  5
3F5
  8
LAYER01
 62
     7
 10
-5746.4460319999998
 20
-395.097238
 30
0.0
 11
-5746.4460319999998
 21
-443.097238
 31
0.0
  0
LINE
  5
3F6
  8
LAYER01
 62
     7
 10
-5729.2709679999998
 20
-365.097238
 30
0.0
 11
-5761.4460319999998
 21
-365.097238
 31
0.0
  0
LINE
  5
3F7
  8
LAYER01
 62
     7
 10
-5729.2709679999998
 20
-395.097238
 30
0.0
 11
-5761.4460319999998
 21
-395.097238
 31
0.0
  0
SOLID
  5
3F8
  8
LAYER01
 62
     7
 10
-5750.4458720000002
 20
-341.097238
 30
0.0
 11
-5746.4460319999998
 21
-365.097238
 31
0.0
 12
-5742.4461920000003
 22
-341.097238
 32
0.0
 13
-5742.4461920000003
 23
-341.097238
 33
0.0
  0
SOLID
  5
3F9
  8
LAYER01
 62
     7
 10
-5750.4458720000002
 20
-419.09723799999989
 30
0.0
 11
-5746.4460319999998
 21
-395.097238
 31
0.0
 12
-5742.4461920000003
 22
-419.09723799999989
 32
0.0
 13
-5742.4461920000003
 23
-419.09723799999989
 33
0.0
  0
TEXT
  5
3FA
  8
LAYER01
  6
CONTINUOUS
 62
     7
 10
-5761.4460319999998
 20
-302.097238
 30
0.0
 40
30.0
  1
30
 50
90.0
  0
POINT
  5
3FB
  8
LAYER01
 62
     7
 10
-5717.2709679999998
 20
-365.097238
 30
0.0
  0
POINT
  5
3FC
  8
LAYER01
 62
     7
 10
-5717.2709679999998
 20
-395.097238
 30
0.0
  0
POINT
  5
3FD
  8
LAYER01
 62
     7
 10
-5746.4460319999998
 20
-395.097238
 30
0.0
  0
ENDBLK
  5
3FE
  8
0
  0
BLOCK
  8
0
  2
*D11
 70
     1
 10
0.0
 20
0.0
 30
0.0
  3
*D11
  1

  0
LINE
  5
401
  8
LAYER01
 62
     7
 10
-5114.5987889999997
 20
-395.227576
 30
0.0
 11
-5114.5987889999997
 21
-495.227576
 31
0.0
  0
LINE
  5
402
  8
LAYER01
 62
     7
 10
-5178.782389
 20
-395.227576
 30
0.0
 11
-5099.5987889999988
 21
-395.227576
 31
0.0
  0
LINE
  5
403
  8
LAYER01
 62
     7
 10
-5178.782389
 20
-495.227576
 30
0.0
 11
-5099.5987889999988
 21
-495.227576
 31
0.0
  0
SOLID
  5
404
  8
LAYER01
 62
     7
 10
-5118.5986290000001
 20
-419.227576
 30
0.0
 11
-5114.5987889999997
 21
-395.227576
 31
0.0
 12
-5110.5989490000002
 22
-419.227576
 32
0.0
 13
-5110.5989490000002
 23
-419.227576
 33
0.0
  0
SOLID
  5
405
  8
LAYER01
 62
     7
 10
-5118.5986290000001
 20
-471.22757599999989
 30
0.0
 11
-5114.5987889999997
 21
-495.227576
 31
0.0
 12
-5110.5989490000002
 22
-471.22757599999989
 32
0.0
 13
-5110.5989490000002
 23
-471.22757599999989
 33
0.0
  0
TEXT
  5
406
  8
LAYER01
  6
CONTINUOUS
 62
     7
 10
-5129.5987889999997
 20
-475.22757599999989
 30
0.0
 40
30.0
  1
100
 50
90.0
  0
POINT
  5
407
  8
LAYER01
 62
     7
 10
-5190.782389
 20
-395.227576
 30
0.0
  0
POINT
  5
408
  8
LAYER01
 62
     7
 10
-5190.782389
 20
-495.227576
 30
0.0
  0
POINT
  5
409
  8
LAYER01
 62
     7
 10
-5114.5987889999997
 20
-495.227576
 30
0.0
  0
ENDBLK
  5
40A
  8
0
  0
BLOCK
  8
0
  2
*D12
 70
     1
 10
0.0
 20
0.0
 30
0.0
  3
*D12
  1

  0
LINE
  5
40D
  8
LAYER01
 62
     7
 10
-6153.8439390000012
 20
-119.472126
 30
0.0
 11
-6153.8439390000012
 21
-167.472126
 31
0.0
  0
LINE
  5
40E
  8
LAYER01
 62
     7
 10
-6153.8439390000012
 20
-89.472126000000003
 30
0.0
 11
-6153.8439390000012
 21
-41.472126000000003
 31
0.0
  0
LINE
  5
40F
  8
LAYER01
 62
     7
 10
-6011.4289119999994
 20
-119.472126
 30
0.0
 11
-6168.8439390000012
 21
-119.472126
 31
0.0
  0
LINE
  5
410
  8
LAYER01
 62
     7
 10
-6011.4289119999994
 20
-89.472126000000003
 30
0.0
 11
-6168.8439390000012
 21
-89.472126000000003
 31
0.0
  0
SOLID
  5
411
  8
LAYER01
 62
     7
 10
-6149.8440989999999
 20
-143.472126
 30
0.0
 11
-6153.8439390000012
 21
-119.472126
 31
0.0
 12
-6157.8437789999998
 22
-143.472126
 32
0.0
 13
-6157.8437789999998
 23
-143.472126
 33
0.0
  0
SOLID
  5
412
  8
LAYER01
 62
     7
 10
-6149.8440989999999
 20
-65.472126000000003
 30
0.0
 11
-6153.8439390000012
 21
-89.472126000000003
 31
0.0
 12
-6157.8437789999998
 22
-65.472126000000003
 32
0.0
 13
-6157.8437789999998
 23
-65.472126000000003
 33
0.0
  0
TEXT
  5
413
  8
LAYER01
  6
CONTINUOUS
 62
     7
 10
-6168.8439390000012
 20
-26.472125999999999
 30
0.0
 40
30.0
  1
30
 50
90.0
  0
POINT
  5
414
  8
LAYER01
 62
     7
 10
-5999.4289119999994
 20
-119.472126
 30
0.0
  0
POINT
  5
415
  8
LAYER01
 62
     7
 10
-5999.4289119999994
 20
-89.472126000000003
 30
0.0
  0
POINT
  5
416
  8
LAYER01
 62
     7
 10
-6153.8439390000012
 20
-89.472126000000003
 30
0.0
  0
ENDBLK
  5
417
  8
0
  0
BLOCK
  8
0
  2
*D13
 70
     1
 10
0.0
 20
0.0
 30
0.0
  3
*D13
  1

  0
LINE
  5
41A
  8
LAYER01
 62
     7
 10
-6058.4789769999998
 20
-219.472126
 30
0.0
 11
-6058.4789769999998
 21
-119.472126
 31
0.0
  0
LINE
  5
41B
  8
LAYER01
 62
     7
 10
-6011.4289119999994
 20
-219.472126
 30
0.0
 11
-6073.4789769999998
 21
-219.472126
 31
0.0
  0
LINE
  5
41C
  8
LAYER01
 62
     7
 10
-6011.4289119999994
 20
-119.472126
 30
0.0
 11
-6073.4789769999998
 21
-119.472126
 31
0.0
  0
SOLID
  5
41D
  8
LAYER01
 62
     7
 10
-6054.4791369999994
 20
-195.472126
 30
0.0
 11
-6058.4789769999998
 21
-219.472126
 31
0.0
 12
-6062.4788170000002
 22
-195.472126
 32
0.0
 13
-6062.4788170000002
 23
-195.472126
 33
0.0
  0
SOLID
  5
41E
  8
LAYER01
 62
     7
 10
-6054.4791369999994
 20
-143.472126
 30
0.0
 11
-6058.4789769999998
 21
-119.472126
 31
0.0
 12
-6062.4788170000002
 22
-143.472126
 32
0.0
 13
-6062.4788170000002
 23
-143.472126
 33
0.0
  0
TEXT
  5
41F
  8
LAYER01
  6
CONTINUOUS
 62
     7
 10
-6073.4789769999998
 20
-199.472126
 30
0.0
 40
30.0
  1
100
 50
90.0
  0
POINT
  5
420
  8
LAYER01
 62
     7
 10
-5999.4289119999994
 20
-219.472126
 30
0.0
  0
POINT
  5
421
  8
LAYER01
 62
     7
 10
-5999.4289119999994
 20
-119.472126
 30
0.0
  0
POINT
  5
422
  8
LAYER01
 62
     7
 10
-6058.4789769999998
 20
-119.472126
 30
0.0
  0
ENDBLK
  5
423
  8
0
  0
BLOCK
  8
0
  2
*D14
 70
     1
 10
0.0
 20
0.0
 30
0.0
  3
*D14
  1

  0
LINE
  5
426
  8
LAYER01
 62
     7
 10
-6203.8327439999994
 20
95.310796999999994
 30
0.0
 11
-6203.8327439999994
 21
615.31079699999987
 31
0.0
  0
LINE
  5
427
  8
LAYER01
 62
     7
 10
-6011.4289119999994
 20
95.310796999999994
 30
0.0
 11
-6218.8327440000003
 21
95.310796999999994
 31
0.0
  0
LINE
  5
428
  8
LAYER01
 62
     7
 10
-6011.4289119999994
 20
615.31079699999987
 30
0.0
 11
-6218.8327440000003
 21
615.31079699999987
 31
0.0
  0
SOLID
  5
429
  8
LAYER01
 62
     7
 10
-6199.8329039999999
 20
119.31079699999999
 30
0.0
 11
-6203.8327439999994
 21
95.310796999999994
 31
0.0
 12
-6207.8325840000007
 22
119.31079699999999
 32
0.0
 13
-6207.8325840000007
 23
119.31079699999999
 33
0.0
  0
SOLID
  5
42A
  8
LAYER01
 62
     7
 10
-6199.8329039999999
 20
591.31079699999987
 30
0.0
 11
-6203.8327439999994
 21
615.31079699999987
 31
0.0
 12
-6207.8325840000007
 22
591.31079699999987
 32
0.0
 13
-6207.8325840000007
 23
591.31079699999987
 33
0.0
  0
TEXT
  5
42B
  8
LAYER01
  6
CONTINUOUS
 62
     7
 10
-6218.8327440000003
 20
317.81079700000009
 30
0.0
 40
30.0
  1
520
 50
90.0
  0
POINT
  5
42C
  8
LAYER01
 62
     7
 10
-5999.4289119999994
 20
95.310796999999994
 30
0.0
  0
POINT
  5
42D
  8
LAYER01
 62
     7
 10
-5999.4289119999994
 20
615.31079699999987
 30
0.0
  0
POINT
  5
42E
  8
LAYER01
 62
     7
 10
-6203.8327439999994
 20
615.31079699999987
 30
0.0
  0
ENDBLK
  5
42F
  8
0
  0
BLOCK
  8
0
  2
*D15
 70
     1
 10
0.0
 20
0.0
 30
0.0
  3
*D15
  1

  0
LINE
  5
432
  8
LAYER01
 62
     7
 10
-6117.2545959999998
 20
95.310796999999994
 30
0.0
 11
-6117.2545959999998
 21
495.31079699999992
 31
0.0
  0
LINE
  5
433
  8
LAYER01
 62
     7
 10
-6011.4289119999994
 20
95.310796999999994
 30
0.0
 11
-6132.2545959999998
 21
95.310796999999994
 31
0.0
  0
LINE
  5
434
  8
LAYER01
 62
     7
 10
-6011.4289119999994
 20
495.31079699999992
 30
0.0
 11
-6132.2545959999998
 21
495.31079699999992
 31
0.0
  0
SOLID
  5
435
  8
LAYER01
 62
     7
 10
-6113.2547560000003
 20
119.31079699999999
 30
0.0
 11
-6117.2545959999998
 21
95.310796999999994
 31
0.0
 12
-6121.2544360000002
 22
119.31079699999999
 32
0.0
 13
-6121.2544360000002
 23
119.31079699999999
 33
0.0
  0
SOLID
  5
436
  8
LAYER01
 62
     7
 10
-6113.2547560000003
 20
471.31079699999998
 30
0.0
 11
-6117.2545959999998
 21
495.31079699999992
 31
0.0
 12
-6121.2544360000002
 22
471.31079699999998
 32
0.0
 13
-6121.2544360000002
 23
471.31079699999998
 33
0.0
  0
TEXT
  5
437
  8
LAYER01
  6
CONTINUOUS
 62
     7
 10
-6132.2545959999998
 20
260.31079699999998
 30
0.0
 40
30.0
  1
400
 50
90.0
  0
POINT
  5
438
  8
LAYER01
 62
     7
 10
-5999.4289119999994
 20
95.310796999999994
 30
0.0
  0
POINT
  5
439
  8
LAYER01
 62
     7
 10
-5999.4289119999994
 20
495.31079699999992
 30
0.0
  0
POINT
  5
43A
  8
LAYER01
 62
     7
 10
-6117.2545959999998
 20
495.31079699999992
 30
0.0
  0
ENDBLK
  5
43B
  8
0
  0
BLOCK
  8
0
  2
*D16
 70
     1
 10
0.0
 20
0.0
 30
0.0
  3
*D16
  1

  0
LINE
  5
43E
  8
LAYER01
 62
     7
 10
-6069.0750840000001
 20
544.98018699999989
 30
0.0
 11
-6069.0750840000001
 21
615.31079699999987
 31
0.0
  0
LINE
  5
43F
  8
LAYER01
 62
     7
 10
-6011.4289119999994
 20
544.98018699999989
 30
0.0
 11
-6084.0750840000001
 21
544.98018699999989
 31
0.0
  0
LINE
  5
440
  8
LAYER01
 62
     7
 10
-6011.4289119999994
 20
615.31079699999987
 30
0.0
 11
-6084.0750840000001
 21
615.31079699999987
 31
0.0
  0
SOLID
  5
441
  8
LAYER01
 62
     7
 10
-6065.0752439999987
 20
568.980187
 30
0.0
 11
-6069.0750840000001
 21
544.98018699999989
 31
0.0
 12
-6073.0749240000014
 22
568.980187
 32
0.0
 13
-6073.0749240000014
 23
568.980187
 33
0.0
  0
SOLID
  5
442
  8
LAYER01
 62
     7
 10
-6065.0752439999987
 20
591.31079699999987
 30
0.0
 11
-6069.0750840000001
 21
615.31079699999987
 31
0.0
 12
-6073.0749240000014
 22
591.31079699999987
 32
0.0
 13
-6073.0749240000014
 23
591.31079699999987
 33
0.0
  0
TEXT
  5
443
  8
LAYER01
  6
CONTINUOUS
 62
     7
 10
-6084.0750840000001
 20
557.64549199999988
 30
0.0
 40
30.0
  1
70
 50
90.0
  0
POINT
  5
444
  8
LAYER01
 62
     7
 10
-5999.4289119999994
 20
544.98018699999989
 30
0.0
  0
POINT
  5
445
  8
LAYER01
 62
     7
 10
-5999.4289119999994
 20
615.31079699999987
 30
0.0
  0
POINT
  5
446
  8
LAYER01
 62
     7
 10
-6069.0750840000001
 20
615.31079699999987
 30
0.0
  0
ENDBLK
  5
447
  8
0
  0
BLOCK
  8
0
  2
*D17
 70
     1
 10
0.0
 20
0.0
 30
0.0
  3
*D17
  1

  0
LINE
  5
44A
  8
LAYER01
 62
     7
 10
-4999.4289119999994
 20
731.63536099999999
 30
0.0
 11
-5499.4289119999994
 21
731.63536099999999
 31
0.0
  0
LINE
  5
44B
  8
LAYER01
 62
     7
 10
-4999.4289119999994
 20
627.31079699999987
 30
0.0
 11
-4999.4289119999994
 21
746.63536099999988
 31
0.0
  0
LINE
  5
44C
  8
LAYER01
 62
     7
 10
-5499.4289119999994
 20
627.31079699999987
 30
0.0
 11
-5499.4289119999994
 21
746.63536099999988
 31
0.0
  0
SOLID
  5
44D
  8
LAYER01
 62
     7
 10
-5023.4289119999994
 20
735.63520099999994
 30
0.0
 11
-4999.4289119999994
 21
731.63536099999999
 31
0.0
 12
-5023.4289119999994
 22
727.63552100000004
 32
0.0
 13
-5023.4289119999994
 23
727.63552100000004
 33
0.0
  0
SOLID
  5
44E
  8
LAYER01
 62
     7
 10
-5475.4289119999994
 20
735.63520099999994
 30
0.0
 11
-5499.4289119999994
 21
731.63536099999999
 31
0.0
 12
-5475.4289119999994
 22
727.63552100000004
 32
0.0
 13
-5475.4289119999994
 23
727.63552100000004
 33
0.0
  0
TEXT
  5
44F
  8
LAYER01
  6
CONTINUOUS
 62
     7
 10
-5284.4289119999994
 20
746.63536099999988
 30
0.0
 40
30.0
  1
500
  0
POINT
  5
450
  8
LAYER01
 62
     7
 10
-4999.4289119999994
 20
615.31079699999987
 30
0.0
  0
POINT
  5
451
  8
LAYER01
 62
     7
 10
-5499.4289119999994
 20
615.31079699999987
 30
0.0
  0
POINT
  5
452
  8
LAYER01
 62
     7
 10
-5499.4289119999994
 20
731.63536099999999
 30
0.0
  0
ENDBLK
  5
453
  8
0
  0
BLOCK
  8
0
  2
*D18
 70
     1
 10
0.0
 20
0.0
 30
0.0
  3
*D18
  1

  0
LINE
  5
456
  8
LAYER01
 62
     7
 10
-5499.4289119999994
 20
731.63536099999999
 30
0.0
 11
-5999.4289119999994
 21
731.63536099999999
 31
0.0
  0
LINE
  5
457
  8
LAYER01
 62
     7
 10
-5499.4289119999994
 20
627.31079699999987
 30
0.0
 11
-5499.4289119999994
 21
746.63536099999988
 31
0.0
  0
LINE
  5
458
  8
LAYER01
 62
     7
 10
-5999.4289119999994
 20
627.31079699999987
 30
0.0
 11
-5999.4289119999994
 21
746.63536099999988
 31
0.0
  0
SOLID
  5
459
  8
LAYER01
 62
     7
 10
-5523.4289119999994
 20
735.63520099999994
 30
0.0
 11
-5499.4289119999994
 21
731.63536099999999
 31
0.0
 12
-5523.4289119999994
 22
727.63552100000004
 32
0.0
 13
-5523.4289119999994
 23
727.63552100000004
 33
0.0
  0
SOLID
  5
45A
  8
LAYER01
 62
     7
 10
-5975.4289119999994
 20
735.63520099999994
 30
0.0
 11
-5999.4289119999994
 21
731.63536099999999
 31
0.0
 12
-5975.4289119999994
 22
727.63552100000004
 32
0.0
 13
-5975.4289119999994
 23
727.63552100000004
 33
0.0
  0
TEXT
  5
45B
  8
LAYER01
  6
CONTINUOUS
 62
     7
 10
-5784.4289119999994
 20
746.63536099999988
 30
0.0
 40
30.0
  1
500
  0
POINT
  5
45C
  8
LAYER01
 62
     7
 10
-5499.4289119999994
 20
615.31079699999987
 30
0.0
  0
POINT
  5
45D
  8
LAYER01
 62
     7
 10
-5999.4289119999994
 20
615.31079699999987
 30
0.0
  0
POINT
  5
45E
  8
LAYER01
 62
     7
 10
-5999.4289119999994
 20
731.63536099999999
 30
0.0
  0
ENDBLK
  5
45F
  8
0
  0
BLOCK
  8
0
  2
*D19
 70
     1
 10
0.0
 20
0.0
 30
0.0
  3
*D19
  1

  0
LINE
  5
462
  8
LAYER01
 62
     7
 10
-4999.4289119999994
 20
843.218751
 30
0.0
 11
-5999.4289119999994
 21
843.218751
 31
0.0
  0
LINE
  5
463
  8
LAYER01
 62
     7
 10
-4999.4289119999994
 20
627.31079699999987
 30
0.0
 11
-4999.4289119999994
 21
858.218751
 31
0.0
  0
LINE
  5
464
  8
LAYER01
 62
     7
 10
-5999.4289119999994
 20
627.31079699999987
 30
0.0
 11
-5999.4289119999994
 21
858.218751
 31
0.0
  0
SOLID
  5
465
  8
LAYER01
 62
     7
 10
-5023.4289119999994
 20
847.21859099999995
 30
0.0
 11
-4999.4289119999994
 21
843.218751
 31
0.0
 12
-5023.4289119999994
 22
839.21891100000005
 32
0.0
 13
-5023.4289119999994
 23
839.21891100000005
 33
0.0
  0
SOLID
  5
466
  8
LAYER01
 62
     7
 10
-5975.4289119999994
 20
847.21859099999995
 30
0.0
 11
-5999.4289119999994
 21
843.218751
 31
0.0
 12
-5975.4289119999994
 22
839.21891100000005
 32
0.0
 13
-5975.4289119999994
 23
839.21891100000005
 33
0.0
  0
TEXT
  5
467
  8
LAYER01
  6
CONTINUOUS
 62
     7
 10
-5541.9289119999994
 20
858.218751
 30
0.0
 40
30.0
  1
1000
  0
POINT
  5
468
  8
LAYER01
 62
     7
 10
-4999.4289119999994
 20
615.31079699999987
 30
0.0
  0
POINT
  5
469
  8
LAYER01
 62
     7
 10
-5999.4289119999994
 20
615.31079699999987
 30
0.0
  0
POINT
  5
46A
  8
LAYER01
 62
     7
 10
-5999.4289119999994
 20
843.218751
 30
0.0
  0
ENDBLK
  5
46B
  8
0
  0
BLOCK
  8
0
  2
*D20
 70
     1
 10
0.0
 20
0.0
 30
0.0
  3
*D20
  1

  0
LINE
  5
46E
  8
LAYER01
 62
     7
 10
-5249.4749320000001
 20
1122.9371619999999
 30
0.0
 11
-5749.4749320000001
 21
1122.9371619999999
 31
0.0
  0
LINE
  5
46F
  8
LAYER01
 62
     7
 10
-5249.4749320000001
 20
1239.2665340000001
 30
0.0
 11
-5249.4749320000001
 21
1107.9371619999999
 31
0.0
  0
LINE
  5
470
  8
LAYER01
 62
     7
 10
-5749.4749320000001
 20
1239.2665340000001
 30
0.0
 11
-5749.4749320000001
 21
1107.9371619999999
 31
0.0
  0
SOLID
  5
471
  8
LAYER01
 62
     7
 10
-5273.4749320000001
 20
1126.9370019999999
 30
0.0
 11
-5249.4749320000001
 21
1122.9371619999999
 31
0.0
 12
-5273.4749320000001
 22
1118.937322
 32
0.0
 13
-5273.4749320000001
 23
1118.937322
 33
0.0
  0
SOLID
  5
472
  8
LAYER01
 62
     7
 10
-5725.4749320000001
 20
1126.9370019999999
 30
0.0
 11
-5749.4749320000001
 21
1122.9371619999999
 31
0.0
 12
-5725.4749320000001
 22
1118.937322
 32
0.0
 13
-5725.4749320000001
 23
1118.937322
 33
0.0
  0
TEXT
  5
473
  8
LAYER01
  6
CONTINUOUS
 62
     7
 10
-5534.474932000001
 20
1137.9371619999999
 30
0.0
 40
30.0
  1
500
  0
POINT
  5
474
  8
LAYER01
 62
     7
 10
-5249.4749320000001
 20
1251.2665340000001
 30
0.0
  0
POINT
  5
475
  8
LAYER01
 62
     7
 10
-5749.4749320000001
 20
1251.2665340000001
 30
0.0
  0
POINT
  5
476
  8
LAYER01
 62
     7
 10
-5749.4749320000001
 20
1122.9371619999999
 30
0.0
  0
ENDBLK
  5
477
  8
0
  0
BLOCK
  8
0
  2
*D21
 70
     1
 10
0.0
 20
0.0
 30
0.0
  3
*D21
  1

  0
LINE
  5
47A
  8
LAYER01
 62
     7
 10
-5099.4289120000003
 20
1903.7582070000001
 30
0.0
 11
-5899.4289120000003
 21
1903.7582070000001
 31
0.0
  0
LINE
  5
47B
  8
LAYER01
 62
     7
 10
-5099.4289120000003
 20
1804.416806
 30
0.0
 11
-5099.4289120000003
 21
1918.7582070000001
 31
0.0
  0
LINE
  5
47C
  8
LAYER01
 62
     7
 10
-5899.4289120000003
 20
1804.416806
 30
0.0
 11
-5899.4289120000003
 21
1918.7582070000001
 31
0.0
  0
SOLID
  5
47D
  8
LAYER01
 62
     7
 10
-5123.4289119999994
 20
1907.7580469999989
 30
0.0
 11
-5099.4289120000003
 21
1903.7582070000001
 31
0.0
 12
-5123.4289119999994
 22
1899.7583669999999
 32
0.0
 13
-5123.4289119999994
 23
1899.7583669999999
 33
0.0
  0
SOLID
  5
47E
  8
LAYER01
 62
     7
 10
-5875.4289120000003
 20
1907.7580469999989
 30
0.0
 11
-5899.4289120000003
 21
1903.7582070000001
 31
0.0
 12
-5875.4289120000003
 22
1899.7583669999999
 32
0.0
 13
-5875.4289120000003
 23
1899.7583669999999
 33
0.0
  0
TEXT
  5
47F
  8
LAYER01
  6
VERDECKT
 62
     7
 10
-5534.4289119999994
 20
1918.7582070000001
 30
0.0
 40
30.0
  1
800
  0
POINT
  5
480
  8
LAYER01
 62
     7
 10
-5099.4289120000003
 20
1792.416806
 30
0.0
  0
POINT
  5
481
  8
LAYER01
 62
     7
 10
-5899.4289120000003
 20
1792.416806
 30
0.0
  0
POINT
  5
482
  8
LAYER01
 62
     7
 10
-5899.4289120000003
 20
1903.7582070000001
 30
0.0
  0
ENDBLK
  5
483
  8
0
  0
BLOCK
  8
0
  2
*D22
 70
     1
 10
0.0
 20
0.0
 30
0.0
  3
*D22
  1

  0
LINE
  5
486
  8
LAYER01
 62
     7
 10
-5899.4289120000003
 20
1829.196111
 30
0.0
 11
-5499.4289119999994
 21
1829.196111
 31
0.0
  0
LINE
  5
487
  8
LAYER01
 62
     7
 10
-5899.4289120000003
 20
1804.416806
 30
0.0
 11
-5899.4289120000003
 21
1844.196111
 31
0.0
  0
LINE
  5
488
  8
LAYER01
 62
     7
 10
-5499.4289119999994
 20
1804.416806
 30
0.0
 11
-5499.4289119999994
 21
1844.196111
 31
0.0
  0
SOLID
  5
489
  8
LAYER01
 62
     7
 10
-5875.4289120000003
 20
1825.196271
 30
0.0
 11
-5899.4289120000003
 21
1829.196111
 31
0.0
 12
-5875.4289120000003
 22
1833.1959509999999
 32
0.0
 13
-5875.4289120000003
 23
1833.1959509999999
 33
0.0
  0
SOLID
  5
48A
  8
LAYER01
 62
     7
 10
-5523.4289119999994
 20
1825.196271
 30
0.0
 11
-5499.4289119999994
 21
1829.196111
 31
0.0
 12
-5523.4289119999994
 22
1833.1959509999999
 32
0.0
 13
-5523.4289119999994
 23
1833.1959509999999
 33
0.0
  0
TEXT
  5
48B
  8
LAYER01
  6
VERDECKT
 62
     7
 10
-5734.4289119999994
 20
1844.196111
 30
0.0
 40
30.0
  1
400
  0
POINT
  5
48C
  8
LAYER01
 62
     7
 10
-5899.4289120000003
 20
1792.416806
 30
0.0
  0
POINT
  5
48D
  8
LAYER01
 62
     7
 10
-5499.4289119999994
 20
1792.416806
 30
0.0
  0
POINT
  5
48E
  8
LAYER01
 62
     7
 10
-5499.4289119999994
 20
1829.196111
 30
0.0
  0
ENDBLK
  5
48F
  8
0
  0
BLOCK
  8
0
  2
*D23
 70
     1
 10
0.0
 20
0.0
 30
0.0
  3
*D23
  1

  0
LINE
  5
492
  8
LAYER01
 62
     7
 10
-5499.4289119999994
 20
1829.196111
 30
0.0
 11
-5099.4289120000003
 21
1829.196111
 31
0.0
  0
LINE
  5
493
  8
LAYER01
 62
     7
 10
-5499.4289119999994
 20
1804.416806
 30
0.0
 11
-5499.4289119999994
 21
1844.196111
 31
0.0
  0
LINE
  5
494
  8
LAYER01
 62
     7
 10
-5099.4289120000003
 20
1804.416806
 30
0.0
 11
-5099.4289120000003
 21
1844.196111
 31
0.0
  0
SOLID
  5
495
  8
LAYER01
 62
     7
 10
-5475.4289119999994
 20
1825.196271
 30
0.0
 11
-5499.4289119999994
 21
1829.196111
 31
0.0
 12
-5475.4289119999994
 22
1833.1959509999999
 32
0.0
 13
-5475.4289119999994
 23
1833.1959509999999
 33
0.0
  0
SOLID
  5
496
  8
LAYER01
 62
     7
 10
-5123.4289119999994
 20
1825.196271
 30
0.0
 11
-5099.4289120000003
 21
1829.196111
 31
0.0
 12
-5123.4289119999994
 22
1833.1959509999999
 32
0.0
 13
-5123.4289119999994
 23
1833.1959509999999
 33
0.0
  0
TEXT
  5
497
  8
LAYER01
  6
VERDECKT
 62
     7
 10
-5334.4289119999994
 20
1844.196111
 30
0.0
 40
30.0
  1
400
  0
POINT
  5
498
  8
LAYER01
 62
     7
 10
-5499.4289119999994
 20
1792.416806
 30
0.0
  0
POINT
  5
499
  8
LAYER01
 62
     7
 10
-5099.4289120000003
 20
1792.416806
 30
0.0
  0
POINT
  5
49A
  8
LAYER01
 62
     7
 10
-5099.4289120000003
 20
1829.196111
 30
0.0
  0
ENDBLK
  5
49B
  8
0
  0
BLOCK
  8
0
  2
*D24
 70
     1
 10
0.0
 20
0.0
 30
0.0
  3
*D24
  1

  0
LINE
  5
49E
  8
LAYER01
 62
     7
 10
-6053.8439390000003
 20
1035.6041729999999
 30
0.0
 11
-6053.8439390000003
 21
987.60417299999995
 31
0.0
  0
LINE
  5
49F
  8
LAYER01
 62
     7
 10
-6053.8439390000003
 20
1065.6041729999999
 30
0.0
 11
-6053.8439390000003
 21
1113.6041729999999
 31
0.0
  0
LINE
  5
4A0
  8
LAYER01
 62
     7
 10
-5911.4289119999994
 20
1035.6041729999999
 30
0.0
 11
-6068.8439390000003
 21
1035.6041729999999
 31
0.0
  0
LINE
  5
4A1
  8
LAYER01
 62
     7
 10
-5911.4289119999994
 20
1065.6041729999999
 30
0.0
 11
-6068.8439390000003
 21
1065.6041729999999
 31
0.0
  0
SOLID
  5
4A2
  8
LAYER01
 62
     7
 10
-6049.8440989999999
 20
1011.6041729999999
 30
0.0
 11
-6053.8439390000003
 21
1035.6041729999999
 31
0.0
 12
-6057.8437789999998
 22
1011.6041729999999
 32
0.0
 13
-6057.8437789999998
 23
1011.6041729999999
 33
0.0
  0
SOLID
  5
4A3
  8
LAYER01
 62
     7
 10
-6049.8440989999999
 20
1089.6041729999999
 30
0.0
 11
-6053.8439390000003
 21
1065.6041729999999
 31
0.0
 12
-6057.8437789999998
 22
1089.6041729999999
 32
0.0
 13
-6057.8437789999998
 23
1089.6041729999999
 33
0.0
  0
TEXT
  5
4A4
  8
LAYER01
  6
CONTINUOUS
 62
     7
 10
-6068.8439390000003
 20
1128.6041729999999
 30
0.0
 40
30.0
  1
30
 50
90.0
  0
POINT
  5
4A5
  8
LAYER01
 62
     7
 10
-5899.4289120000003
 20
1035.6041729999999
 30
0.0
  0
POINT
  5
4A6
  8
LAYER01
 62
     7
 10
-5899.4289120000003
 20
1065.6041729999999
 30
0.0
  0
POINT
  5
4A7
  8
LAYER01
 62
     7
 10
-6053.8439390000003
 20
1065.6041729999999
 30
0.0
  0
ENDBLK
  5
4A8
  8
0
  0
BLOCK
  8
0
  2
*D25
 70
     1
 10
0.0
 20
0.0
 30
0.0
  3
*D25
  1

  0
LINE
  5
4AB
  8
LAYER01
 62
     7
 10
-5958.4789770000007
 20
935.60417300000006
 30
0.0
 11
-5958.4789770000007
 21
1035.6041729999999
 31
0.0
  0
LINE
  5
4AC
  8
LAYER01
 62
     7
 10
-5911.4289119999994
 20
935.60417300000006
 30
0.0
 11
-5973.4789769999998
 21
935.60417300000006
 31
0.0
  0
LINE
  5
4AD
  8
LAYER01
 62
     7
 10
-5911.4289119999994
 20
1035.6041729999999
 30
0.0
 11
-5973.4789769999998
 21
1035.6041729999999
 31
0.0
  0
SOLID
  5
4AE
  8
LAYER01
 62
     7
 10
-5954.4791369999994
 20
959.60417300000006
 30
0.0
 11
-5958.4789770000007
 21
935.60417300000006
 31
0.0
 12
-5962.4788170000002
 22
959.60417300000006
 32
0.0
 13
-5962.4788170000002
 23
959.60417300000006
 33
0.0
  0
SOLID
  5
4AF
  8
LAYER01
 62
     7
 10
-5954.4791369999994
 20
1011.6041729999999
 30
0.0
 11
-5958.4789770000007
 21
1035.6041729999999
 31
0.0
 12
-5962.4788170000002
 22
1011.6041729999999
 32
0.0
 13
-5962.4788170000002
 23
1011.6041729999999
 33
0.0
  0
TEXT
  5
4B0
  8
LAYER01
  6
CONTINUOUS
 62
     7
 10
-5973.4789769999998
 20
955.60417299999995
 30
0.0
 40
30.0
  1
100
 50
90.0
  0
POINT
  5
4B1
  8
LAYER01
 62
     7
 10
-5899.4289120000003
 20
935.60417300000006
 30
0.0
  0
POINT
  5
4B2
  8
LAYER01
 62
     7
 10
-5899.4289120000003
 20
1035.6041729999999
 30
0.0
  0
POINT
  5
4B3
  8
LAYER01
 62
     7
 10
-5958.4789770000007
 20
1035.6041729999999
 30
0.0
  0
ENDBLK
  5
4B4
  8
0
  0
BLOCK
  8
0
  2
*D26
 70
     1
 10
0.0
 20
0.0
 30
0.0
  3
*D26
  1

  0
LINE
  5
4B7
  8
LAYER01
 62
     7
 10
-6103.8327439999994
 20
1250.3870959999999
 30
0.0
 11
-6103.8327439999994
 21
1770.3870959999999
 31
0.0
  0
LINE
  5
4B8
  8
LAYER01
 62
     7
 10
-5911.4289119999994
 20
1250.3870959999999
 30
0.0
 11
-6118.8327439999994
 21
1250.3870959999999
 31
0.0
  0
LINE
  5
4B9
  8
LAYER01
 62
     7
 10
-5911.4289119999994
 20
1770.3870959999999
 30
0.0
 11
-6118.8327439999994
 21
1770.3870959999999
 31
0.0
  0
SOLID
  5
4BA
  8
LAYER01
 62
     7
 10
-6099.8329039999999
 20
1274.3870959999999
 30
0.0
 11
-6103.8327439999994
 21
1250.3870959999999
 31
0.0
 12
-6107.8325839999998
 22
1274.3870959999999
 32
0.0
 13
-6107.8325839999998
 23
1274.3870959999999
 33
0.0
  0
SOLID
  5
4BB
  8
LAYER01
 62
     7
 10
-6099.8329039999999
 20
1746.3870959999999
 30
0.0
 11
-6103.8327439999994
 21
1770.3870959999999
 31
0.0
 12
-6107.8325839999998
 22
1746.3870959999999
 32
0.0
 13
-6107.8325839999998
 23
1746.3870959999999
 33
0.0
  0
TEXT
  5
4BC
  8
LAYER01
  6
CONTINUOUS
 62
     7
 10
-6118.8327439999994
 20
1472.8870959999999
 30
0.0
 40
30.0
  1
520
 50
90.0
  0
POINT
  5
4BD
  8
LAYER01
 62
     7
 10
-5899.4289120000003
 20
1250.3870959999999
 30
0.0
  0
POINT
  5
4BE
  8
LAYER01
 62
     7
 10
-5899.4289120000003
 20
1770.3870959999999
 30
0.0
  0
POINT
  5
4BF
  8
LAYER01
 62
     7
 10
-6103.8327439999994
 20
1770.3870959999999
 30
0.0
  0
ENDBLK
  5
4C0
  8
0
  0
BLOCK
  8
0
  2
*D27
 70
     1
 10
0.0
 20
0.0
 30
0.0
  3
*D27
  1

  0
LINE
  5
4C3
  8
LAYER01
 62
     7
 10
-6017.2545959999998
 20
1250.3870959999999
 30
0.0
 11
-6017.2545959999998
 21
1650.3870959999999
 31
0.0
  0
LINE
  5
4C4
  8
LAYER01
 62
     7
 10
-5911.4289119999994
 20
1250.3870959999999
 30
0.0
 11
-6032.2545959999998
 21
1250.3870959999999
 31
0.0
  0
LINE
  5
4C5
  8
LAYER01
 62
     7
 10
-5911.4289119999994
 20
1650.3870959999999
 30
0.0
 11
-6032.2545959999998
 21
1650.3870959999999
 31
0.0
  0
SOLID
  5
4C6
  8
LAYER01
 62
     7
 10
-6013.2547560000012
 20
1274.3870959999999
 30
0.0
 11
-6017.2545959999998
 21
1250.3870959999999
 31
0.0
 12
-6021.2544360000002
 22
1274.3870959999999
 32
0.0
 13
-6021.2544360000002
 23
1274.3870959999999
 33
0.0
  0
SOLID
  5
4C7
  8
LAYER01
 62
     7
 10
-6013.2547560000012
 20
1626.3870959999999
 30
0.0
 11
-6017.2545959999998
 21
1650.3870959999999
 31
0.0
 12
-6021.2544360000002
 22
1626.3870959999999
 32
0.0
 13
-6021.2544360000002
 23
1626.3870959999999
 33
0.0
  0
TEXT
  5
4C8
  8
LAYER01
  6
CONTINUOUS
 62
     7
 10
-6032.2545959999998
 20
1415.3870959999999
 30
0.0
 40
30.0
  1
400
 50
90.0
  0
POINT
  5
4C9
  8
LAYER01
 62
     7
 10
-5899.4289120000003
 20
1250.3870959999999
 30
0.0
  0
POINT
  5
4CA
  8
LAYER01
 62
     7
 10
-5899.4289120000003
 20
1650.3870959999999
 30
0.0
  0
POINT
  5
4CB
  8
LAYER01
 62
     7
 10
-6017.2545959999998
 20
1650.3870959999999
 30
0.0
  0
ENDBLK
  5
4CC
  8
0
  0
BLOCK
  8
0
  2
*D28
 70
     1
 10
0.0
 20
0.0
 30
0.0
  3
*D28
  1

  0
LINE
  5
4CF
  8
LAYER01
 62
     7
 10
-5969.0750839999992
 20
1700.0564870000001
 30
0.0
 11
-5969.0750839999992
 21
1770.3870959999999
 31
0.0
  0
LINE
  5
4D0
  8
LAYER01
 62
     7
 10
-5911.4289119999994
 20
1700.0564870000001
 30
0.0
 11
-5984.0750840000001
 21
1700.0564870000001
 31
0.0
  0
LINE
  5
4D1
  8
LAYER01
 62
     7
 10
-5911.4289119999994
 20
1770.3870959999999
 30
0.0
 11
-5984.0750840000001
 21
1770.3870959999999
 31
0.0
  0
SOLID
  5
4D2
  8
LAYER01
 62
     7
 10
-5965.0752439999997
 20
1724.0564870000001
 30
0.0
 11
-5969.0750839999992
 21
1700.0564870000001
 31
0.0
 12
-5973.0749240000014
 22
1724.0564870000001
 32
0.0
 13
-5973.0749240000014
 23
1724.0564870000001
 33
0.0
  0
SOLID
  5
4D3
  8
LAYER01
 62
     7
 10
-5965.0752439999997
 20
1746.3870959999999
 30
0.0
 11
-5969.0750839999992
 21
1770.3870959999999
 31
0.0
 12
-5973.0749240000014
 22
1746.3870959999999
 32
0.0
 13
-5973.0749240000014
 23
1746.3870959999999
 33
0.0
  0
TEXT
  5
4D4
  8
LAYER01
  6
CONTINUOUS
 62
     7
 10
-5984.0750840000001
 20
1712.7217909999999
 30
0.0
 40
30.0
  1
70
 50
90.0
  0
POINT
  5
4D5
  8
LAYER01
 62
     7
 10
-5899.4289120000003
 20
1700.0564870000001
 30
0.0
  0
POINT
  5
4D6
  8
LAYER01
 62
     7
 10
-5899.4289120000003
 20
1770.3870959999999
 30
0.0
  0
POINT
  5
4D7
  8
LAYER01
 62
     7
 10
-5969.0750839999992
 20
1770.3870959999999
 30
0.0
  0
ENDBLK
  5
4D8
  8
0
  0
BLOCK
  8
0
  2
TRIGO600-G1
 70
     0
 10
0.0
 20
0.0
 30
0.0
  3
TRIGO600-G1
  1

  0
POLYLINE
  5
895
  8
LAYER01
  6
CONTINUOUS
 62
     7
 66
     1
 10
0.0
 20
0.0
 30
0.0
 70
     1
  0
VERTEX
  5
D9F
  8
LAYER01
  6
CONTINUOUS
 62
     7
 10
4056.9044349999999
 20
1127.283772
 30
0.0
  0
VERTEX
  5
DA0
  8
LAYER01
  6
CONTINUOUS
 62
     7
 10
4099.5275700000002
 20
1127.283772
 30
0.0
  0
VERTEX
  5
DA1
  8
LAYER01
  6
CONTINUOUS
 62
     7
 10
4153.0542969999988
 20
1005.3617819999999
 30
0.0
  0
VERTEX
  5
DA2
  8
LAYER01
  6
CONTINUOUS
 62
     7
 10
4206.581024000001
 20
1127.283772
 30
0.0
  0
VERTEX
  5
DA3
  8
LAYER01
  6
CONTINUOUS
 62
     7
 10
4251.1866300000002
 20
1127.283772
 30
0.0
  0
VERTEX
  5
DA4
  8
LAYER01
  6
CONTINUOUS
 62
     7
 10
4153.0542969999988
 20
909.21192100000007
 30
0.0
  0
VERTEX
  5
DA5
  8
LAYER01
  6
CONTINUOUS
 62
     7
 10
4056.9044349999999
 20
1127.283772
 30
0.0
  0
VERTEX
  5
DA6
  8
LAYER01
  6
CONTINUOUS
 62
     7
 10
4056.9044349999999
 20
1127.283772
 30
0.0
  0
SEQEND
  5
DA7
  8
LAYER01
  6
CONTINUOUS
 62
     7
  0
POLYLINE
  5
896
  8
LAYER01
  6
CONTINUOUS
 62
     7
 66
     1
 10
0.0
 20
0.0
 30
0.0
 70
     1
  0
VERTEX
  5
DA8
  8
LAYER01
  6
CONTINUOUS
 62
     7
 10
4202.6160810000001
 20
978.59841899999981
 30
0.0
  0
VERTEX
  5
DA9
  8
LAYER01
  6
CONTINUOUS
 62
     7
 10
4217.4846170000001
 20
1013.291668
 30
0.0
  0
VERTEX
  5
DAA
  8
LAYER01
  6
CONTINUOUS
 62
     7
 10
4281.9149360000001
 20
1013.291668
 30
0.0
  0
VERTEX
  5
DAB
  8
LAYER01
  6
CONTINUOUS
 62
     7
 10
4249.2041589999999
 20
1084.660637
 30
0.0
  0
VERTEX
  5
DAC
  8
LAYER01
  6
CONTINUOUS
 62
     7
 10
4268.0376369999994
 20
1130.2574790000001
 30
0.0
  0
VERTEX
  5
DAD
  8
LAYER01
  6
CONTINUOUS
 62
     7
 10
4356.2576130000007
 20
943.90516999999977
 30
0.0
  0
VERTEX
  5
DAE
  8
LAYER01
  6
CONTINUOUS
 62
     7
 10
4356.2576130000007
 20
1127.283772
 30
0.0
  0
VERTEX
  5
DAF
  8
LAYER01
  6
CONTINUOUS
 62
     7
 10
4474.2146599999996
 20
1127.283772
 30
0.0
  0
VERTEX
  5
DB0
  8
LAYER01
  6
CONTINUOUS
 62
     7
 10
4474.2146599999996
 20
1127.283772
 30
0.0
  0
VERTEX
  5
DB1
  8
LAYER01
  6
CONTINUOUS
 62
     7
 10
4485.1182520000002
 20
1125.3013000000001
 30
0.0
  0
VERTEX
  5
DB2
  8
LAYER01
  6
CONTINUOUS
 62
     7
 10
4495.0306090000004
 20
1121.336358
 30
0.0
  0
VERTEX
  5
DB3
  8
LAYER01
  6
CONTINUOUS
 62
     7
 10
4503.9517299999989
 20
1114.397708
 30
0.0
  0
VERTEX
  5
DB4
  8
LAYER01
  6
CONTINUOUS
 62
     7
 10
4511.8816159999988
 20
1107.4590579999999
 30
0.0
  0
VERTEX
  5
DB5
  8
LAYER01
  6
CONTINUOUS
 62
     7
 10
4518.8202659999988
 20
1098.5379370000001
 30
0.0
  0
VERTEX
  5
DB6
  8
LAYER01
  6
CONTINUOUS
 62
     7
 10
4523.7764440000001
 20
1088.6255799999999
 30
0.0
  0
VERTEX
  5
DB7
  8
LAYER01
  6
CONTINUOUS
 62
     7
 10
4527.741387
 20
1076.7307519999999
 30
0.0
  0
VERTEX
  5
DB8
  8
LAYER01
  6
CONTINUOUS
 62
     7
 10
4528.732622999999
 20
1065.8271589999999
 30
0.0
  0
VERTEX
  5
DB9
  8
LAYER01
  6
CONTINUOUS
 62
     7
 10
4528.732622999999
 20
1065.8271589999999
 30
0.0
  0
VERTEX
  5
DBA
  8
LAYER01
  6
CONTINUOUS
 62
     7
 10
4528.732622999999
 20
1053.932331
 30
0.0
  0
VERTEX
  5
DBB
  8
LAYER01
  6
CONTINUOUS
 62
     7
 10
4526.7501510000002
 20
1044.019974
 30
0.0
  0
VERTEX
  5
DBC
  8
LAYER01
  6
CONTINUOUS
 62
     7
 10
4522.7852080000011
 20
1034.1076169999999
 30
0.0
  0
VERTEX
  5
DBD
  8
LAYER01
  6
CONTINUOUS
 62
     7
 10
4517.8290299999999
 20
1025.186496
 30
0.0
  0
VERTEX
  5
DBE
  8
LAYER01
  6
CONTINUOUS
 62
     7
 10
4510.8903799999998
 20
1017.25661
 30
0.0
  0
VERTEX
  5
DBF
  8
LAYER01
  6
CONTINUOUS
 62
     7
 10
4502.9604950000003
 20
1010.317961
 30
0.0
  0
VERTEX
  5
DC0
  8
LAYER01
  6
CONTINUOUS
 62
     7
 10
4494.039373999999
 20
1005.3617819999999
 30
0.0
  0
VERTEX
  5
DC1
  8
LAYER01
  6
CONTINUOUS
 62
     7
 10
4483.135781
 20
1001.396839
 30
0.0
  0
VERTEX
  5
DC2
  8
LAYER01
  6
CONTINUOUS
 62
     7
 10
4546.5748649999987
 20
917.14180599999997
 30
0.0
  0
VERTEX
  5
DC3
  8
LAYER01
  6
CONTINUOUS
 62
     7
 10
4546.5748649999987
 20
1127.283772
 30
0.0
  0
VERTEX
  5
DC4
  8
LAYER01
  6
CONTINUOUS
 62
     7
 10
4588.2067639999996
 20
1127.283772
 30
0.0
  0
VERTEX
  5
DC5
  8
LAYER01
  6
CONTINUOUS
 62
     7
 10
4588.2067639999996
 20
915.15933499999983
 30
0.0
  0
VERTEX
  5
DC6
  8
LAYER01
  6
CONTINUOUS
 62
     7
 10
4498.9955520000003
 20
915.15933499999983
 30
0.0
  0
VERTEX
  5
DC7
  8
LAYER01
  6
CONTINUOUS
 62
     7
 10
4412.7580470000003
 20
1025.186496
 30
0.0
  0
VERTEX
  5
DC8
  8
LAYER01
  6
CONTINUOUS
 62
     7
 10
4456.3724169999996
 20
1025.186496
 30
0.0
  0
VERTEX
  5
DC9
  8
LAYER01
  6
CONTINUOUS
 62
     7
 10
4456.3724169999996
 20
1025.186496
 30
0.0
  0
VERTEX
  5
DCA
  8
LAYER01
  6
CONTINUOUS
 62
     7
 10
4462.3198320000001
 20
1026.1777320000001
 30
0.0
  0
VERTEX
  5
DCB
  8
LAYER01
  6
CONTINUOUS
 62
     7
 10
4468.2672460000003
 20
1028.1602029999999
 30
0.0
  0
VERTEX
  5
DCC
  8
LAYER01
  6
CONTINUOUS
 62
     7
 10
4473.2234239999989
 20
1031.13391
 30
0.0
  0
VERTEX
  5
DCD
  8
LAYER01
  6
CONTINUOUS
 62
     7
 10
4478.1796029999996
 20
1035.098853
 30
0.0
  0
VERTEX
  5
DCE
  8
LAYER01
  6
CONTINUOUS
 62
     7
 10
4481.1533099999997
 20
1040.0550310000001
 30
0.0
  0
VERTEX
  5
DCF
  8
LAYER01
  6
CONTINUOUS
 62
     7
 10
4484.1270169999998
 20
1046.0024450000001
 30
0.0
  0
VERTEX
  5
DD0
  8
LAYER01
  6
CONTINUOUS
 62
     7
 10
4486.1094880000001
 20
1051.9498590000001
 30
0.0
  0
VERTEX
  5
DD1
  8
LAYER01
  6
CONTINUOUS
 62
     7
 10
4486.1094880000001
 20
1058.8885090000001
 30
0.0
  0
VERTEX
  5
DD2
  8
LAYER01
  6
CONTINUOUS
 62
     7
 10
4486.1094880000001
 20
1058.8885090000001
 30
0.0
  0
VERTEX
  5
DD3
  8
LAYER01
  6
CONTINUOUS
 62
     7
 10
4486.1094880000001
 20
1064.8359230000001
 30
0.0
  0
VERTEX
  5
DD4
  8
LAYER01
  6
CONTINUOUS
 62
     7
 10
4484.1270169999998
 20
1070.783338
 30
0.0
  0
VERTEX
  5
DD5
  8
LAYER01
  6
CONTINUOUS
 62
     7
 10
4482.1445449999992
 20
1076.7307519999999
 30
0.0
  0
VERTEX
  5
DD6
  8
LAYER01
  6
CONTINUOUS
 62
     7
 10
4478.1796029999996
 20
1081.6869300000001
 30
0.0
  0
VERTEX
  5
DD7
  8
LAYER01
  6
CONTINUOUS
 62
     7
 10
4474.2146599999996
 20
1085.651873
 30
0.0
  0
VERTEX
  5
DD8
  8
LAYER01
  6
CONTINUOUS
 62
     7
 10
4468.2672460000003
 20
1088.6255799999999
 30
0.0
  0
VERTEX
  5
DD9
  8
LAYER01
  6
CONTINUOUS
 62
     7
 10
4462.3198320000001
 20
1090.6080509999999
 30
0.0
  0
VERTEX
  5
DDA
  8
LAYER01
  6
CONTINUOUS
 62
     7
 10
4456.3724169999996
 20
1091.599287
 30
0.0
  0
VERTEX
  5
DDB
  8
LAYER01
  6
CONTINUOUS
 62
     7
 10
4400.8632189999998
 20
1091.599287
 30
0.0
  0
VERTEX
  5
DDC
  8
LAYER01
  6
CONTINUOUS
 62
     7
 10
4400.8632189999998
 20
915.15933499999983
 30
0.0
  0
VERTEX
  5
DDD
  8
LAYER01
  6
CONTINUOUS
 62
     7
 10
4329.4942490000003
 20
915.15933499999983
 30
0.0
  0
VERTEX
  5
DDE
  8
LAYER01
  6
CONTINUOUS
 62
     7
 10
4299.7571790000002
 20
978.59841899999981
 30
0.0
  0
VERTEX
  5
DDF
  8
LAYER01
  6
CONTINUOUS
 62
     7
 10
4202.6160810000001
 20
978.59841899999981
 30
0.0
  0
VERTEX
  5
DE0
  8
LAYER01
  6
CONTINUOUS
 62
     7
 10
4202.6160810000001
 20
978.59841899999981
 30
0.0
  0
SEQEND
  5
DE1
  8
LAYER01
  6
CONTINUOUS
 62
     7
  0
POLYLINE
  5
897
  8
LAYER01
  6
CONTINUOUS
 62
     7
 66
     1
 10
0.0
 20
0.0
 30
0.0
 70
     1
  0
VERTEX
  5
DE2
  8
LAYER01
  6
CONTINUOUS
 62
     7
 10
4780.5064869999987
 20
1113.4064719999999
 30
0.0
  0
VERTEX
  5
DE3
  8
LAYER01
  6
CONTINUOUS
 62
     7
 10
4753.7431239999996
 20
1079.704459
 30
0.0
  0
VERTEX
  5
DE4
  8
LAYER01
  6
CONTINUOUS
 62
     7
 10
4753.7431239999996
 20
1079.704459
 30
0.0
  0
VERTEX
  5
DE5
  8
LAYER01
  6
CONTINUOUS
 62
     7
 10
4744.8220019999999
 20
1085.651873
 30
0.0
  0
VERTEX
  5
DE6
  8
LAYER01
  6
CONTINUOUS
 62
     7
 10
4735.9008809999996
 20
1090.6080509999999
 30
0.0
  0
VERTEX
  5
DE7
  8
LAYER01
  6
CONTINUOUS
 62
     7
 10
4725.9885240000003
 20
1093.581758
 30
0.0
  0
VERTEX
  5
DE8
  8
LAYER01
  6
CONTINUOUS
 62
     7
 10
4715.0849319999988
 20
1093.581758
 30
0.0
  0
VERTEX
  5
DE9
  8
LAYER01
  6
CONTINUOUS
 62
     7
 10
4715.0849319999988
 20
1093.581758
 30
0.0
  0
VERTEX
  5
DEA
  8
LAYER01
  6
CONTINUOUS
 62
     7
 10
4708.1462819999997
 20
1093.581758
 30
0.0
  0
VERTEX
  5
DEB
  8
LAYER01
  6
CONTINUOUS
 62
     7
 10
4701.2076319999996
 20
1092.5905230000001
 30
0.0
  0
VERTEX
  5
DEC
  8
LAYER01
  6
CONTINUOUS
 62
     7
 10
4694.2689819999987
 20
1090.6080509999999
 30
0.0
  0
VERTEX
  5
DED
  8
LAYER01
  6
CONTINUOUS
 62
     7
 10
4687.3303329999999
 20
1087.6343440000001
 30
0.0
  0
VERTEX
  5
DEE
  8
LAYER01
  6
CONTINUOUS
 62
     7
 10
4681.3829180000002
 20
1084.660637
 30
0.0
  0
VERTEX
  5
DEF
  8
LAYER01
  6
CONTINUOUS
 62
     7
 10
4676.4267399999999
 20
1080.695694
 30
0.0
  0
VERTEX
  5
DF0
  8
LAYER01
  6
CONTINUOUS
 62
     7
 10
4670.4793259999988
 20
1076.7307519999999
 30
0.0
  0
VERTEX
  5
DF1
  8
LAYER01
  6
CONTINUOUS
 62
     7
 10
4666.5143829999988
 20
1071.7745729999999
 30
0.0
  0
VERTEX
  5
DF2
  8
LAYER01
  6
CONTINUOUS
 62
     7
 10
4661.5582049999994
 20
1065.8271589999999
 30
0.0
  0
VERTEX
  5
DF3
  8
LAYER01
  6
CONTINUOUS
 62
     7
 10
4658.5844979999983
 20
1059.879745
 30
0.0
  0
VERTEX
  5
DF4
  8
LAYER01
  6
CONTINUOUS
 62
     7
 10
4654.6195549999993
 20
1053.932331
 30
0.0
  0
VERTEX
  5
DF5
  8
LAYER01
  6
CONTINUOUS
 62
     7
 10
4651.6458480000001
 20
1047.984917
 30
0.0
  0
VERTEX
  5
DF6
  8
LAYER01
  6
CONTINUOUS
 62
     7
 10
4649.6633759999986
 20
1041.0462669999999
 30
0.0
  0
VERTEX
  5
DF7
  8
LAYER01
  6
CONTINUOUS
 62
     7
 10
4648.672141
 20
1034.1076169999999
 30
0.0
  0
VERTEX
  5
DF8
  8
LAYER01
  6
CONTINUOUS
 62
     7
 10
4647.6809049999993
 20
1027.1689670000001
 30
0.0
  0
VERTEX
  5
DF9
  8
LAYER01
  6
CONTINUOUS
 62
     7
 10
4646.6896689999994
 20
1019.2390820000001
 30
0.0
  0
VERTEX
  5
DFA
  8
LAYER01
  6
CONTINUOUS
 62
     7
 10
4646.6896689999994
 20
1019.2390820000001
 30
0.0
  0
VERTEX
  5
DFB
  8
LAYER01
  6
CONTINUOUS
 62
     7
 10
4647.6809049999993
 20
1012.300432
 30
0.0
  0
VERTEX
  5
DFC
  8
LAYER01
  6
CONTINUOUS
 62
     7
 10
4648.672141
 20
1005.3617819999999
 30
0.0
  0
VERTEX
  5
DFD
  8
LAYER01
  6
CONTINUOUS
 62
     7
 10
4649.6633759999986
 20
998.42313200000012
 30
0.0
  0
VERTEX
  5
DFE
  8
LAYER01
  6
CONTINUOUS
 62
     7
 10
4652.637084
 20
992.4757179999998
 30
0.0
  0
VERTEX
  5
DFF
  8
LAYER01
  6
CONTINUOUS
 62
     7
 10
4654.6195549999993
 20
986.52830399999993
 30
0.0
  0
VERTEX
  5
E00
  8
LAYER01
  6
CONTINUOUS
 62
     7
 10
4658.5844979999983
 20
980.58088999999995
 30
0.0
  0
VERTEX
  5
E01
  8
LAYER01
  6
CONTINUOUS
 62
     7
 10
4662.5494399999998
 20
974.63347599999986
 30
0.0
  0
VERTEX
  5
E02
  8
LAYER01
  6
CONTINUOUS
 62
     7
 10
4666.5143829999988
 20
969.67729700000007
 30
0.0
  0
VERTEX
  5
E03
  8
LAYER01
  6
CONTINUOUS
 62
     7
 10
4671.4705619999986
 20
964.72111900000004
 30
0.0
  0
VERTEX
  5
E04
  8
LAYER01
  6
CONTINUOUS
 62
     7
 10
4676.4267399999999
 20
960.75617599999987
 30
0.0
  0
VERTEX
  5
E05
  8
LAYER01
  6
CONTINUOUS
 62
     7
 10
4682.3741540000001
 20
957.78246899999988
 30
0.0
  0
VERTEX
  5
E06
  8
LAYER01
  6
CONTINUOUS
 62
     7
 10
4688.3215680000003
 20
954.80876199999977
 30
0.0
  0
VERTEX
  5
E07
  8
LAYER01
  6
CONTINUOUS
 62
     7
 10
4695.2602180000004
 20
951.83505500000001
 30
0.0
  0
VERTEX
  5
E08
  8
LAYER01
  6
CONTINUOUS
 62
     7
 10
4701.2076319999996
 20
949.85258399999987
 30
0.0
  0
VERTEX
  5
E09
  8
LAYER01
  6
CONTINUOUS
 62
     7
 10
4708.1462819999997
 20
948.86134799999991
 30
0.0
  0
VERTEX
  5
E0A
  8
LAYER01
  6
CONTINUOUS
 62
     7
 10
4716.0761679999987
 20
948.86134799999991
 30
0.0
  0
VERTEX
  5
E0B
  8
LAYER01
  6
CONTINUOUS
 62
     7
 10
4716.0761679999987
 20
948.86134799999991
 30
0.0
  0
VERTEX
  5
E0C
  8
LAYER01
  6
CONTINUOUS
 62
     7
 10
4726.9797600000002
 20
949.85258399999987
 30
0.0
  0
VERTEX
  5
E0D
  8
LAYER01
  6
CONTINUOUS
 62
     7
 10
4735.9008809999996
 20
951.83505500000001
 30
0.0
  0
VERTEX
  5
E0E
  8
LAYER01
  6
CONTINUOUS
 62
     7
 10
4744.8220019999999
 20
956.79123300000003
 30
0.0
  0
VERTEX
  5
E0F
  8
LAYER01
  6
CONTINUOUS
 62
     7
 10
4753.7431239999996
 20
962.73864800000001
 30
0.0
  0
VERTEX
  5
E10
  8
LAYER01
  6
CONTINUOUS
 62
     7
 10
4779.5152520000001
 20
928.04539899999986
 30
0.0
  0
VERTEX
  5
E11
  8
LAYER01
  6
CONTINUOUS
 62
     7
 10
4779.5152520000001
 20
928.04539899999986
 30
0.0
  0
VERTEX
  5
E12
  8
LAYER01
  6
CONTINUOUS
 62
     7
 10
4764.6467159999993
 20
919.12427700000001
 30
0.0
  0
VERTEX
  5
E13
  8
LAYER01
  6
CONTINUOUS
 62
     7
 10
4756.7168310000006
 20
916.1505699999999
 30
0.0
  0
VERTEX
  5
E14
  8
LAYER01
  6
CONTINUOUS
 62
     7
 10
4749.7781809999997
 20
913.17686299999991
 30
0.0
  0
VERTEX
  5
E15
  8
LAYER01
  6
CONTINUOUS
 62
     7
 10
4741.8482949999998
 20
911.19439199999988
 30
0.0
  0
VERTEX
  5
E16
  8
LAYER01
  6
CONTINUOUS
 62
     7
 10
4733.9184100000002
 20
910.20315600000004
 30
0.0
  0
VERTEX
  5
E17
  8
LAYER01
  6
CONTINUOUS
 62
     7
 10
4716.0761679999987
 20
909.21192100000007
 30
0.0
  0
VERTEX
  5
E18
  8
LAYER01
  6
CONTINUOUS
 62
     7
 10
4716.0761679999987
 20
909.21192100000007
 30
0.0
  0
VERTEX
  5
E19
  8
LAYER01
  6
CONTINUOUS
 62
     7
 10
4704.1813389999998
 20
910.20315600000004
 30
0.0
  0
VERTEX
  5
E1A
  8
LAYER01
  6
CONTINUOUS
 62
     7
 10
4693.2777470000001
 20
912.18562799999995
 30
0.0
  0
VERTEX
  5
E1B
  8
LAYER01
  6
CONTINUOUS
 62
     7
 10
4682.3741540000001
 20
914.16809899999987
 30
0.0
  0
VERTEX
  5
E1C
  8
LAYER01
  6
CONTINUOUS
 62
     7
 10
4672.461796999999
 20
918.13304200000005
 30
0.0
  0
VERTEX
  5
E1D
  8
LAYER01
  6
CONTINUOUS
 62
     7
 10
4662.5494399999998
 20
923.08921999999995
 30
0.0
  0
VERTEX
  5
E1E
  8
LAYER01
  6
CONTINUOUS
 62
     7
 10
4653.6283190000004
 20
928.04539899999986
 30
0.0
  0
VERTEX
  5
E1F
  8
LAYER01
  6
CONTINUOUS
 62
     7
 10
4644.7071980000001
 20
934.98404800000014
 30
0.0
  0
VERTEX
  5
E20
  8
LAYER01
  6
CONTINUOUS
 62
     7
 10
4636.7773129999996
 20
941.92269800000008
 30
0.0
  0
VERTEX
  5
E21
  8
LAYER01
  6
CONTINUOUS
 62
     7
 10
4628.8474270000006
 20
949.85258399999987
 30
0.0
  0
VERTEX
  5
E22
  8
LAYER01
  6
CONTINUOUS
 62
     7
 10
4622.9000130000004
 20
958.77370500000006
 30
0.0
  0
VERTEX
  5
E23
  8
LAYER01
  6
CONTINUOUS
 62
     7
 10
4616.9525990000002
 20
967.69482599999992
 30
0.0
  0
VERTEX
  5
E24
  8
LAYER01
  6
CONTINUOUS
 62
     7
 10
4611.9964200000004
 20
977.60718299999985
 30
0.0
  0
VERTEX
  5
E25
  8
LAYER01
  6
CONTINUOUS
 62
     7
 10
4609.0227130000003
 20
987.51954000000001
 30
0.0
  0
VERTEX
  5
E26
  8
LAYER01
  6
CONTINUOUS
 62
     7
 10
4606.0490060000002
 20
998.42313200000012
 30
0.0
  0
VERTEX
  5
E27
  8
LAYER01
  6
CONTINUOUS
 62
     7
 10
4604.0665349999999
 20
1009.326725
 30
0.0
  0
VERTEX
  5
E28
  8
LAYER01
  6
CONTINUOUS
 62
     7
 10
4603.0752990000001
 20
1021.221553
 30
0.0
  0
VERTEX
  5
E29
  8
LAYER01
  6
CONTINUOUS
 62
     7
 10
4603.0752990000001
 20
1021.221553
 30
0.0
  0
VERTEX
  5
E2A
  8
LAYER01
  6
CONTINUOUS
 62
     7
 10
4604.0665349999999
 20
1032.1251460000001
 30
0.0
  0
VERTEX
  5
E2B
  8
LAYER01
  6
CONTINUOUS
 62
     7
 10
4606.0490060000002
 20
1044.019974
 30
0.0
  0
VERTEX
  5
E2C
  8
LAYER01
  6
CONTINUOUS
 62
     7
 10
4608.0314779999999
 20
1053.932331
 30
0.0
  0
VERTEX
  5
E2D
  8
LAYER01
  6
CONTINUOUS
 62
     7
 10
4611.9964200000004
 20
1064.8359230000001
 30
0.0
  0
VERTEX
  5
E2E
  8
LAYER01
  6
CONTINUOUS
 62
     7
 10
4616.9525990000002
 20
1074.74828
 30
0.0
  0
VERTEX
  5
E2F
  8
LAYER01
  6
CONTINUOUS
 62
     7
 10
4621.9087769999996
 20
1083.6694010000001
 30
0.0
  0
VERTEX
  5
E30
  8
LAYER01
  6
CONTINUOUS
 62
     7
 10
4628.8474270000006
 20
1092.5905230000001
 30
0.0
  0
VERTEX
  5
E31
  8
LAYER01
  6
CONTINUOUS
 62
     7
 10
4635.7860770000007
 20
1100.5204080000001
 30
0.0
  0
VERTEX
  5
E32
  8
LAYER01
  6
CONTINUOUS
 62
     7
 10
4643.7159619999993
 20
1107.4590579999999
 30
0.0
  0
VERTEX
  5
E33
  8
LAYER01
  6
CONTINUOUS
 62
     7
 10
4652.637084
 20
1114.397708
 30
0.0
  0
VERTEX
  5
E34
  8
LAYER01
  6
CONTINUOUS
 62
     7
 10
4661.5582049999994
 20
1119.3538860000001
 30
0.0
  0
VERTEX
  5
E35
  8
LAYER01
  6
CONTINUOUS
 62
     7
 10
4671.4705619999986
 20
1124.3100649999999
 30
0.0
  0
VERTEX
  5
E36
  8
LAYER01
  6
CONTINUOUS
 62
     7
 10
4681.3829180000002
 20
1128.275007
 30
0.0
  0
VERTEX
  5
E37
  8
LAYER01
  6
CONTINUOUS
 62
     7
 10
4692.2865110000002
 20
1131.2487140000001
 30
0.0
  0
VERTEX
  5
E38
  8
LAYER01
  6
CONTINUOUS
 62
     7
 10
4704.1813389999998
 20
1132.2399499999999
 30
0.0
  0
VERTEX
  5
E39
  8
LAYER01
  6
CONTINUOUS
 62
     7
 10
4715.0849319999988
 20
1133.231186
 30
0.0
  0
VERTEX
  5
E3A
  8
LAYER01
  6
CONTINUOUS
 62
     7
 10
4715.0849319999988
 20
1133.231186
 30
0.0
  0
VERTEX
  5
E3B
  8
LAYER01
  6
CONTINUOUS
 62
     7
 10
4732.9271740000004
 20
1132.2399499999999
 30
0.0
  0
VERTEX
  5
E3C
  8
LAYER01
  6
CONTINUOUS
 62
     7
 10
4741.8482949999998
 20
1131.2487140000001
 30
0.0
  0
VERTEX
  5
E3D
  8
LAYER01
  6
CONTINUOUS
 62
     7
 10
4749.7781809999997
 20
1129.266243
 30
0.0
  0
VERTEX
  5
E3E
  8
LAYER01
  6
CONTINUOUS
 62
     7
 10
4756.7168310000006
 20
1126.2925359999999
 30
0.0
  0
VERTEX
  5
E3F
  8
LAYER01
  6
CONTINUOUS
 62
     7
 10
4764.6467159999993
 20
1123.3188290000001
 30
0.0
  0
VERTEX
  5
E40
  8
LAYER01
  6
CONTINUOUS
 62
     7
 10
4772.5766020000001
 20
1118.3626509999999
 30
0.0
  0
VERTEX
  5
E41
  8
LAYER01
  6
CONTINUOUS
 62
     7
 10
4780.5064869999987
 20
1113.4064719999999
 30
0.0
  0
VERTEX
  5
E42
  8
LAYER01
  6
CONTINUOUS
 62
     7
 10
4780.5064869999987
 20
1113.4064719999999
 30
0.0
  0
SEQEND
  5
E43
  8
LAYER01
  6
CONTINUOUS
 62
     7
  0
POLYLINE
  5
898
  8
LAYER01
  6
CONTINUOUS
 62
     7
 66
     1
 10
0.0
 20
0.0
 30
0.0
 70
     1
  0
VERTEX
  5
E44
  8
LAYER01
  6
CONTINUOUS
 62
     7
 10
4876.6563490000008
 20
1132.2399499999999
 30
0.0
  0
VERTEX
  5
E45
  8
LAYER01
  6
CONTINUOUS
 62
     7
 10
4876.6563490000008
 20
1132.2399499999999
 30
0.0
  0
VERTEX
  5
E46
  8
LAYER01
  6
CONTINUOUS
 62
     7
 10
4865.7527559999999
 20
1131.2487140000001
 30
0.0
  0
VERTEX
  5
E47
  8
LAYER01
  6
CONTINUOUS
 62
     7
 10
4853.8579280000004
 20
1130.2574790000001
 30
0.0
  0
VERTEX
  5
E48
  8
LAYER01
  6
CONTINUOUS
 62
     7
 10
4843.9455710000002
 20
1127.283772
 30
0.0
  0
VERTEX
  5
E49
  8
LAYER01
  6
CONTINUOUS
 62
     7
 10
4833.0419789999996
 20
1123.3188290000001
 30
0.0
  0
VERTEX
  5
E4A
  8
LAYER01
  6
CONTINUOUS
 62
     7
 10
4823.1296219999986
 20
1119.3538860000001
 30
0.0
  0
VERTEX
  5
E4B
  8
LAYER01
  6
CONTINUOUS
 62
     7
 10
4814.2085010000001
 20
1113.4064719999999
 30
0.0
  0
VERTEX
  5
E4C
  8
LAYER01
  6
CONTINUOUS
 62
     7
 10
4805.2873790000012
 20
1107.4590579999999
 30
0.0
  0
VERTEX
  5
E4D
  8
LAYER01
  6
CONTINUOUS
 62
     7
 10
4797.357493999999
 20
1099.529172
 30
0.0
  0
VERTEX
  5
E4E
  8
LAYER01
  6
CONTINUOUS
 62
     7
 10
4790.4188439999998
 20
1091.599287
 30
0.0
  0
VERTEX
  5
E4F
  8
LAYER01
  6
CONTINUOUS
 62
     7
 10
4783.4801939999998
 20
1083.6694010000001
 30
0.0
  0
VERTEX
  5
E50
  8
LAYER01
  6
CONTINUOUS
 62
     7
 10
4777.5327799999995
 20
1074.74828
 30
0.0
  0
VERTEX
  5
E51
  8
LAYER01
  6
CONTINUOUS
 62
     7
 10
4772.5766020000001
 20
1064.8359230000001
 30
0.0
  0
VERTEX
  5
E52
  8
LAYER01
  6
CONTINUOUS
 62
     7
 10
4769.602895
 20
1053.932331
 30
0.0
  0
VERTEX
  5
E53
  8
LAYER01
  6
CONTINUOUS
 62
     7
 10
4766.6291879999999
 20
1044.019974
 30
0.0
  0
VERTEX
  5
E54
  8
LAYER01
  6
CONTINUOUS
 62
     7
 10
4764.6467159999993
 20
1032.1251460000001
 30
0.0
  0
VERTEX
  5
E55
  8
LAYER01
  6
CONTINUOUS
 62
     7
 10
4763.6554809999998
 20
1021.221553
 30
0.0
  0
VERTEX
  5
E56
  8
LAYER01
  6
CONTINUOUS
 62
     7
 10
4763.6554809999998
 20
1021.221553
 30
0.0
  0
VERTEX
  5
E57
  8
LAYER01
  6
CONTINUOUS
 62
     7
 10
4764.6467159999993
 20
1009.326725
 30
0.0
  0
VERTEX
  5
E58
  8
LAYER01
  6
CONTINUOUS
 62
     7
 10
4765.637952
 20
998.42313200000012
 30
0.0
  0
VERTEX
  5
E59
  8
LAYER01
  6
CONTINUOUS
 62
     7
 10
4768.6116590000001
 20
987.51954000000001
 30
0.0
  0
VERTEX
  5
E5A
  8
LAYER01
  6
CONTINUOUS
 62
     7
 10
4772.5766020000001
 20
977.60718299999985
 30
0.0
  0
VERTEX
  5
E5B
  8
LAYER01
  6
CONTINUOUS
 62
     7
 10
4776.5415439999988
 20
967.69482599999992
 30
0.0
  0
VERTEX
  5
E5C
  8
LAYER01
  6
CONTINUOUS
 62
     7
 10
4782.4889590000012
 20
958.77370500000006
 30
0.0
  0
VERTEX
  5
E5D
  8
LAYER01
  6
CONTINUOUS
 62
     7
 10
4788.4363729999986
 20
949.85258399999987
 30
0.0
  0
VERTEX
  5
E5E
  8
LAYER01
  6
CONTINUOUS
 62
     7
 10
4795.3750229999996
 20
941.92269800000008
 30
0.0
  0
VERTEX
  5
E5F
  8
LAYER01
  6
CONTINUOUS
 62
     7
 10
4803.304908000001
 20
933.99281299999996
 30
0.0
  0
VERTEX
  5
E60
  8
LAYER01
  6
CONTINUOUS
 62
     7
 10
4812.2260289999986
 20
928.04539899999986
 30
0.0
  0
VERTEX
  5
E61
  8
LAYER01
  6
CONTINUOUS
 62
     7
 10
4821.1471499999998
 20
922.097984
 30
0.0
  0
VERTEX
  5
E62
  8
LAYER01
  6
CONTINUOUS
 62
     7
 10
4831.059506999999
 20
917.14180599999997
 30
0.0
  0
VERTEX
  5
E63
  8
LAYER01
  6
CONTINUOUS
 62
     7
 10
4840.9718640000001
 20
913.17686299999991
 30
0.0
  0
VERTEX
  5
E64
  8
LAYER01
  6
CONTINUOUS
 62
     7
 10
4851.8754570000001
 20
911.19439199999988
 30
0.0
  0
VERTEX
  5
E65
  8
LAYER01
  6
CONTINUOUS
 62
     7
 10
4862.7790489999998
 20
909.21192100000007
 30
0.0
  0
VERTEX
  5
E66
  8
LAYER01
  6
CONTINUOUS
 62
     7
 10
4873.6826419999998
 20
908.220685
 30
0.0
  0
VERTEX
  5
E67
  8
LAYER01
  6
CONTINUOUS
 62
     7
 10
4873.6826419999998
 20
908.220685
 30
0.0
  0
VERTEX
  5
E68
  8
LAYER01
  6
CONTINUOUS
 62
     7
 10
4885.5774700000011
 20
909.21192100000007
 30
0.0
  0
VERTEX
  5
E69
  8
LAYER01
  6
CONTINUOUS
 62
     7
 10
4896.4810630000002
 20
911.19439199999988
 30
0.0
  0
VERTEX
  5
E6A
  8
LAYER01
  6
CONTINUOUS
 62
     7
 10
4907.3846549999998
 20
914.16809899999987
 30
0.0
  0
VERTEX
  5
E6B
  8
LAYER01
  6
CONTINUOUS
 62
     7
 10
4917.297012
 20
918.13304200000005
 30
0.0
  0
VERTEX
  5
E6C
  8
LAYER01
  6
CONTINUOUS
 62
     7
 10
4927.2093690000002
 20
923.08921999999995
 30
0.0
  0
VERTEX
  5
E6D
  8
LAYER01
  6
CONTINUOUS
 62
     7
 10
4936.1304899999996
 20
929.03663400000005
 30
0.0
  0
VERTEX
  5
E6E
  8
LAYER01
  6
CONTINUOUS
 62
     7
 10
4945.0516109999999
 20
934.98404800000014
 30
0.0
  0
VERTEX
  5
E6F
  8
LAYER01
  6
CONTINUOUS
 62
     7
 10
4952.9814969999989
 20
942.91393400000004
 30
0.0
  0
VERTEX
  5
E70
  8
LAYER01
  6
CONTINUOUS
 62
     7
 10
4959.9201469999998
 20
950.84381899999994
 30
0.0
  0
VERTEX
  5
E71
  8
LAYER01
  6
CONTINUOUS
 62
     7
 10
4965.867561
 20
959.76494100000002
 30
0.0
  0
VERTEX
  5
E72
  8
LAYER01
  6
CONTINUOUS
 62
     7
 10
4970.8237390000004
 20
968.68606199999988
 30
0.0
  0
VERTEX
  5
E73
  8
LAYER01
  6
CONTINUOUS
 62
     7
 10
4975.7799180000002
 20
978.59841899999981
 30
0.0
  0
VERTEX
  5
E74
  8
LAYER01
  6
CONTINUOUS
 62
     7
 10
4979.7448599999998
 20
989.50201099999992
 30
0.0
  0
VERTEX
  5
E75
  8
LAYER01
  6
CONTINUOUS
 62
     7
 10
4981.7273320000013
 20
1000.405604
 30
0.0
  0
VERTEX
  5
E76
  8
LAYER01
  6
CONTINUOUS
 62
     7
 10
4982.7185669999999
 20
1011.309196
 30
0.0
  0
VERTEX
  5
E77
  8
LAYER01
  6
CONTINUOUS
 62
     7
 10
4983.7098029999988
 20
1023.204025
 30
0.0
  0
VERTEX
  5
E78
  8
LAYER01
  6
CONTINUOUS
 62
     7
 10
4983.7098029999988
 20
1023.204025
 30
0.0
  0
VERTEX
  5
E79
  8
LAYER01
  6
CONTINUOUS
 62
     7
 10
4982.7185669999999
 20
1034.1076169999999
 30
0.0
  0
VERTEX
  5
E7A
  8
LAYER01
  6
CONTINUOUS
 62
     7
 10
4980.7360960000015
 20
1045.0112099999999
 30
0.0
  0
VERTEX
  5
E7B
  8
LAYER01
  6
CONTINUOUS
 62
     7
 10
4977.7623890000013
 20
1054.923567
 30
0.0
  0
VERTEX
  5
E7C
  8
LAYER01
  6
CONTINUOUS
 62
     7
 10
4974.7886820000003
 20
1064.8359230000001
 30
0.0
  0
VERTEX
  5
E7D
  8
LAYER01
  6
CONTINUOUS
 62
     7
 10
4969.8325030000015
 20
1073.7570450000001
 30
0.0
  0
VERTEX
  5
E7E
  8
LAYER01
  6
CONTINUOUS
 62
     7
 10
4964.8763250000002
 20
1082.6781659999999
 30
0.0
  0
VERTEX
  5
E7F
  8
LAYER01
  6
CONTINUOUS
 62
     7
 10
4958.928911
 20
1091.599287
 30
0.0
  0
VERTEX
  5
E80
  8
LAYER01
  6
CONTINUOUS
 62
     7
 10
4951.9902609999999
 20
1098.5379370000001
 30
0.0
  0
VERTEX
  5
E81
  8
LAYER01
  6
CONTINUOUS
 62
     7
 10
4944.0603759999995
 20
1105.4765870000001
 30
0.0
  0
VERTEX
  5
E82
  8
LAYER01
  6
CONTINUOUS
 62
     7
 10
4936.1304899999996
 20
1112.415236
 30
0.0
  0
VERTEX
  5
E83
  8
LAYER01
  6
CONTINUOUS
 62
     7
 10
4927.2093690000002
 20
1117.3714150000001
 30
0.0
  0
VERTEX
  5
E84
  8
LAYER01
  6
CONTINUOUS
 62
     7
 10
4918.2882479999989
 20
1122.327593
 30
0.0
  0
VERTEX
  5
E85
  8
LAYER01
  6
CONTINUOUS
 62
     7
 10
4908.3758909999997
 20
1126.2925359999999
 30
0.0
  0
VERTEX
  5
E86
  8
LAYER01
  6
CONTINUOUS
 62
     7
 10
4898.4635340000013
 20
1129.266243
 30
0.0
  0
VERTEX
  5
E87
  8
LAYER01
  6
CONTINUOUS
 62
     7
 10
4887.5599410000004
 20
1131.2487140000001
 30
0.0
  0
VERTEX
  5
E88
  8
LAYER01
  6
CONTINUOUS
 62
     7
 10
4876.6563490000008
 20
1132.2399499999999
 30
0.0
  0
VERTEX
  5
E89
  8
LAYER01
  6
CONTINUOUS
 62
     7
 10
4876.6563490000008
 20
1132.2399499999999
 30
0.0
  0
SEQEND
  5
E8A
  8
LAYER01
  6
CONTINUOUS
 62
     7
  0
POLYLINE
  5
899
  8
LAYER01
  6
CONTINUOUS
 62
     7
 66
     1
 10
0.0
 20
0.0
 30
0.0
 70
     1
  0
VERTEX
  5
E8B
  8
LAYER01
  6
CONTINUOUS
 62
     7
 10
4873.6826419999998
 20
948.86134799999991
 30
0.0
  0
VERTEX
  5
E8C
  8
LAYER01
  6
CONTINUOUS
 62
     7
 10
4873.6826419999998
 20
948.86134799999991
 30
0.0
  0
VERTEX
  5
E8D
  8
LAYER01
  6
CONTINUOUS
 62
     7
 10
4866.7439919999997
 20
949.85258399999987
 30
0.0
  0
VERTEX
  5
E8E
  8
LAYER01
  6
CONTINUOUS
 62
     7
 10
4859.8053420000006
 20
950.84381899999994
 30
0.0
  0
VERTEX
  5
E8F
  8
LAYER01
  6
CONTINUOUS
 62
     7
 10
4852.8666919999996
 20
951.83505500000001
 30
0.0
  0
VERTEX
  5
E90
  8
LAYER01
  6
CONTINUOUS
 62
     7
 10
4845.9280429999999
 20
954.80876199999977
 30
0.0
  0
VERTEX
  5
E91
  8
LAYER01
  6
CONTINUOUS
 62
     7
 10
4839.9806280000012
 20
957.78246899999988
 30
0.0
  0
VERTEX
  5
E92
  8
LAYER01
  6
CONTINUOUS
 62
     7
 10
4834.033214
 20
961.74741199999983
 30
0.0
  0
VERTEX
  5
E93
  8
LAYER01
  6
CONTINUOUS
 62
     7
 10
4829.0770359999997
 20
965.71235500000012
 30
0.0
  0
VERTEX
  5
E94
  8
LAYER01
  6
CONTINUOUS
 62
     7
 10
4824.1208569999999
 20
970.66853300000002
 30
0.0
  0
VERTEX
  5
E95
  8
LAYER01
  6
CONTINUOUS
 62
     7
 10
4819.1646790000004
 20
975.62471199999993
 30
0.0
  0
VERTEX
  5
E96
  8
LAYER01
  6
CONTINUOUS
 62
     7
 10
4815.1997359999996
 20
980.58088999999995
 30
0.0
  0
VERTEX
  5
E97
  8
LAYER01
  6
CONTINUOUS
 62
     7
 10
4812.2260289999986
 20
986.52830399999993
 30
0.0
  0
VERTEX
  5
E98
  8
LAYER01
  6
CONTINUOUS
 62
     7
 10
4809.2523220000003
 20
993.46695399999987
 30
0.0
  0
VERTEX
  5
E99
  8
LAYER01
  6
CONTINUOUS
 62
     7
 10
4806.2786150000002
 20
999.41436799999997
 30
0.0
  0
VERTEX
  5
E9A
  8
LAYER01
  6
CONTINUOUS
 62
     7
 10
4805.2873790000012
 20
1006.353018
 30
0.0
  0
VERTEX
  5
E9B
  8
LAYER01
  6
CONTINUOUS
 62
     7
 10
4803.304908000001
 20
1013.291668
 30
0.0
  0
VERTEX
  5
E9C
  8
LAYER01
  6
CONTINUOUS
 62
     7
 10
4803.304908000001
 20
1021.221553
 30
0.0
  0
VERTEX
  5
E9D
  8
LAYER01
  6
CONTINUOUS
 62
     7
 10
4803.304908000001
 20
1021.221553
 30
0.0
  0
VERTEX
  5
E9E
  8
LAYER01
  6
CONTINUOUS
 62
     7
 10
4804.2961439999999
 20
1028.1602029999999
 30
0.0
  0
VERTEX
  5
E9F
  8
LAYER01
  6
CONTINUOUS
 62
     7
 10
4805.2873790000012
 20
1035.098853
 30
0.0
  0
VERTEX
  5
EA0
  8
LAYER01
  6
CONTINUOUS
 62
     7
 10
4807.269851
 20
1042.037503
 30
0.0
  0
VERTEX
  5
EA1
  8
LAYER01
  6
CONTINUOUS
 62
     7
 10
4809.2523220000003
 20
1048.976152
 30
0.0
  0
VERTEX
  5
EA2
  8
LAYER01
  6
CONTINUOUS
 62
     7
 10
4812.2260289999986
 20
1054.923567
 30
0.0
  0
VERTEX
  5
EA3
  8
LAYER01
  6
CONTINUOUS
 62
     7
 10
4816.1909720000012
 20
1060.870981
 30
0.0
  0
VERTEX
  5
EA4
  8
LAYER01
  6
CONTINUOUS
 62
     7
 10
4820.1559150000003
 20
1065.8271589999999
 30
0.0
  0
VERTEX
  5
EA5
  8
LAYER01
  6
CONTINUOUS
 62
     7
 10
4825.1120929999997
 20
1070.783338
 30
0.0
  0
VERTEX
  5
EA6
  8
LAYER01
  6
CONTINUOUS
 62
     7
 10
4830.0682720000004
 20
1075.7395160000001
 30
0.0
  0
VERTEX
  5
EA7
  8
LAYER01
  6
CONTINUOUS
 62
     7
 10
4835.0244499999999
 20
1079.704459
 30
0.0
  0
VERTEX
  5
EA8
  8
LAYER01
  6
CONTINUOUS
 62
     7
 10
4840.9718640000001
 20
1083.6694010000001
 30
0.0
  0
VERTEX
  5
EA9
  8
LAYER01
  6
CONTINUOUS
 62
     7
 10
4847.9105140000001
 20
1086.6431090000001
 30
0.0
  0
VERTEX
  5
EAA
  8
LAYER01
  6
CONTINUOUS
 62
     7
 10
4853.8579280000004
 20
1088.6255799999999
 30
0.0
  0
VERTEX
  5
EAB
  8
LAYER01
  6
CONTINUOUS
 62
     7
 10
4860.7965780000013
 20
1090.6080509999999
 30
0.0
  0
VERTEX
  5
EAC
  8
LAYER01
  6
CONTINUOUS
 62
     7
 10
4867.7352279999996
 20
1091.599287
 30
0.0
  0
VERTEX
  5
EAD
  8
LAYER01
  6
CONTINUOUS
 62
     7
 10
4875.665113
 20
1091.599287
 30
0.0
  0
VERTEX
  5
EAE
  8
LAYER01
  6
CONTINUOUS
 62
     7
 10
4875.665113
 20
1091.599287
 30
0.0
  0
VERTEX
  5
EAF
  8
LAYER01
  6
CONTINUOUS
 62
     7
 10
4882.6037630000001
 20
1090.6080509999999
 30
0.0
  0
VERTEX
  5
EB0
  8
LAYER01
  6
CONTINUOUS
 62
     7
 10
4889.5424130000001
 20
1089.616816
 30
0.0
  0
VERTEX
  5
EB1
  8
LAYER01
  6
CONTINUOUS
 62
     7
 10
4895.4898270000003
 20
1087.6343440000001
 30
0.0
  0
VERTEX
  5
EB2
  8
LAYER01
  6
CONTINUOUS
 62
     7
 10
4902.4284770000004
 20
1085.651873
 30
0.0
  0
VERTEX
  5
EB3
  8
LAYER01
  6
CONTINUOUS
 62
     7
 10
4907.3846549999998
 20
1082.6781659999999
 30
0.0
  0
VERTEX
  5
EB4
  8
LAYER01
  6
CONTINUOUS
 62
     7
 10
4913.332069
 20
1078.713223
 30
0.0
  0
VERTEX
  5
EB5
  8
LAYER01
  6
CONTINUOUS
 62
     7
 10
4918.2882479999989
 20
1074.74828
 30
0.0
  0
VERTEX
  5
EB6
  8
LAYER01
  6
CONTINUOUS
 62
     7
 10
4923.2444260000002
 20
1070.783338
 30
0.0
  0
VERTEX
  5
EB7
  8
LAYER01
  6
CONTINUOUS
 62
     7
 10
4927.2093690000002
 20
1065.8271589999999
 30
0.0
  0
VERTEX
  5
EB8
  8
LAYER01
  6
CONTINUOUS
 62
     7
 10
4931.1743120000001
 20
1059.879745
 30
0.0
  0
VERTEX
  5
EB9
  8
LAYER01
  6
CONTINUOUS
 62
     7
 10
4935.1392539999997
 20
1054.923567
 30
0.0
  0
VERTEX
  5
EBA
  8
LAYER01
  6
CONTINUOUS
 62
     7
 10
4938.1129609999998
 20
1048.976152
 30
0.0
  0
VERTEX
  5
EBB
  8
LAYER01
  6
CONTINUOUS
 62
     7
 10
4940.0954329999986
 20
1042.037503
 30
0.0
  0
VERTEX
  5
EBC
  8
LAYER01
  6
CONTINUOUS
 62
     7
 10
4942.0779039999998
 20
1036.0900879999999
 30
0.0
  0
VERTEX
  5
EBD
  8
LAYER01
  6
CONTINUOUS
 62
     7
 10
4943.0691399999996
 20
1029.151439
 30
0.0
  0
VERTEX
  5
EBE
  8
LAYER01
  6
CONTINUOUS
 62
     7
 10
4943.0691399999996
 20
1022.212789
 30
0.0
  0
VERTEX
  5
EBF
  8
LAYER01
  6
CONTINUOUS
 62
     7
 10
4943.0691399999996
 20
1022.212789
 30
0.0
  0
VERTEX
  5
EC0
  8
LAYER01
  6
CONTINUOUS
 62
     7
 10
4943.0691399999996
 20
1014.282903
 30
0.0
  0
VERTEX
  5
EC1
  8
LAYER01
  6
CONTINUOUS
 62
     7
 10
4942.0779039999998
 20
1007.344254
 30
0.0
  0
VERTEX
  5
EC2
  8
LAYER01
  6
CONTINUOUS
 62
     7
 10
4941.0866689999993
 20
1000.405604
 30
0.0
  0
VERTEX
  5
EC3
  8
LAYER01
  6
CONTINUOUS
 62
     7
 10
4938.1129609999998
 20
994.45819000000006
 30
0.0
  0
VERTEX
  5
EC4
  8
LAYER01
  6
CONTINUOUS
 62
     7
 10
4936.1304899999996
 20
987.51954000000001
 30
0.0
  0
VERTEX
  5
EC5
  8
LAYER01
  6
CONTINUOUS
 62
     7
 10
4932.1655469999996
 20
981.57212600000003
 30
0.0
  0
VERTEX
  5
EC6
  8
LAYER01
  6
CONTINUOUS
 62
     7
 10
4928.200605
 20
975.62471199999993
 30
0.0
  0
VERTEX
  5
EC7
  8
LAYER01
  6
CONTINUOUS
 62
     7
 10
4923.2444260000002
 20
970.66853300000002
 30
0.0
  0
VERTEX
  5
EC8
  8
LAYER01
  6
CONTINUOUS
 62
     7
 10
4918.2882479999989
 20
965.71235500000012
 30
0.0
  0
VERTEX
  5
EC9
  8
LAYER01
  6
CONTINUOUS
 62
     7
 10
4913.332069
 20
961.74741199999983
 30
0.0
  0
VERTEX
  5
ECA
  8
LAYER01
  6
CONTINUOUS
 62
     7
 10
4907.3846549999998
 20
957.78246899999988
 30
0.0
  0
VERTEX
  5
ECB
  8
LAYER01
  6
CONTINUOUS
 62
     7
 10
4901.4372409999996
 20
954.80876199999977
 30
0.0
  0
VERTEX
  5
ECC
  8
LAYER01
  6
CONTINUOUS
 62
     7
 10
4894.4985909999996
 20
952.82629099999997
 30
0.0
  0
VERTEX
  5
ECD
  8
LAYER01
  6
CONTINUOUS
 62
     7
 10
4887.5599410000004
 20
950.84381899999994
 30
0.0
  0
VERTEX
  5
ECE
  8
LAYER01
  6
CONTINUOUS
 62
     7
 10
4880.6212919999998
 20
949.85258399999987
 30
0.0
  0
VERTEX
  5
ECF
  8
LAYER01
  6
CONTINUOUS
 62
     7
 10
4873.6826419999998
 20
948.86134799999991
 30
0.0
  0
VERTEX
  5
ED0
  8
LAYER01
  6
CONTINUOUS
 62
     7
 10
4873.6826419999998
 20
948.86134799999991
 30
0.0
  0
SEQEND
  5
ED1
  8
LAYER01
  6
CONTINUOUS
 62
     7
  0
POLYLINE
  5
89A
  8
LAYER01
  6
CONTINUOUS
 62
     7
 66
     1
 10
0.0
 20
0.0
 30
0.0
 70
     1
  0
VERTEX
  5
ED2
  8
LAYER01
  6
CONTINUOUS
 62
     7
 10
4952.9814969999989
 20
1127.283772
 30
0.0
  0
VERTEX
  5
ED3
  8
LAYER01
  6
CONTINUOUS
 62
     7
 10
5058.0524799999994
 20
1127.283772
 30
0.0
  0
VERTEX
  5
ED4
  8
LAYER01
  6
CONTINUOUS
 62
     7
 10
5058.0524799999994
 20
1127.283772
 30
0.0
  0
VERTEX
  5
ED5
  8
LAYER01
  6
CONTINUOUS
 62
     7
 10
5069.9473079999989
 20
1125.3013000000001
 30
0.0
  0
VERTEX
  5
ED6
  8
LAYER01
  6
CONTINUOUS
 62
     7
 10
5080.8509000000013
 20
1120.3451219999999
 30
0.0
  0
VERTEX
  5
ED7
  8
LAYER01
  6
CONTINUOUS
 62
     7
 10
5089.7720220000001
 20
1114.397708
 30
0.0
  0
VERTEX
  5
ED8
  8
LAYER01
  6
CONTINUOUS
 62
     7
 10
5097.7019069999997
 20
1106.4678220000001
 30
0.0
  0
VERTEX
  5
ED9
  8
LAYER01
  6
CONTINUOUS
 62
     7
 10
5104.6405569999988
 20
1098.5379370000001
 30
0.0
  0
VERTEX
  5
EDA
  8
LAYER01
  6
CONTINUOUS
 62
     7
 10
5109.5967350000001
 20
1088.6255799999999
 30
0.0
  0
VERTEX
  5
EDB
  8
LAYER01
  6
CONTINUOUS
 62
     7
 10
5112.5704420000002
 20
1076.7307519999999
 30
0.0
  0
VERTEX
  5
EDC
  8
LAYER01
  6
CONTINUOUS
 62
     7
 10
5113.5616779999991
 20
1065.8271589999999
 30
0.0
  0
VERTEX
  5
EDD
  8
LAYER01
  6
CONTINUOUS
 62
     7
 10
5113.5616779999991
 20
1065.8271589999999
 30
0.0
  0
VERTEX
  5
EDE
  8
LAYER01
  6
CONTINUOUS
 62
     7
 10
5112.5704420000002
 20
1053.932331
 30
0.0
  0
VERTEX
  5
EDF
  8
LAYER01
  6
CONTINUOUS
 62
     7
 10
5110.5879710000008
 20
1044.019974
 30
0.0
  0
VERTEX
  5
EE0
  8
LAYER01
  6
CONTINUOUS
 62
     7
 10
5106.623028
 20
1034.1076169999999
 30
0.0
  0
VERTEX
  5
EE1
  8
LAYER01
  6
CONTINUOUS
 62
     7
 10
5101.6668499999987
 20
1025.186496
 30
0.0
  0
VERTEX
  5
EE2
  8
LAYER01
  6
CONTINUOUS
 62
     7
 10
5094.7281999999987
 20
1017.25661
 30
0.0
  0
VERTEX
  5
EE3
  8
LAYER01
  6
CONTINUOUS
 62
     7
 10
5087.7895500000004
 20
1011.309196
 30
0.0
  0
VERTEX
  5
EE4
  8
LAYER01
  6
CONTINUOUS
 62
     7
 10
5077.8771930000003
 20
1005.3617819999999
 30
0.0
  0
VERTEX
  5
EE5
  8
LAYER01
  6
CONTINUOUS
 62
     7
 10
5067.9648369999986
 20
1001.396839
 30
0.0
  0
VERTEX
  5
EE6
  8
LAYER01
  6
CONTINUOUS
 62
     7
 10
5132.3951560000014
 20
915.15933499999983
 30
0.0
  0
VERTEX
  5
EE7
  8
LAYER01
  6
CONTINUOUS
 62
     7
 10
5082.8333720000001
 20
915.15933499999983
 30
0.0
  0
VERTEX
  5
EE8
  8
LAYER01
  6
CONTINUOUS
 62
     7
 10
4996.5958669999991
 20
1025.186496
 30
0.0
  0
VERTEX
  5
EE9
  8
LAYER01
  6
CONTINUOUS
 62
     7
 10
5045.166416
 20
1025.186496
 30
0.0
  0
VERTEX
  5
EEA
  8
LAYER01
  6
CONTINUOUS
 62
     7
 10
5045.166416
 20
1025.186496
 30
0.0
  0
VERTEX
  5
EEB
  8
LAYER01
  6
CONTINUOUS
 62
     7
 10
5051.1138299999993
 20
1027.1689670000001
 30
0.0
  0
VERTEX
  5
EEC
  8
LAYER01
  6
CONTINUOUS
 62
     7
 10
5056.0700079999988
 20
1029.151439
 30
0.0
  0
VERTEX
  5
EED
  8
LAYER01
  6
CONTINUOUS
 62
     7
 10
5060.0349509999996
 20
1033.116381
 30
0.0
  0
VERTEX
  5
EEE
  8
LAYER01
  6
CONTINUOUS
 62
     7
 10
5063.9998939999996
 20
1037.081324
 30
0.0
  0
VERTEX
  5
EEF
  8
LAYER01
  6
CONTINUOUS
 62
     7
 10
5066.9736009999997
 20
1042.037503
 30
0.0
  0
VERTEX
  5
EF0
  8
LAYER01
  6
CONTINUOUS
 62
     7
 10
5069.9473079999989
 20
1046.9936809999999
 30
0.0
  0
VERTEX
  5
EF1
  8
LAYER01
  6
CONTINUOUS
 62
     7
 10
5070.9385439999996
 20
1052.9410949999999
 30
0.0
  0
VERTEX
  5
EF2
  8
LAYER01
  6
CONTINUOUS
 62
     7
 10
5070.9385439999996
 20
1058.8885090000001
 30
0.0
  0
VERTEX
  5
EF3
  8
LAYER01
  6
CONTINUOUS
 62
     7
 10
5070.9385439999996
 20
1058.8885090000001
 30
0.0
  0
VERTEX
  5
EF4
  8
LAYER01
  6
CONTINUOUS
 62
     7
 10
5070.9385439999996
 20
1064.8359230000001
 30
0.0
  0
VERTEX
  5
EF5
  8
LAYER01
  6
CONTINUOUS
 62
     7
 10
5068.9560719999999
 20
1069.7921020000001
 30
0.0
  0
VERTEX
  5
EF6
  8
LAYER01
  6
CONTINUOUS
 62
     7
 10
5066.9736009999997
 20
1074.74828
 30
0.0
  0
VERTEX
  5
EF7
  8
LAYER01
  6
CONTINUOUS
 62
     7
 10
5063.9998939999996
 20
1079.704459
 30
0.0
  0
VERTEX
  5
EF8
  8
LAYER01
  6
CONTINUOUS
 62
     7
 10
5060.0349509999996
 20
1083.6694010000001
 30
0.0
  0
VERTEX
  5
EF9
  8
LAYER01
  6
CONTINUOUS
 62
     7
 10
5056.0700079999988
 20
1086.6431090000001
 30
0.0
  0
VERTEX
  5
EFA
  8
LAYER01
  6
CONTINUOUS
 62
     7
 10
5050.1225940000004
 20
1089.616816
 30
0.0
  0
VERTEX
  5
EFB
  8
LAYER01
  6
CONTINUOUS
 62
     7
 10
5045.166416
 20
1091.599287
 30
0.0
  0
VERTEX
  5
EFC
  8
LAYER01
  6
CONTINUOUS
 62
     7
 10
4988.6659820000004
 20
1091.599287
 30
0.0
  0
VERTEX
  5
EFD
  8
LAYER01
  6
CONTINUOUS
 62
     7
 10
4952.9814969999989
 20
1127.283772
 30
0.0
  0
VERTEX
  5
EFE
  8
LAYER01
  6
CONTINUOUS
 62
     7
 10
4952.9814969999989
 20
1127.283772
 30
0.0
  0
SEQEND
  5
EFF
  8
LAYER01
  6
CONTINUOUS
 62
     7
  0
POLYLINE
  5
89B
  8
LAYER01
  6
CONTINUOUS
 62
     7
 66
     1
 10
0.0
 20
0.0
 30
0.0
 70
     1
  0
VERTEX
  5
F00
  8
LAYER01
  6
CONTINUOUS
 62
     7
 10
5159.15852
 20
1074.74828
 30
0.0
  0
VERTEX
  5
F01
  8
LAYER01
  6
CONTINUOUS
 62
     7
 10
5159.15852
 20
1074.74828
 30
0.0
  0
VERTEX
  5
F02
  8
LAYER01
  6
CONTINUOUS
 62
     7
 10
5164.1146979999994
 20
1075.7395160000001
 30
0.0
  0
VERTEX
  5
F03
  8
LAYER01
  6
CONTINUOUS
 62
     7
 10
5169.0708770000001
 20
1076.7307519999999
 30
0.0
  0
VERTEX
  5
F04
  8
LAYER01
  6
CONTINUOUS
 62
     7
 10
5174.0270549999987
 20
1079.704459
 30
0.0
  0
VERTEX
  5
F05
  8
LAYER01
  6
CONTINUOUS
 62
     7
 10
5177.9919979999986
 20
1082.6781659999999
 30
0.0
  0
VERTEX
  5
F06
  8
LAYER01
  6
CONTINUOUS
 62
     7
 10
5180.9657049999996
 20
1086.6431090000001
 30
0.0
  0
VERTEX
  5
F07
  8
LAYER01
  6
CONTINUOUS
 62
     7
 10
5182.9481759999999
 20
1090.6080509999999
 30
0.0
  0
VERTEX
  5
F08
  8
LAYER01
  6
CONTINUOUS
 62
     7
 10
5184.9306479999987
 20
1095.56423
 30
0.0
  0
VERTEX
  5
F09
  8
LAYER01
  6
CONTINUOUS
 62
     7
 10
5184.9306479999987
 20
1101.5116439999999
 30
0.0
  0
VERTEX
  5
F0A
  8
LAYER01
  6
CONTINUOUS
 62
     7
 10
5184.9306479999987
 20
1101.5116439999999
 30
0.0
  0
VERTEX
  5
F0B
  8
LAYER01
  6
CONTINUOUS
 62
     7
 10
5184.9306479999987
 20
1106.4678220000001
 30
0.0
  0
VERTEX
  5
F0C
  8
LAYER01
  6
CONTINUOUS
 62
     7
 10
5182.9481759999999
 20
1111.4240010000001
 30
0.0
  0
VERTEX
  5
F0D
  8
LAYER01
  6
CONTINUOUS
 62
     7
 10
5180.9657049999996
 20
1115.3889429999999
 30
0.0
  0
VERTEX
  5
F0E
  8
LAYER01
  6
CONTINUOUS
 62
     7
 10
5177.9919979999986
 20
1119.3538860000001
 30
0.0
  0
VERTEX
  5
F0F
  8
LAYER01
  6
CONTINUOUS
 62
     7
 10
5174.0270549999987
 20
1122.327593
 30
0.0
  0
VERTEX
  5
F10
  8
LAYER01
  6
CONTINUOUS
 62
     7
 10
5169.0708770000001
 20
1125.3013000000001
 30
0.0
  0
VERTEX
  5
F11
  8
LAYER01
  6
CONTINUOUS
 62
     7
 10
5164.1146979999994
 20
1126.2925359999999
 30
0.0
  0
VERTEX
  5
F12
  8
LAYER01
  6
CONTINUOUS
 62
     7
 10
5159.15852
 20
1127.283772
 30
0.0
  0
VERTEX
  5
F13
  8
LAYER01
  6
CONTINUOUS
 62
     7
 10
5159.15852
 20
1127.283772
 30
0.0
  0
VERTEX
  5
F14
  8
LAYER01
  6
CONTINUOUS
 62
     7
 10
5154.2023409999993
 20
1126.2925359999999
 30
0.0
  0
VERTEX
  5
F15
  8
LAYER01
  6
CONTINUOUS
 62
     7
 10
5149.2461629999998
 20
1125.3013000000001
 30
0.0
  0
VERTEX
  5
F16
  8
LAYER01
  6
CONTINUOUS
 62
     7
 10
5144.289984
 20
1122.327593
 30
0.0
  0
VERTEX
  5
F17
  8
LAYER01
  6
CONTINUOUS
 62
     7
 10
5140.3250420000004
 20
1119.3538860000001
 30
0.0
  0
VERTEX
  5
F18
  8
LAYER01
  6
CONTINUOUS
 62
     7
 10
5137.3513350000003
 20
1115.3889429999999
 30
0.0
  0
VERTEX
  5
F19
  8
LAYER01
  6
CONTINUOUS
 62
     7
 10
5135.3688629999997
 20
1111.4240010000001
 30
0.0
  0
VERTEX
  5
F1A
  8
LAYER01
  6
CONTINUOUS
 62
     7
 10
5133.3863920000013
 20
1106.4678220000001
 30
0.0
  0
VERTEX
  5
F1B
  8
LAYER01
  6
CONTINUOUS
 62
     7
 10
5133.3863920000013
 20
1101.5116439999999
 30
0.0
  0
VERTEX
  5
F1C
  8
LAYER01
  6
CONTINUOUS
 62
     7
 10
5133.3863920000013
 20
1101.5116439999999
 30
0.0
  0
VERTEX
  5
F1D
  8
LAYER01
  6
CONTINUOUS
 62
     7
 10
5133.3863920000013
 20
1095.56423
 30
0.0
  0
VERTEX
  5
F1E
  8
LAYER01
  6
CONTINUOUS
 62
     7
 10
5135.3688629999997
 20
1090.6080509999999
 30
0.0
  0
VERTEX
  5
F1F
  8
LAYER01
  6
CONTINUOUS
 62
     7
 10
5137.3513350000003
 20
1086.6431090000001
 30
0.0
  0
VERTEX
  5
F20
  8
LAYER01
  6
CONTINUOUS
 62
     7
 10
5140.3250420000004
 20
1082.6781659999999
 30
0.0
  0
VERTEX
  5
F21
  8
LAYER01
  6
CONTINUOUS
 62
     7
 10
5144.289984
 20
1079.704459
 30
0.0
  0
VERTEX
  5
F22
  8
LAYER01
  6
CONTINUOUS
 62
     7
 10
5149.2461629999998
 20
1076.7307519999999
 30
0.0
  0
VERTEX
  5
F23
  8
LAYER01
  6
CONTINUOUS
 62
     7
 10
5154.2023409999993
 20
1075.7395160000001
 30
0.0
  0
VERTEX
  5
F24
  8
LAYER01
  6
CONTINUOUS
 62
     7
 10
5159.15852
 20
1074.74828
 30
0.0
  0
VERTEX
  5
F25
  8
LAYER01
  6
CONTINUOUS
 62
     7
 10
5159.15852
 20
1074.74828
 30
0.0
  0
SEQEND
  5
F26
  8
LAYER01
  6
CONTINUOUS
 62
     7
  0
POLYLINE
  5
89C
  8
LAYER01
  6
CONTINUOUS
 62
     7
 66
     1
 10
0.0
 20
0.0
 30
0.0
 70
     1
  0
VERTEX
  5
F27
  8
LAYER01
  6
CONTINUOUS
 62
     7
 10
5159.15852
 20
1123.3188290000001
 30
0.0
  0
VERTEX
  5
F28
  8
LAYER01
  6
CONTINUOUS
 62
     7
 10
5159.15852
 20
1123.3188290000001
 30
0.0
  0
VERTEX
  5
F29
  8
LAYER01
  6
CONTINUOUS
 62
     7
 10
5163.1234629999999
 20
1122.327593
 30
0.0
  0
VERTEX
  5
F2A
  8
LAYER01
  6
CONTINUOUS
 62
     7
 10
5167.0884050000004
 20
1121.336358
 30
0.0
  0
VERTEX
  5
F2B
  8
LAYER01
  6
CONTINUOUS
 62
     7
 10
5171.0533480000004
 20
1119.3538860000001
 30
0.0
  0
VERTEX
  5
F2C
  8
LAYER01
  6
CONTINUOUS
 62
     7
 10
5174.0270549999987
 20
1116.380179
 30
0.0
  0
VERTEX
  5
F2D
  8
LAYER01
  6
CONTINUOUS
 62
     7
 10
5177.0007619999997
 20
1113.4064719999999
 30
0.0
  0
VERTEX
  5
F2E
  8
LAYER01
  6
CONTINUOUS
 62
     7
 10
5178.9832340000003
 20
1109.4415289999999
 30
0.0
  0
VERTEX
  5
F2F
  8
LAYER01
  6
CONTINUOUS
 62
     7
 10
5180.9657049999996
 20
1105.4765870000001
 30
0.0
  0
VERTEX
  5
F30
  8
LAYER01
  6
CONTINUOUS
 62
     7
 10
5180.9657049999996
 20
1101.5116439999999
 30
0.0
  0
VERTEX
  5
F31
  8
LAYER01
  6
CONTINUOUS
 62
     7
 10
5180.9657049999996
 20
1101.5116439999999
 30
0.0
  0
VERTEX
  5
F32
  8
LAYER01
  6
CONTINUOUS
 62
     7
 10
5180.9657049999996
 20
1096.5554649999999
 30
0.0
  0
VERTEX
  5
F33
  8
LAYER01
  6
CONTINUOUS
 62
     7
 10
5178.9832340000003
 20
1092.5905230000001
 30
0.0
  0
VERTEX
  5
F34
  8
LAYER01
  6
CONTINUOUS
 62
     7
 10
5177.0007619999997
 20
1088.6255799999999
 30
0.0
  0
VERTEX
  5
F35
  8
LAYER01
  6
CONTINUOUS
 62
     7
 10
5174.0270549999987
 20
1085.651873
 30
0.0
  0
VERTEX
  5
F36
  8
LAYER01
  6
CONTINUOUS
 62
     7
 10
5171.0533480000004
 20
1082.6781659999999
 30
0.0
  0
VERTEX
  5
F37
  8
LAYER01
  6
CONTINUOUS
 62
     7
 10
5167.0884050000004
 20
1080.695694
 30
0.0
  0
VERTEX
  5
F38
  8
LAYER01
  6
CONTINUOUS
 62
     7
 10
5163.1234629999999
 20
1079.704459
 30
0.0
  0
VERTEX
  5
F39
  8
LAYER01
  6
CONTINUOUS
 62
     7
 10
5159.15852
 20
1079.704459
 30
0.0
  0
VERTEX
  5
F3A
  8
LAYER01
  6
CONTINUOUS
 62
     7
 10
5159.15852
 20
1079.704459
 30
0.0
  0
VERTEX
  5
F3B
  8
LAYER01
  6
CONTINUOUS
 62
     7
 10
5155.193577
 20
1079.704459
 30
0.0
  0
VERTEX
  5
F3C
  8
LAYER01
  6
CONTINUOUS
 62
     7
 10
5150.2373990000006
 20
1080.695694
 30
0.0
  0
VERTEX
  5
F3D
  8
LAYER01
  6
CONTINUOUS
 62
     7
 10
5147.2636920000014
 20
1082.6781659999999
 30
0.0
  0
VERTEX
  5
F3E
  8
LAYER01
  6
CONTINUOUS
 62
     7
 10
5143.2987490000014
 20
1085.651873
 30
0.0
  0
VERTEX
  5
F3F
  8
LAYER01
  6
CONTINUOUS
 62
     7
 10
5141.3162769999999
 20
1088.6255799999999
 30
0.0
  0
VERTEX
  5
F40
  8
LAYER01
  6
CONTINUOUS
 62
     7
 10
5139.3338059999996
 20
1092.5905230000001
 30
0.0
  0
VERTEX
  5
F41
  8
LAYER01
  6
CONTINUOUS
 62
     7
 10
5137.3513350000003
 20
1096.5554649999999
 30
0.0
  0
VERTEX
  5
F42
  8
LAYER01
  6
CONTINUOUS
 62
     7
 10
5137.3513350000003
 20
1101.5116439999999
 30
0.0
  0
VERTEX
  5
F43
  8
LAYER01
  6
CONTINUOUS
 62
     7
 10
5137.3513350000003
 20
1101.5116439999999
 30
0.0
  0
VERTEX
  5
F44
  8
LAYER01
  6
CONTINUOUS
 62
     7
 10
5137.3513350000003
 20
1105.4765870000001
 30
0.0
  0
VERTEX
  5
F45
  8
LAYER01
  6
CONTINUOUS
 62
     7
 10
5139.3338059999996
 20
1109.4415289999999
 30
0.0
  0
VERTEX
  5
F46
  8
LAYER01
  6
CONTINUOUS
 62
     7
 10
5141.3162769999999
 20
1113.4064719999999
 30
0.0
  0
VERTEX
  5
F47
  8
LAYER01
  6
CONTINUOUS
 62
     7
 10
5143.2987490000014
 20
1116.380179
 30
0.0
  0
VERTEX
  5
F48
  8
LAYER01
  6
CONTINUOUS
 62
     7
 10
5147.2636920000014
 20
1119.3538860000001
 30
0.0
  0
VERTEX
  5
F49
  8
LAYER01
  6
CONTINUOUS
 62
     7
 10
5150.2373990000006
 20
1121.336358
 30
0.0
  0
VERTEX
  5
F4A
  8
LAYER01
  6
CONTINUOUS
 62
     7
 10
5155.193577
 20
1122.327593
 30
0.0
  0
VERTEX
  5
F4B
  8
LAYER01
  6
CONTINUOUS
 62
     7
 10
5159.15852
 20
1123.3188290000001
 30
0.0
  0
VERTEX
  5
F4C
  8
LAYER01
  6
CONTINUOUS
 62
     7
 10
5159.15852
 20
1123.3188290000001
 30
0.0
  0
SEQEND
  5
F4D
  8
LAYER01
  6
CONTINUOUS
 62
     7
  0
POLYLINE
  5
89D
  8
LAYER01
  6
CONTINUOUS
 62
     7
 66
     1
 10
0.0
 20
0.0
 30
0.0
 70
     1
  0
VERTEX
  5
F4E
  8
LAYER01
  6
CONTINUOUS
 62
     7
 10
5163.1234629999999
 20
1099.529172
 30
0.0
  0
VERTEX
  5
F4F
  8
LAYER01
  6
CONTINUOUS
 62
     7
 10
5163.1234629999999
 20
1099.529172
 30
0.0
  0
VERTEX
  5
F50
  8
LAYER01
  6
CONTINUOUS
 62
     7
 10
5166.09717
 20
1100.5204080000001
 30
0.0
  0
VERTEX
  5
F51
  8
LAYER01
  6
CONTINUOUS
 62
     7
 10
5169.0708770000001
 20
1101.5116439999999
 30
0.0
  0
VERTEX
  5
F52
  8
LAYER01
  6
CONTINUOUS
 62
     7
 10
5171.0533480000004
 20
1104.485351
 30
0.0
  0
VERTEX
  5
F53
  8
LAYER01
  6
CONTINUOUS
 62
     7
 10
5171.0533480000004
 20
1107.4590579999999
 30
0.0
  0
VERTEX
  5
F54
  8
LAYER01
  6
CONTINUOUS
 62
     7
 10
5171.0533480000004
 20
1107.4590579999999
 30
0.0
  0
VERTEX
  5
F55
  8
LAYER01
  6
CONTINUOUS
 62
     7
 10
5171.0533480000004
 20
1111.4240010000001
 30
0.0
  0
VERTEX
  5
F56
  8
LAYER01
  6
CONTINUOUS
 62
     7
 10
5168.0796409999994
 20
1114.397708
 30
0.0
  0
VERTEX
  5
F57
  8
LAYER01
  6
CONTINUOUS
 62
     7
 10
5165.1059340000002
 20
1115.3889429999999
 30
0.0
  0
VERTEX
  5
F58
  8
LAYER01
  6
CONTINUOUS
 62
     7
 10
5161.1409909999993
 20
1115.3889429999999
 30
0.0
  0
VERTEX
  5
F59
  8
LAYER01
  6
CONTINUOUS
 62
     7
 10
5149.2461629999998
 20
1115.3889429999999
 30
0.0
  0
VERTEX
  5
F5A
  8
LAYER01
  6
CONTINUOUS
 62
     7
 10
5149.2461629999998
 20
1086.6431090000001
 30
0.0
  0
VERTEX
  5
F5B
  8
LAYER01
  6
CONTINUOUS
 62
     7
 10
5153.2111059999997
 20
1086.6431090000001
 30
0.0
  0
VERTEX
  5
F5C
  8
LAYER01
  6
CONTINUOUS
 62
     7
 10
5153.2111059999997
 20
1099.529172
 30
0.0
  0
VERTEX
  5
F5D
  8
LAYER01
  6
CONTINUOUS
 62
     7
 10
5159.15852
 20
1099.529172
 30
0.0
  0
VERTEX
  5
F5E
  8
LAYER01
  6
CONTINUOUS
 62
     7
 10
5166.09717
 20
1086.6431090000001
 30
0.0
  0
VERTEX
  5
F5F
  8
LAYER01
  6
CONTINUOUS
 62
     7
 10
5171.0533480000004
 20
1086.6431090000001
 30
0.0
  0
VERTEX
  5
F60
  8
LAYER01
  6
CONTINUOUS
 62
     7
 10
5163.1234629999999
 20
1099.529172
 30
0.0
  0
VERTEX
  5
F61
  8
LAYER01
  6
CONTINUOUS
 62
     7
 10
5163.1234629999999
 20
1099.529172
 30
0.0
  0
SEQEND
  5
F62
  8
LAYER01
  6
CONTINUOUS
 62
     7
  0
POLYLINE
  5
89E
  8
LAYER01
  6
CONTINUOUS
 62
     7
 66
     1
 10
0.0
 20
0.0
 30
0.0
 70
     1
  0
VERTEX
  5
F63
  8
LAYER01
  6
CONTINUOUS
 62
     7
 10
5160.1497549999985
 20
1111.4240010000001
 30
0.0
  0
VERTEX
  5
F64
  8
LAYER01
  6
CONTINUOUS
 62
     7
 10
5160.1497549999985
 20
1111.4240010000001
 30
0.0
  0
VERTEX
  5
F65
  8
LAYER01
  6
CONTINUOUS
 62
     7
 10
5165.1059340000002
 20
1110.432765
 30
0.0
  0
VERTEX
  5
F66
  8
LAYER01
  6
CONTINUOUS
 62
     7
 10
5167.0884050000004
 20
1109.4415289999999
 30
0.0
  0
VERTEX
  5
F67
  8
LAYER01
  6
CONTINUOUS
 62
     7
 10
5167.0884050000004
 20
1107.4590579999999
 30
0.0
  0
VERTEX
  5
F68
  8
LAYER01
  6
CONTINUOUS
 62
     7
 10
5167.0884050000004
 20
1107.4590579999999
 30
0.0
  0
VERTEX
  5
F69
  8
LAYER01
  6
CONTINUOUS
 62
     7
 10
5166.09717
 20
1105.4765870000001
 30
0.0
  0
VERTEX
  5
F6A
  8
LAYER01
  6
CONTINUOUS
 62
     7
 10
5164.1146979999994
 20
1104.485351
 30
0.0
  0
VERTEX
  5
F6B
  8
LAYER01
  6
CONTINUOUS
 62
     7
 10
5158.167284000001
 20
1103.494115
 30
0.0
  0
VERTEX
  5
F6C
  8
LAYER01
  6
CONTINUOUS
 62
     7
 10
5153.2111059999997
 20
1103.494115
 30
0.0
  0
VERTEX
  5
F6D
  8
LAYER01
  6
CONTINUOUS
 62
     7
 10
5153.2111059999997
 20
1111.4240010000001
 30
0.0
  0
VERTEX
  5
F6E
  8
LAYER01
  6
CONTINUOUS
 62
     7
 10
5160.1497549999985
 20
1111.4240010000001
 30
0.0
  0
VERTEX
  5
F6F
  8
LAYER01
  6
CONTINUOUS
 62
     7
 10
5160.1497549999985
 20
1111.4240010000001
 30
0.0
  0
SEQEND
  5
F70
  8
LAYER01
  6
CONTINUOUS
 62
     7
  0
ENDBLK
  5
89F
  8
0
  0
ENDSEC
  0
SECTION
  2
ENTITIES
  0
INSERT
  5
5EC
  8
LAYER01
  2
TRIGO-G4
 10
0.0
 20
0.0
 30
0.0
  0
POLYLINE
  5
5EF
  8
LAYER01
  6
CONTINUOUS
 62
     7
 66
     1
 10
0.0
 20
0.0
 30
0.0
 70
     1
  0
VERTEX
  5
C9F
  8
LAYER01
  6
CONTINUOUS
 62
     7
 10
-6868.7909449999997
 20
-727.389546
 30
0.0
  0
VERTEX
  5
CA0
  8
LAYER01
  6
CONTINUOUS
 62
     7
 10
-6868.7909449999997
 20
2030.286415
 30
0.0
  0
VERTEX
  5
CA1
  8
LAYER01
  6
CONTINUOUS
 62
     7
 10
-2898.9497260000012
 20
2030.286415
 30
0.0
  0
VERTEX
  5
CA2
  8
LAYER01
  6
CONTINUOUS
 62
     7
 10
-2898.9497260000012
 20
-727.389546
 30
0.0
  0
SEQEND
  5
CA3
  8
LAYER01
  6
CONTINUOUS
 62
     7
  0
INSERT
  5
5F5
  8
LAYER01
  2
TRIGO-G5
 10
0.0
 20
0.0
 30
0.0
  0
INSERT
  5
5F7
  8
LAYER01
  2
TRIGO-G7
 10
0.0
 20
0.0
 30
0.0
  0
TEXT
  5
5F8
  8
LAYER01
  6
CONTINUOUS
 62
     7
 10
-4251.2714550000001
 20
695.30065000000002
 30
0.0
 40
14.56
  1
--------------------------------------
  7
SIMPLEX
  0
TEXT
  5
5F9
  8
LAYER01
  6
CONTINUOUS
 62
     7
 10
-4251.2714550000001
 20
670.34064999999987
 30
0.0
 40
14.56
  1
Ausführung geprüft und freigegeben (Datum u. Unterschrift)
  7
SIMPLEX
  0
POLYLINE
  5
5FA
  8
0
  6
CONTINUOUS
 62
     7
 66
     1
 10
0.0
 20
0.0
 30
0.0
 70
     1
  0
VERTEX
  5
CA4
  8
0
  6
CONTINUOUS
 62
     7
 10
-5538.8394820000003
 20
-544.09723799999995
 30
0.0
  0
VERTEX
  5
CA5
  8
0
  6
CONTINUOUS
 62
     7
 10
-5538.8394820000003
 20
-535.09723799999995
 30
0.0
 42
0.4142140000000001
  0
VERTEX
  5
CA6
  8
0
  6
CONTINUOUS
 62
     7
 10
-5548.8394820000003
 20
-525.09723799999995
 30
0.0
  0
VERTEX
  5
CA7
  8
0
  6
CONTINUOUS
 62
     7
 10
-5561.8394820000003
 20
-525.09723799999995
 30
0.0
 42
-0.4142140000000001
  0
VERTEX
  5
CA8
  8
0
  6
CONTINUOUS
 62
     7
 10
-5566.8394820000003
 20
-520.09723799999995
 30
0.0
  0
VERTEX
  5
CA9
  8
0
  6
CONTINUOUS
 62
     7
 10
-5566.8394820000003
 20
-491.02279299999992
 30
0.0
 42
-0.345654
  0
VERTEX
  5
CAA
  8
0
  6
CONTINUOUS
 62
     7
 10
-5563.026073
 20
-486.16563300000001
 30
0.0
  0
VERTEX
  5
CAB
  8
0
  6
CONTINUOUS
 62
     7
 10
-5190.782389
 20
-395.227576
 30
0.0
  0
VERTEX
  5
CAC
  8
0
  6
CONTINUOUS
 62
     7
 10
-5190.782389
 20
-495.227576
 30
0.0
  0
VERTEX
  5
CAD
  8
0
  6
CONTINUOUS
 62
     7
 10
-5202.782389
 20
-495.227576
 30
0.0
  0
VERTEX
  5
CAE
  8
0
  6
CONTINUOUS
 62
     7
 10
-5202.782389
 20
-422.001397
 30
0.0
 42
0.487132
  0
VERTEX
  5
CAF
  8
0
  6
CONTINUOUS
 62
     7
 10
-5215.182753
 20
-412.29375800000003
 30
0.0
  0
VERTEX
  5
CB0
  8
0
  6
CONTINUOUS
 62
     7
 10
-5520.252797000001
 20
-487.72705500000001
 30
0.0
 42
0.344949
  0
VERTEX
  5
CB1
  8
0
  6
CONTINUOUS
 62
     7
 10
-5527.852433
 20
-497.43747000000002
 30
0.0
  0
VERTEX
  5
CB2
  8
0
  6
CONTINUOUS
 62
     7
 10
-5527.8394820000003
 20
-544.09723799999995
 30
0.0
  0
SEQEND
  5
CB3
  8
0
  6
CONTINUOUS
 62
     7
  0
POLYLINE
  5
60B
  8
0
  6
CONTINUOUS
 62
     7
 66
     1
 10
0.0
 20
0.0
 30
0.0
 70
     1
  0
VERTEX
  5
CB4
  8
0
  6
CONTINUOUS
 62
     7
 10
-5563.026073
 20
-486.16563300000001
 30
0.0
  0
VERTEX
  5
CB5
  8
0
  6
CONTINUOUS
 62
     7
 10
-5190.782389
 20
-395.227576
 30
0.0
  0
VERTEX
  5
CB6
  8
0
  6
CONTINUOUS
 62
     7
 10
-5190.782389
 20
-495.227576
 30
0.0
  0
VERTEX
  5
CB7
  8
0
  6
CONTINUOUS
 62
     7
 10
-5202.782389
 20
-495.227576
 30
0.0
  0
VERTEX
  5
CB8
  8
0
  6
CONTINUOUS
 62
     7
 10
-5202.782389
 20
-422.001397
 30
0.0
  0
VERTEX
  5
CB9
  8
0
  6
CONTINUOUS
 62
     7
 10
-5202.8234570000004
 20
-421.09603899999991
 30
0.0
  0
VERTEX
  5
CBA
  8
0
  6
CONTINUOUS
 62
     7
 10
-5202.9463239999995
 20
-420.19811600000003
 30
0.0
  0
VERTEX
  5
CBB
  8
0
  6
CONTINUOUS
 62
     7
 10
-5203.1499800000001
 20
-419.31500599999993
 30
0.0
  0
VERTEX
  5
CBC
  8
0
  6
CONTINUOUS
 62
     7
 10
-5203.432753
 20
-418.45395999999988
 30
0.0
  0
VERTEX
  5
CBD
  8
0
  6
CONTINUOUS
 62
     7
 10
-5203.7923200000014
 20
-417.622051
 30
0.0
  0
VERTEX
  5
CBE
  8
0
  6
CONTINUOUS
 62
     7
 10
-5204.2257280000003
 20
-416.82611299999991
 30
0.0
  0
VERTEX
  5
CBF
  8
0
  6
CONTINUOUS
 62
     7
 10
-5204.7294179999999
 20
-416.07268199999987
 30
0.0
  0
VERTEX
  5
CC0
  8
0
  6
CONTINUOUS
 62
     7
 10
-5205.2992509999985
 20
-415.36794800000001
 30
0.0
  0
VERTEX
  5
CC1
  8
0
  6
CONTINUOUS
 62
     7
 10
-5205.9305469999999
 20
-414.71769799999998
 30
0.0
  0
VERTEX
  5
CC2
  8
0
  6
CONTINUOUS
 62
     7
 10
-5206.6181219999999
 20
-414.12727299999989
 30
0.0
  0
VERTEX
  5
CC3
  8
0
  6
CONTINUOUS
 62
     7
 10
-5207.3563279999998
 20
-413.60152399999998
 30
0.0
  0
VERTEX
  5
CC4
  8
0
  6
CONTINUOUS
 62
     7
 10
-5208.1391020000001
 20
-413.14476799999989
 30
0.0
  0
VERTEX
  5
CC5
  8
0
  6
CONTINUOUS
 62
     7
 10
-5208.9600129999999
 20
-412.76075600000001
 30
0.0
  0
VERTEX
  5
CC6
  8
0
  6
CONTINUOUS
 62
     7
 10
-5209.8123200000009
 20
-412.45264400000002
 30
0.0
  0
VERTEX
  5
CC7
  8
0
  6
CONTINUOUS
 62
     7
 10
-5210.6890219999996
 20
-412.22296099999988
 30
0.0
  0
VERTEX
  5
CC8
  8
0
  6
CONTINUOUS
 62
     7
 10
-5211.5829180000001
 20
-412.07359400000001
 30
0.0
  0
VERTEX
  5
CC9
  8
0
  6
CONTINUOUS
 62
     7
 10
-5212.4866659999998
 20
-412.00577099999998
 30
0.0
  0
VERTEX
  5
CCA
  8
0
  6
CONTINUOUS
 62
     7
 10
-5213.3928429999996
 20
-412.02004699999998
 30
0.0
  0
VERTEX
  5
CCB
  8
0
  6
CONTINUOUS
 62
     7
 10
-5214.2940060000001
 20
-412.11630699999989
 30
0.0
  0
VERTEX
  5
CCC
  8
0
  6
CONTINUOUS
 62
     7
 10
-5215.182753
 20
-412.29375800000003
 30
0.0
  0
VERTEX
  5
CCD
  8
0
  6
CONTINUOUS
 62
     7
 10
-5520.252797000001
 20
-487.72705500000001
 30
0.0
  0
VERTEX
  5
CCE
  8
0
  6
CONTINUOUS
 62
     7
 10
-5520.8919409999999
 20
-487.90781699999991
 30
0.0
  0
VERTEX
  5
CCF
  8
0
  6
CONTINUOUS
 62
     7
 10
-5521.517675000001
 20
-488.13060899999988
 30
0.0
  0
VERTEX
  5
CD0
  8
0
  6
CONTINUOUS
 62
     7
 10
-5522.127238
 20
-488.39444800000012
 30
0.0
  0
VERTEX
  5
CD1
  8
0
  6
CONTINUOUS
 62
     7
 10
-5522.7179420000002
 20
-488.698172
 30
0.0
  0
VERTEX
  5
CD2
  8
0
  6
CONTINUOUS
 62
     7
 10
-5523.2871800000003
 20
-489.04043899999988
 30
0.0
  0
VERTEX
  5
CD3
  8
0
  6
CONTINUOUS
 62
     7
 10
-5523.832441999999
 20
-489.41973999999999
 30
0.0
  0
VERTEX
  5
CD4
  8
0
  6
CONTINUOUS
 62
     7
 10
-5524.351321000001
 20
-489.8344009999999
 30
0.0
  0
VERTEX
  5
CD5
  8
0
  6
CONTINUOUS
 62
     7
 10
-5524.8415279999999
 20
-490.28259299999991
 30
0.0
  0
VERTEX
  5
CD6
  8
0
  6
CONTINUOUS
 62
     7
 10
-5525.3009000000011
 20
-490.762338
 30
0.0
  0
VERTEX
  5
CD7
  8
0
  6
CONTINUOUS
 62
     7
 10
-5525.7274120000011
 20
-491.27152099999989
 30
0.0
  0
VERTEX
  5
CD8
  8
0
  6
CONTINUOUS
 62
     7
 10
-5526.119181
 20
-491.80789399999998
 30
0.0
  0
VERTEX
  5
CD9
  8
0
  6
CONTINUOUS
 62
     7
 10
-5526.4744789999986
 20
-492.36909100000003
 30
0.0
  0
VERTEX
  5
CDA
  8
0
  6
CONTINUOUS
 62
     7
 10
-5526.7917379999999
 20
-492.95263699999998
 30
0.0
  0
VERTEX
  5
CDB
  8
0
  6
CONTINUOUS
 62
     7
 10
-5527.0695580000001
 20
-493.55595699999998
 30
0.0
  0
VERTEX
  5
CDC
  8
0
  6
CONTINUOUS
 62
     7
 10
-5527.3067149999988
 20
-494.17638899999992
 30
0.0
  0
VERTEX
  5
CDD
  8
0
  6
CONTINUOUS
 62
     7
 10
-5527.5021610000013
 20
-494.811196
 30
0.0
  0
VERTEX
  5
CDE
  8
0
  6
CONTINUOUS
 62
     7
 10
-5527.6550349999998
 20
-495.4575769999999
 30
0.0
  0
VERTEX
  5
CDF
  8
0
  6
CONTINUOUS
 62
     7
 10
-5527.7646619999996
 20
-496.1126809999999
 30
0.0
  0
VERTEX
  5
CE0
  8
0
  6
CONTINUOUS
 62
     7
 10
-5527.8305579999987
 20
-496.773617
 30
0.0
  0
VERTEX
  5
CE1
  8
0
  6
CONTINUOUS
 62
     7
 10
-5527.852433
 20
-497.43747000000002
 30
0.0
  0
VERTEX
  5
CE2
  8
0
  6
CONTINUOUS
 62
     7
 10
-5527.8394820000003
 20
-544.09723799999995
 30
0.0
  0
VERTEX
  5
CE3
  8
0
  6
CONTINUOUS
 62
     7
 10
-5538.8394820000003
 20
-544.09723799999995
 30
0.0
  0
VERTEX
  5
CE4
  8
0
  6
CONTINUOUS
 62
     7
 10
-5538.8394820000003
 20
-535.09723799999995
 30
0.0
  0
VERTEX
  5
CE5
  8
0
  6
CONTINUOUS
 62
     7
 10
-5538.870308999999
 20
-534.31264699999986
 30
0.0
  0
VERTEX
  5
CE6
  8
0
  6
CONTINUOUS
 62
     7
 10
-5538.9625990000013
 20
-533.53289299999994
 30
0.0
  0
VERTEX
  5
CE7
  8
0
  6
CONTINUOUS
 62
     7
 10
-5539.1157830000002
 20
-532.7627839999999
 30
0.0
  0
VERTEX
  5
CE8
  8
0
  6
CONTINUOUS
 62
     7
 10
-5539.3289169999998
 20
-532.00706799999989
 30
0.0
  0
VERTEX
  5
CE9
  8
0
  6
CONTINUOUS
 62
     7
 10
-5539.6006870000001
 20
-531.27040299999987
 30
0.0
  0
VERTEX
  5
CEA
  8
0
  6
CONTINUOUS
 62
     7
 10
-5539.9294170000003
 20
-530.55733299999986
 30
0.0
  0
VERTEX
  5
CEB
  8
0
  6
CONTINUOUS
 62
     7
 10
-5540.3130810000002
 20
-529.872252
 30
0.0
  0
VERTEX
  5
CEC
  8
0
  6
CONTINUOUS
 62
     7
 10
-5540.749311999999
 20
-529.21938499999999
 30
0.0
  0
VERTEX
  5
CED
  8
0
  6
CONTINUOUS
 62
     7
 10
-5541.2354230000001
 20
-528.60275699999988
 30
0.0
  0
VERTEX
  5
CEE
  8
0
  6
CONTINUOUS
 62
     7
 10
-5541.7684149999986
 20
-528.02616999999987
 30
0.0
  0
VERTEX
  5
CEF
  8
0
  6
CONTINUOUS
 62
     7
 10
-5542.3450020000009
 20
-527.49317800000006
 30
0.0
  0
VERTEX
  5
CF0
  8
0
  6
CONTINUOUS
 62
     7
 10
-5542.9616299999998
 20
-527.00706799999989
 30
0.0
  0
VERTEX
  5
CF1
  8
0
  6
CONTINUOUS
 62
     7
 10
-5543.6144969999996
 20
-526.57083599999987
 30
0.0
  0
VERTEX
  5
CF2
  8
0
  6
CONTINUOUS
 62
     7
 10
-5544.2995770000007
 20
-526.18717199999992
 30
0.0
  0
VERTEX
  5
CF3
  8
0
  6
CONTINUOUS
 62
     7
 10
-5545.0126479999999
 20
-525.85844199999997
 30
0.0
  0
VERTEX
  5
CF4
  8
0
  6
CONTINUOUS
 62
     7
 10
-5545.7493119999999
 20
-525.58667200000002
 30
0.0
  0
VERTEX
  5
CF5
  8
0
  6
CONTINUOUS
 62
     7
 10
-5546.5050289999999
 20
-525.37353799999994
 30
0.0
  0
VERTEX
  5
CF6
  8
0
  6
CONTINUOUS
 62
     7
 10
-5547.2751379999991
 20
-525.22035400000004
 30
0.0
  0
VERTEX
  5
CF7
  8
0
  6
CONTINUOUS
 62
     7
 10
-5548.0548909999989
 20
-525.12806399999999
 30
0.0
  0
VERTEX
  5
CF8
  8
0
  6
CONTINUOUS
 62
     7
 10
-5548.8394820000003
 20
-525.09723799999995
 30
0.0
  0
VERTEX
  5
CF9
  8
0
  6
CONTINUOUS
 62
     7
 10
-5561.8394820000003
 20
-525.09723799999995
 30
0.0
  0
VERTEX
  5
CFA
  8
0
  6
CONTINUOUS
 62
     7
 10
-5562.2317780000012
 20
-525.08182399999998
 30
0.0
  0
VERTEX
  5
CFB
  8
0
  6
CONTINUOUS
 62
     7
 10
-5562.6216549999999
 20
-525.03567899999985
 30
0.0
  0
VERTEX
  5
CFC
  8
0
  6
CONTINUOUS
 62
     7
 10
-5563.0067090000002
 20
-524.95908699999995
 30
0.0
  0
VERTEX
  5
CFD
  8
0
  6
CONTINUOUS
 62
     7
 10
-5563.3845669999992
 20
-524.85252000000003
 30
0.0
  0
VERTEX
  5
CFE
  8
0
  6
CONTINUOUS
 62
     7
 10
-5563.7529000000004
 20
-524.71663499999988
 30
0.0
  0
VERTEX
  5
CFF
  8
0
  6
CONTINUOUS
 62
     7
 10
-5564.1094350000003
 20
-524.55227000000002
 30
0.0
  0
VERTEX
  5
D00
  8
0
  6
CONTINUOUS
 62
     7
 10
-5564.4519749999999
 20
-524.36043800000004
 30
0.0
  0
VERTEX
  5
D01
  8
0
  6
CONTINUOUS
 62
     7
 10
-5564.7784090000014
 20
-524.14232300000003
 30
0.0
  0
VERTEX
  5
D02
  8
0
  6
CONTINUOUS
 62
     7
 10
-5565.0867230000003
 20
-523.89926700000001
 30
0.0
  0
VERTEX
  5
D03
  8
0
  6
CONTINUOUS
 62
     7
 10
-5565.375016
 20
-523.63277199999993
 30
0.0
  0
VERTEX
  5
D04
  8
0
  6
CONTINUOUS
 62
     7
 10
-5565.6415120000001
 20
-523.34447799999998
 30
0.0
  0
VERTEX
  5
D05
  8
0
  6
CONTINUOUS
 62
     7
 10
-5565.884567000001
 20
-523.03616399999987
 30
0.0
  0
VERTEX
  5
D06
  8
0
  6
CONTINUOUS
 62
     7
 10
-5566.1026830000001
 20
-522.70973000000004
 30
0.0
  0
VERTEX
  5
D07
  8
0
  6
CONTINUOUS
 62
     7
 10
-5566.2945149999996
 20
-522.36719000000005
 30
0.0
  0
VERTEX
  5
D08
  8
0
  6
CONTINUOUS
 62
     7
 10
-5566.4588800000001
 20
-522.01065499999993
 30
0.0
  0
VERTEX
  5
D09
  8
0
  6
CONTINUOUS
 62
     7
 10
-5566.5947649999998
 20
-521.64232300000003
 30
0.0
  0
VERTEX
  5
D0A
  8
0
  6
CONTINUOUS
 62
     7
 10
-5566.7013319999996
 20
-521.26446399999986
 30
0.0
  0
VERTEX
  5
D0B
  8
0
  6
CONTINUOUS
 62
     7
 10
-5566.777924
 20
-520.87941000000001
 30
0.0
  0
VERTEX
  5
D0C
  8
0
  6
CONTINUOUS
 62
     7
 10
-5566.8240689999993
 20
-520.48953300000005
 30
0.0
  0
VERTEX
  5
D0D
  8
0
  6
CONTINUOUS
 62
     7
 10
-5566.8394820000003
 20
-520.09723799999995
 30
0.0
  0
VERTEX
  5
D0E
  8
0
  6
CONTINUOUS
 62
     7
 10
-5566.8394820000003
 20
-491.02279299999992
 30
0.0
  0
VERTEX
  5
D0F
  8
0
  6
CONTINUOUS
 62
     7
 10
-5566.8284109999986
 20
-490.6902399999999
 30
0.0
  0
VERTEX
  5
D10
  8
0
  6
CONTINUOUS
 62
     7
 10
-5566.7952459999988
 20
-490.35916099999997
 30
0.0
  0
VERTEX
  5
D11
  8
0
  6
CONTINUOUS
 62
     7
 10
-5566.7401339999997
 20
-490.0310199999999
 30
0.0
  0
VERTEX
  5
D12
  8
0
  6
CONTINUOUS
 62
     7
 10
-5566.6633189999993
 20
-489.70727099999988
 30
0.0
  0
VERTEX
  5
D13
  8
0
  6
CONTINUOUS
 62
     7
 10
-5566.5651420000004
 20
-489.38934799999998
 30
0.0
  0
VERTEX
  5
D14
  8
0
  6
CONTINUOUS
 62
     7
 10
-5566.4460369999997
 20
-489.0786589999999
 30
0.0
  0
VERTEX
  5
D15
  8
0
  6
CONTINUOUS
 62
     7
 10
-5566.3065319999987
 20
-488.77657999999991
 30
0.0
  0
VERTEX
  5
D16
  8
0
  6
CONTINUOUS
 62
     7
 10
-5566.1472439999989
 20
-488.48444799999999
 30
0.0
  0
VERTEX
  5
D17
  8
0
  6
CONTINUOUS
 62
     7
 10
-5565.968879
 20
-488.20355799999999
 30
0.0
  0
VERTEX
  5
D18
  8
0
  6
CONTINUOUS
 62
     7
 10
-5565.7722259999991
 20
-487.9351519999999
 30
0.0
  0
VERTEX
  5
D19
  8
0
  6
CONTINUOUS
 62
     7
 10
-5565.5581579999989
 20
-487.68042000000003
 30
0.0
  0
VERTEX
  5
D1A
  8
0
  6
CONTINUOUS
 62
     7
 10
-5565.3276210000004
 20
-487.44049000000001
 30
0.0
  0
VERTEX
  5
D1B
  8
0
  6
CONTINUOUS
 62
     7
 10
-5565.0816359999999
 20
-487.2164249999999
 30
0.0
  0
VERTEX
  5
D1C
  8
0
  6
CONTINUOUS
 62
     7
 10
-5564.8212939999994
 20
-487.00921599999998
 30
0.0
  0
VERTEX
  5
D1D
  8
0
  6
CONTINUOUS
 62
     7
 10
-5564.5477469999987
 20
-486.81978099999992
 30
0.0
  0
VERTEX
  5
D1E
  8
0
  6
CONTINUOUS
 62
     7
 10
-5564.2622060000012
 20
-486.64895999999999
 30
0.0
  0
VERTEX
  5
D1F
  8
0
  6
CONTINUOUS
 62
     7
 10
-5563.9659350000002
 20
-486.49750799999993
 30
0.0
  0
VERTEX
  5
D20
  8
0
  6
CONTINUOUS
 62
     7
 10
-5563.6602479999992
 20
-486.36609699999991
 30
0.0
  0
VERTEX
  5
D21
  8
0
  6
CONTINUOUS
 62
     7
 10
-5563.3464970000005
 20
-486.25530800000001
 30
0.0
  0
SEQEND
  5
D22
  8
0
  6
CONTINUOUS
 62
     7
  0
DIMENSION
  5
67B
  8
LAYER01
 62
     5
  2
*D7
 10
-5190.782389
 20
-692.74522899999988
 30
0.0
 11
-5359.3109359999989
 21
-662.74522899999988
 31
0.0
 13
-5527.8394820000003
 23
-544.09723799999995
 33
0.0
 14
-5190.782389
 24
-544.09723799999995
 34
0.0
  0
LINE
  5
67C
  8
LAYER01
  6
CONTINUOUS
 62
     5
 10
-5214.3983260000005
 20
-495.227576
 30
0.0
 11
-5509.3852770000003
 21
-495.227576
 31
0.0
  0
LINE
  5
67D
  8
0
  6
CONTINUOUS
 62
     7
 10
-5594.2137450000009
 20
-395.14648399999999
 30
0.0
 11
-5190.782389
 21
-395.227576
 31
0.0
  0
POLYLINE
  5
67E
  8
0
  6
CONTINUOUS
 62
     7
 66
     1
 10
0.0
 20
0.0
 30
0.0
 70
     1
  0
VERTEX
  5
D23
  8
0
  6
CONTINUOUS
 62
     7
 10
-5249.4749320000001
 20
496.19023399999992
 30
0.0
  0
VERTEX
  5
D24
  8
0
  6
CONTINUOUS
 62
     7
 10
-5749.4749320000001
 20
496.19023399999992
 30
0.0
  0
VERTEX
  5
D25
  8
0
  6
CONTINUOUS
 62
     7
 10
-5749.4749320000001
 20
96.190234000000004
 30
0.0
  0
VERTEX
  5
D26
  8
0
  6
CONTINUOUS
 62
     7
 10
-5249.4749320000001
 20
96.190234000000004
 30
0.0
  0
SEQEND
  5
D27
  8
0
  6
CONTINUOUS
 62
     7
  0
DIMENSION
  5
684
  8
LAYER01
 62
     7
  2
*D8
 10
-5749.4749320000001
 20
-32.139136999999998
 30
0.0
 11
-5499.4749320000001
 21
-2.139136999999999
 31
0.0
 13
-5249.4749320000001
 23
96.190234000000004
 33
0.0
 14
-5749.4749320000001
 24
96.190234000000004
 34
0.0
  0
LINE
  5
685
  8
0
  6
CONTINUOUS
 62
     7
 10
-5749.46976
 20
471.16485899999998
 30
0.0
 11
-5249.4798840000003
 21
471.16485899999998
 31
0.0
  0
POLYLINE
  5
686
  8
0
  6
CONTINUOUS
 62
     7
 66
     1
 10
0.0
 20
0.0
 30
0.0
 70
     1
  0
VERTEX
  5
D28
  8
0
  6
CONTINUOUS
 62
     7
 10
-5584.8394820000003
 20
-544.09723799999995
 30
0.0
  0
VERTEX
  5
D29
  8
0
  6
CONTINUOUS
 62
     7
 10
-5584.8394820000003
 20
-530.09723799999995
 30
0.0
 42
-0.4142140000000001
  0
VERTEX
  5
D2A
  8
0
  6
CONTINUOUS
 62
     7
 10
-5590.8394820000003
 20
-524.09723799999995
 30
0.0
  0
VERTEX
  5
D2B
  8
0
  6
CONTINUOUS
 62
     7
 10
-5590.8394820000003
 20
-399.097238
 30
0.0
 42
0.4142140000000001
  0
VERTEX
  5
D2C
  8
0
  6
CONTINUOUS
 62
     7
 10
-5594.8394820000012
 20
-395.097238
 30
0.0
  0
VERTEX
  5
D2D
  8
0
  6
CONTINUOUS
 62
     7
 10
-5692.8394820000003
 20
-395.097238
 30
0.0
 42
-0.4142140000000001
  0
VERTEX
  5
D2E
  8
0
  6
CONTINUOUS
 62
     7
 10
-5698.8394820000003
 20
-389.097238
 30
0.0
  0
VERTEX
  5
D2F
  8
0
  6
CONTINUOUS
 62
     7
 10
-5698.8394820000003
 20
-365.097238
 30
0.0
  0
VERTEX
  5
D30
  8
0
  6
CONTINUOUS
 62
     7
 10
-5710.8394820000003
 20
-365.097238
 30
0.0
  0
VERTEX
  5
D31
  8
0
  6
CONTINUOUS
 62
     7
 10
-5710.8394820000003
 20
-407.09723799999989
 30
0.0
  0
VERTEX
  5
D32
  8
0
  6
CONTINUOUS
 62
     7
 10
-5612.8394820000003
 20
-407.09723799999989
 30
0.0
 42
-0.4142140000000001
  0
VERTEX
  5
D33
  8
0
  6
CONTINUOUS
 62
     7
 10
-5602.8394820000003
 20
-417.097238
 30
0.0
  0
VERTEX
  5
D34
  8
0
  6
CONTINUOUS
 62
     7
 10
-5602.8394820000003
 20
-544.09723799999995
 30
0.0
  0
SEQEND
  5
D35
  8
0
  6
CONTINUOUS
 62
     7
  0
POLYLINE
  5
695
  8
0
  6
CONTINUOUS
 62
     7
 66
     1
 10
0.0
 20
0.0
 30
0.0
 70
     1
  0
VERTEX
  5
D36
  8
0
  6
CONTINUOUS
 62
     7
 10
-5710.8394820000003
 20
-407.09723799999989
 30
0.0
  0
VERTEX
  5
D37
  8
0
  6
CONTINUOUS
 62
     7
 10
-5710.8394820000003
 20
-365.097238
 30
0.0
  0
VERTEX
  5
D38
  8
0
  6
CONTINUOUS
 62
     7
 10
-5698.8394820000003
 20
-365.097238
 30
0.0
  0
VERTEX
  5
D39
  8
0
  6
CONTINUOUS
 62
     7
 10
-5698.8394820000003
 20
-389.097238
 30
0.0
  0
VERTEX
  5
D3A
  8
0
  6
CONTINUOUS
 62
     7
 10
-5698.8209859999997
 20
-389.567992
 30
0.0
  0
VERTEX
  5
D3B
  8
0
  6
CONTINUOUS
 62
     7
 10
-5698.7656120000001
 20
-390.035844
 30
0.0
  0
VERTEX
  5
D3C
  8
0
  6
CONTINUOUS
 62
     7
 10
-5698.673702
 20
-390.49790999999999
 30
0.0
  0
VERTEX
  5
D3D
  8
0
  6
CONTINUOUS
 62
     7
 10
-5698.5458209999988
 20
-390.95134000000002
 30
0.0
  0
VERTEX
  5
D3E
  8
0
  6
CONTINUOUS
 62
     7
 10
-5698.3827600000013
 20
-391.39333800000003
 30
0.0
  0
VERTEX
  5
D3F
  8
0
  6
CONTINUOUS
 62
     7
 10
-5698.1855219999998
 20
-391.82118100000002
 30
0.0
  0
VERTEX
  5
D40
  8
0
  6
CONTINUOUS
 62
     7
 10
-5697.9553229999992
 20
-392.23222900000002
 30
0.0
  0
VERTEX
  5
D41
  8
0
  6
CONTINUOUS
 62
     7
 10
-5697.6935840000006
 20
-392.62394899999998
 30
0.0
  0
VERTEX
  5
D42
  8
0
  6
CONTINUOUS
 62
     7
 10
-5697.4019179999996
 20
-392.99392599999999
 30
0.0
  0
VERTEX
  5
D43
  8
0
  6
CONTINUOUS
 62
     7
 10
-5697.0821229999992
 20
-393.339878
 30
0.0
  0
VERTEX
  5
D44
  8
0
  6
CONTINUOUS
 62
     7
 10
-5696.7361710000014
 20
-393.659673
 30
0.0
  0
VERTEX
  5
D45
  8
0
  6
CONTINUOUS
 62
     7
 10
-5696.3661940000002
 20
-393.95134000000002
 30
0.0
  0
VERTEX
  5
D46
  8
0
  6
CONTINUOUS
 62
     7
 10
-5695.9744739999996
 20
-394.21307899999999
 30
0.0
  0
VERTEX
  5
D47
  8
0
  6
CONTINUOUS
 62
     7
 10
-5695.5634250000003
 20
-394.44327700000002
 30
0.0
  0
VERTEX
  5
D48
  8
0
  6
CONTINUOUS
 62
     7
 10
-5695.1355830000002
 20
-394.64051499999999
 30
0.0
  0
VERTEX
  5
D49
  8
0
  6
CONTINUOUS
 62
     7
 10
-5694.6935840000006
 20
-394.80357700000002
 30
0.0
  0
VERTEX
  5
D4A
  8
0
  6
CONTINUOUS
 62
     7
 10
-5694.2401550000004
 20
-394.93145700000002
 30
0.0
  0
VERTEX
  5
D4B
  8
0
  6
CONTINUOUS
 62
     7
 10
-5693.7780890000013
 20
-395.023368
 30
0.0
  0
VERTEX
  5
D4C
  8
0
  6
CONTINUOUS
 62
     7
 10
-5693.3102369999997
 20
-395.07874199999998
 30
0.0
  0
VERTEX
  5
D4D
  8
0
  6
CONTINUOUS
 62
     7
 10
-5692.8394820000003
 20
-395.097238
 30
0.0
  0
VERTEX
  5
D4E
  8
0
  6
CONTINUOUS
 62
     7
 10
-5594.8394820000012
 20
-395.097238
 30
0.0
  0
VERTEX
  5
D4F
  8
0
  6
CONTINUOUS
 62
     7
 10
-5594.525646000001
 20
-395.10956800000002
 30
0.0
  0
VERTEX
  5
D50
  8
0
  6
CONTINUOUS
 62
     7
 10
-5594.2137450000009
 20
-395.14648399999999
 30
0.0
  0
VERTEX
  5
D51
  8
0
  6
CONTINUOUS
 62
     7
 10
-5593.9057009999997
 20
-395.20775800000001
 30
0.0
  0
VERTEX
  5
D52
  8
0
  6
CONTINUOUS
 62
     7
 10
-5593.6034140000002
 20
-395.29301199999998
 30
0.0
  0
VERTEX
  5
D53
  8
0
  6
CONTINUOUS
 62
     7
 10
-5593.3087489999998
 20
-395.40172000000001
 30
0.0
  0
VERTEX
  5
D54
  8
0
  6
CONTINUOUS
 62
     7
 10
-5593.0235199999997
 20
-395.53321199999999
 30
0.0
  0
VERTEX
  5
D55
  8
0
  6
CONTINUOUS
 62
     7
 10
-5592.7494880000004
 20
-395.68667699999997
 30
0.0
  0
VERTEX
  5
D56
  8
0
  6
CONTINUOUS
 62
     7
 10
-5592.4883409999993
 20
-395.86117000000002
 30
0.0
  0
VERTEX
  5
D57
  8
0
  6
CONTINUOUS
 62
     7
 10
-5592.2416899999998
 20
-396.05561399999999
 30
0.0
  0
VERTEX
  5
D58
  8
0
  6
CONTINUOUS
 62
     7
 10
-5592.0110549999999
 20
-396.26881100000003
 30
0.0
  0
VERTEX
  5
D59
  8
0
  6
CONTINUOUS
 62
     7
 10
-5591.7978590000002
 20
-396.49944499999998
 30
0.0
  0
VERTEX
  5
D5A
  8
0
  6
CONTINUOUS
 62
     7
 10
-5591.6034140000002
 20
-396.74609700000002
 30
0.0
  0
VERTEX
  5
D5B
  8
0
  6
CONTINUOUS
 62
     7
 10
-5591.4289220000001
 20
-397.00724300000002
 30
0.0
  0
VERTEX
  5
D5C
  8
0
  6
CONTINUOUS
 62
     7
 10
-5591.2754560000003
 20
-397.28127599999999
 30
0.0
  0
VERTEX
  5
D5D
  8
0
  6
CONTINUOUS
 62
     7
 10
-5591.1439639999999
 20
-397.56650400000001
 30
0.0
  0
VERTEX
  5
D5E
  8
0
  6
CONTINUOUS
 62
     7
 10
-5591.0352560000001
 20
-397.86117000000002
 30
0.0
  0
VERTEX
  5
D5F
  8
0
  6
CONTINUOUS
 62
     7
 10
-5590.9500029999999
 20
-398.163456
 30
0.0
  0
VERTEX
  5
D60
  8
0
  6
CONTINUOUS
 62
     7
 10
-5590.8887290000002
 20
-398.47149999999999
 30
0.0
  0
VERTEX
  5
D61
  8
0
  6
CONTINUOUS
 62
     7
 10
-5590.8518130000002
 20
-398.78340100000003
 30
0.0
  0
VERTEX
  5
D62
  8
0
  6
CONTINUOUS
 62
     7
 10
-5590.8394820000003
 20
-399.097238
 30
0.0
  0
VERTEX
  5
D63
  8
0
  6
CONTINUOUS
 62
     7
 10
-5590.8394820000003
 20
-524.09723799999995
 30
0.0
  0
VERTEX
  5
D64
  8
0
  6
CONTINUOUS
 62
     7
 10
-5590.8209859999997
 20
-524.56799199999989
 30
0.0
  0
VERTEX
  5
D65
  8
0
  6
CONTINUOUS
 62
     7
 10
-5590.7656120000011
 20
-525.035844
 30
0.0
  0
VERTEX
  5
D66
  8
0
  6
CONTINUOUS
 62
     7
 10
-5590.673702
 20
-525.49790999999993
 30
0.0
  0
VERTEX
  5
D67
  8
0
  6
CONTINUOUS
 62
     7
 10
-5590.5458209999997
 20
-525.95134000000007
 30
0.0
  0
VERTEX
  5
D68
  8
0
  6
CONTINUOUS
 62
     7
 10
-5590.3827600000004
 20
-526.39333799999997
 30
0.0
  0
VERTEX
  5
D69
  8
0
  6
CONTINUOUS
 62
     7
 10
-5590.1855219999998
 20
-526.82118099999991
 30
0.0
  0
VERTEX
  5
D6A
  8
0
  6
CONTINUOUS
 62
     7
 10
-5589.9553229999992
 20
-527.23222899999985
 30
0.0
  0
VERTEX
  5
D6B
  8
0
  6
CONTINUOUS
 62
     7
 10
-5589.6935839999996
 20
-527.62394900000004
 30
0.0
  0
VERTEX
  5
D6C
  8
0
  6
CONTINUOUS
 62
     7
 10
-5589.4019179999996
 20
-527.99392599999987
 30
0.0
  0
VERTEX
  5
D6D
  8
0
  6
CONTINUOUS
 62
     7
 10
-5589.0821229999992
 20
-528.33987799999989
 30
0.0
  0
VERTEX
  5
D6E
  8
0
  6
CONTINUOUS
 62
     7
 10
-5588.7361709999996
 20
-528.659673
 30
0.0
  0
VERTEX
  5
D6F
  8
0
  6
CONTINUOUS
 62
     7
 10
-5588.3661940000002
 20
-528.95133999999996
 30
0.0
  0
VERTEX
  5
D70
  8
0
  6
CONTINUOUS
 62
     7
 10
-5587.9744740000006
 20
-529.21307899999988
 30
0.0
  0
VERTEX
  5
D71
  8
0
  6
CONTINUOUS
 62
     7
 10
-5587.5634250000003
 20
-529.44327699999985
 30
0.0
  0
VERTEX
  5
D72
  8
0
  6
CONTINUOUS
 62
     7
 10
-5587.1355830000011
 20
-529.64051500000005
 30
0.0
  0
VERTEX
  5
D73
  8
0
  6
CONTINUOUS
 62
     7
 10
-5586.6935839999996
 20
-529.8035769999999
 30
0.0
  0
VERTEX
  5
D74
  8
0
  6
CONTINUOUS
 62
     7
 10
-5586.2401549999986
 20
-529.93145699999991
 30
0.0
  0
VERTEX
  5
D75
  8
0
  6
CONTINUOUS
 62
     7
 10
-5585.7780890000013
 20
-530.02336799999989
 30
0.0
  0
VERTEX
  5
D76
  8
0
  6
CONTINUOUS
 62
     7
 10
-5585.3102369999988
 20
-530.07874200000003
 30
0.0
  0
VERTEX
  5
D77
  8
0
  6
CONTINUOUS
 62
     7
 10
-5584.8394820000003
 20
-530.09723799999995
 30
0.0
  0
VERTEX
  5
D78
  8
0
  6
CONTINUOUS
 62
     7
 10
-5584.8394820000003
 20
-544.09723799999995
 30
0.0
  0
VERTEX
  5
D79
  8
0
  6
CONTINUOUS
 62
     7
 10
-5602.8394820000003
 20
-544.09723799999995
 30
0.0
  0
VERTEX
  5
D7A
  8
0
  6
CONTINUOUS
 62
     7
 10
-5602.8394820000003
 20
-417.097238
 30
0.0
  0
VERTEX
  5
D7B
  8
0
  6
CONTINUOUS
 62
     7
 10
-5602.8703089999999
 20
-416.31264699999991
 30
0.0
  0
VERTEX
  5
D7C
  8
0
  6
CONTINUOUS
 62
     7
 10
-5602.9625990000013
 20
-415.532893
 30
0.0
  0
VERTEX
  5
D7D
  8
0
  6
CONTINUOUS
 62
     7
 10
-5603.1157830000002
 20
-414.76278400000001
 30
0.0
  0
VERTEX
  5
D7E
  8
0
  6
CONTINUOUS
 62
     7
 10
-5603.3289169999989
 20
-414.007068
 30
0.0
  0
VERTEX
  5
D7F
  8
0
  6
CONTINUOUS
 62
     7
 10
-5603.6006870000001
 20
-413.27040299999999
 30
0.0
  0
VERTEX
  5
D80
  8
0
  6
CONTINUOUS
 62
     7
 10
-5603.9294170000003
 20
-412.55733299999991
 30
0.0
  0
VERTEX
  5
D81
  8
0
  6
CONTINUOUS
 62
     7
 10
-5604.3130810000002
 20
-411.872252
 30
0.0
  0
VERTEX
  5
D82
  8
0
  6
CONTINUOUS
 62
     7
 10
-5604.7493119999999
 20
-411.21938499999987
 30
0.0
  0
VERTEX
  5
D83
  8
0
  6
CONTINUOUS
 62
     7
 10
-5605.2354229999992
 20
-410.602757
 30
0.0
  0
VERTEX
  5
D84
  8
0
  6
CONTINUOUS
 62
     7
 10
-5605.7684149999995
 20
-410.02616999999998
 30
0.0
  0
VERTEX
  5
D85
  8
0
  6
CONTINUOUS
 62
     7
 10
-5606.3450020000009
 20
-409.493178
 30
0.0
  0
VERTEX
  5
D86
  8
0
  6
CONTINUOUS
 62
     7
 10
-5606.9616299999998
 20
-409.007068
 30
0.0
  0
VERTEX
  5
D87
  8
0
  6
CONTINUOUS
 62
     7
 10
-5607.6144969999996
 20
-408.57083599999987
 30
0.0
  0
VERTEX
  5
D88
  8
0
  6
CONTINUOUS
 62
     7
 10
-5608.2995770000007
 20
-408.18717199999998
 30
0.0
  0
VERTEX
  5
D89
  8
0
  6
CONTINUOUS
 62
     7
 10
-5609.0126479999999
 20
-407.85844199999991
 30
0.0
  0
VERTEX
  5
D8A
  8
0
  6
CONTINUOUS
 62
     7
 10
-5609.7493119999999
 20
-407.58667200000002
 30
0.0
  0
VERTEX
  5
D8B
  8
0
  6
CONTINUOUS
 62
     7
 10
-5610.5050289999999
 20
-407.373538
 30
0.0
  0
VERTEX
  5
D8C
  8
0
  6
CONTINUOUS
 62
     7
 10
-5611.2751379999991
 20
-407.22035399999999
 30
0.0
  0
VERTEX
  5
D8D
  8
0
  6
CONTINUOUS
 62
     7
 10
-5612.0548909999989
 20
-407.12806399999999
 30
0.0
  0
VERTEX
  5
D8E
  8
0
  6
CONTINUOUS
 62
     7
 10
-5612.8394820000003
 20
-407.09723799999989
 30
0.0
  0
SEQEND
  5
D8F
  8
0
  6
CONTINUOUS
 62
     7
  0
DIMENSION
  5
6F0
  8
LAYER01
 62
     7
  2
*D9
 10
-5805.5086890000002
 20
-486.16563300000001
 30
0.0
 11
-5835.5086890000002
 21
-440.6314349999999
 31
0.0
 53
90.0
 13
-5717.2709679999998
 23
-395.097238
 33
0.0
 14
-5717.2709679999998
 24
-486.16563300000001
 34
0.0
 50
90.0
  0
DIMENSION
  5
6F1
  8
LAYER01
 62
     7
  2
*D10
 10
-5746.4460319999998
 20
-395.097238
 30
0.0
 11
-5776.4460319999989
 21
-279.597238
 31
0.0
 53
90.0
 13
-5717.2709679999998
 23
-365.097238
 33
0.0
 14
-5717.2709679999998
 24
-395.097238
 34
0.0
 50
90.0
  0
LINE
  5
6F2
  8
0
  6
CONTINUOUS
 62
     7
 10
-5584.8394820000003
 20
-544.09723799999995
 30
0.0
 11
-5538.8394820000003
 21
-544.09723799999995
 31
0.0
  0
LINE
  5
6F3
  8
LAYER01
  6
CONTINUOUS
 62
     7
 10
-5551.330035
 20
544.98018699999989
 30
0.0
 11
-5442.483448
 21
544.98018699999989
 31
0.0
  0
CIRCLE
  5
6F4
  8
0
  6
CONTINUOUS
 62
     7
 10
-5499.4289119999994
 20
544.98018699999989
 30
0.0
 40
17.5
  0
POLYLINE
  5
6F5
  8
0
  6
CONTINUOUS
 62
     7
 66
     1
 10
0.0
 20
0.0
 30
0.0
 70
     1
  0
VERTEX
  5
D90
  8
0
  6
CONTINUOUS
 62
     7
 10
-5484.3807519999991
 20
477.11165599999998
 30
0.0
 42
-0.4593930000000001
  0
VERTEX
  5
D91
  8
0
  6
CONTINUOUS
 62
     7
 10
-5484.3618930000002
 20
471.099469
 30
0.0
  0
VERTEX
  5
D92
  8
0
  6
CONTINUOUS
 62
     7
 10
-5514.3618930000002
 20
471.099469
 30
0.0
 42
-0.394721
  0
VERTEX
  5
D93
  8
0
  6
CONTINUOUS
 62
     7
 10
-5514.380752
 20
477.11165599999998
 30
0.0
 42
-0.4
  0
SEQEND
  5
D94
  8
0
  6
CONTINUOUS
 62
     7
  0
LINE
  5
6FB
  8
LAYER01
  6
CONTINUOUS
 62
     7
 10
-5499.4289119999994
 20
575.7201980000001
 30
0.0
 11
-5499.4289119999994
 21
439.22069499999998
 31
0.0
  0
DIMENSION
  5
6FC
  8
LAYER01
 62
     7
  2
*D11
 10
-5114.5987889999997
 20
-495.227576
 30
0.0
 11
-5144.5987889999988
 21
-445.227576
 31
0.0
 53
90.0
 13
-5190.782389
 23
-395.227576
 33
0.0
 14
-5190.782389
 24
-495.227576
 34
0.0
 50
90.0
  0
TEXT
  5
6FD
  8
LAYER01
  6
VERDECKT
 62
     1
 10
-3548.3401130000002
 20
-409.51439900000003
 30
0.0
 40
32.5
  1
A. Sprenger GmbH
  7
SIMPLEX
  0
TEXT
  5
6FE
  8
LAYER01
  6
CONTINUOUS
 62
     7
 10
-3558.883315999999
 20
-208.24623
 30
0.0
 40
9.75
  1
Diese Zeichnung ist geistiges Eigentum der A. Sprenger GmbH
  7
SIMPLEX
  0
TEXT
  5
6FF
  8
LAYER01
  6
CONTINUOUS
 62
     7
 10
-3558.883315999999
 20
-224.96051600000001
 30
0.0
 40
9.75
  1
und urheberrechtlich geschützt. Ohne unsere Zustimmung darf 
  7
SIMPLEX
  0
TEXT
  5
700
  8
LAYER01
  6
CONTINUOUS
 62
     7
 10
-3558.883315999999
 20
-241.674802
 30
0.0
 40
9.75
  1
sie in keiner Form verwendet oder Dritten zugänglich gemacht
  7
SIMPLEX
  0
TEXT
  5
701
  8
LAYER01
  6
CONTINUOUS
 62
     7
 10
-3558.883315999999
 20
-258.38908700000002
 30
0.0
 40
9.75
  1
werden. (§106 Urheberrecht)
  7
SIMPLEX
  0
TEXT
  5
702
  8
LAYER01
  6
VERDECKT
 62
     1
 10
-3849.5059950000009
 20
-484.76463699999988
 30
0.0
 40
13.0
  1
Jan. 2015
  7
SIMPLEX
  0
TEXT
  5
703
  8
LAYER01
  6
VERDECKT
 62
     1
 10
-3724.5016919999998
 20
-484.8121349999999
 30
0.0
 40
13.0
  1
b.s.
  7
SIMPLEX
  0
TEXT
  5
704
  8
LAYER01
  6
CONTINUOUS
 62
     1
 10
-3886.8664079999999
 20
-670.59132
 30
0.0
 40
45.499999999999993
  1
61xxx
  7
SIMPLEX
  0
TEXT
  5
705
  8
LAYER01
  6
VERDECKT
 62
     1
 10
-3462.6132670000002
 20
-325.69259399999999
 30
0.0
 40
13.0
  1
1 : 10 (DIN A3)
  7
SIMPLEX
  0
TEXT
  5
706
  8
LAYER01
  6
VERDECKT
 62
     1
 10
-3127.566095000001
 20
-325.69259399999999
 30
0.0
 40
13.0
  1
trigo.skd
  7
SIMPLEX
  0
TEXT
  5
707
  8
LAYER01
  6
VERDECKT
 62
     1
 10
-3548.3401130000002
 20
-537.15214900000001
 30
0.0
 40
45.499999999999993
  1
Trigo Integra
  7
SIMPLEX
  0
LINE
  5
708
  8
LAYER01
  6
CONTINUOUS
 62
     7
 10
-5999.4289119999994
 20
95.310796999999994
 30
0.0
 11
-4999.4289119999994
 21
95.310796999999994
 31
0.0
  0
LINE
  5
709
  8
LAYER01
  6
CONTINUOUS
 62
     7
 10
-5999.4289119999994
 20
615.31079699999987
 30
0.0
 11
-4999.4289119999994
 21
615.31079699999987
 31
0.0
  0
LINE
  5
70A
  8
LAYER01
  6
CONTINUOUS
 62
     7
 10
-5999.4289119999994
 20
603.31079699999987
 30
0.0
 11
-4999.4289119999994
 21
603.31079699999987
 31
0.0
  0
LINE
  5
70B
  8
LAYER01
  6
CONTINUOUS
 62
     7
 10
-5999.4289119999994
 20
-89.472126000000003
 30
0.0
 11
-4999.4289119999994
 21
-89.472126000000003
 31
0.0
  0
LINE
  5
70C
  8
LAYER01
  6
CONTINUOUS
 62
     7
 10
-5999.4289119999994
 20
-119.472126
 30
0.0
 11
-4999.4289119999994
 21
-119.472126
 31
0.0
  0
LINE
  5
70D
  8
LAYER01
  6
CONTINUOUS
 62
     7
 10
-5999.4289119999994
 20
-219.472126
 30
0.0
 11
-4999.4289119999994
 21
-219.472126
 31
0.0
  0
DIMENSION
  5
70E
  8
LAYER01
 62
     7
  2
*D12
 10
-6153.8439390000012
 20
-89.472126000000003
 30
0.0
 11
-6183.8439390000003
 21
-3.9721259999999998
 31
0.0
 53
90.0
 13
-5999.4289119999994
 23
-119.472126
 33
0.0
 14
-5999.4289119999994
 24
-89.472126000000003
 34
0.0
 50
90.0
  0
LINE
  5
70F
  8
LAYER01
  6
CONTINUOUS
 62
     7
 10
-5999.4289119999994
 20
-219.472126
 30
0.0
 11
-5999.4289119999994
 21
-89.472126000000003
 31
0.0
  0
DIMENSION
  5
710
  8
LAYER01
 62
     7
  2
*D13
 10
-6058.4789769999998
 20
-119.472126
 30
0.0
 11
-6088.4789770000007
 21
-169.472126
 31
0.0
 53
90.0
 13
-5999.4289119999994
 23
-219.472126
 33
0.0
 14
-5999.4289119999994
 24
-119.472126
 34
0.0
 50
90.0
  0
DIMENSION
  5
711
  8
LAYER01
 62
     7
  2
*D14
 10
-6203.8327439999994
 20
615.31079699999987
 30
0.0
 11
-6233.8327439999994
 21
355.31079700000009
 31
0.0
 53
90.0
 13
-5999.4289119999994
 23
95.310796999999994
 33
0.0
 14
-5999.4289119999994
 24
615.31079699999987
 34
0.0
 50
90.0
  0
DIMENSION
  5
712
  8
LAYER01
 62
     7
  2
*D15
 10
-6117.2545959999998
 20
495.31079699999992
 30
0.0
 11
-6147.2545959999989
 21
295.31079700000009
 31
0.0
 53
90.0
 13
-5999.4289119999994
 23
95.310796999999994
 33
0.0
 14
-5999.4289119999994
 24
495.31079699999992
 34
0.0
 50
90.0
  0
LINE
  5
713
  8
LAYER01
  6
CONTINUOUS
 62
     7
 10
-5999.4289119999994
 20
95.310796999999994
 30
0.0
 11
-5999.4289119999994
 21
615.31079699999987
 31
0.0
  0
DIMENSION
  5
714
  8
LAYER01
 62
     7
  2
*D16
 10
-6069.0750840000001
 20
615.31079699999987
 30
0.0
 11
-6099.0750840000001
 21
580.14549199999999
 31
0.0
 53
90.0
 13
-5999.4289119999994
 23
544.98018699999989
 33
0.0
 14
-5999.4289119999994
 24
615.31079699999987
 34
0.0
 50
90.0
  0
LINE
  5
715
  8
LAYER01
  6
CONTINUOUS
 62
     7
 10
-4999.4289119999994
 20
-89.472126000000003
 30
0.0
 11
-4999.4289119999994
 21
-219.472126
 31
0.0
  0
LINE
  5
716
  8
LAYER01
  6
CONTINUOUS
 62
     7
 10
-4999.4289119999994
 20
95.310796999999994
 30
0.0
 11
-4999.4289119999994
 21
615.31079699999987
 31
0.0
  0
DIMENSION
  5
717
  8
LAYER01
 62
     7
  2
*D17
 10
-5499.4289119999994
 20
731.63536099999999
 30
0.0
 11
-5249.4289119999994
 21
761.63536099999988
 31
0.0
 13
-4999.4289119999994
 23
615.31079699999987
 33
0.0
 14
-5499.4289119999994
 24
615.31079699999987
 34
0.0
  0
DIMENSION
  5
718
  8
LAYER01
 62
     7
  2
*D18
 10
-5999.4289119999994
 20
731.63536099999999
 30
0.0
 11
-5749.4289119999994
 21
761.63536099999988
 31
0.0
 13
-5499.4289119999994
 23
615.31079699999987
 33
0.0
 14
-5999.4289119999994
 24
615.31079699999987
 34
0.0
  0
DIMENSION
  5
719
  8
LAYER01
 62
     7
  2
*D19
 10
-5999.4289119999994
 20
843.218751
 30
0.0
 11
-5499.4289119999994
 21
873.21875100000011
 31
0.0
 13
-4999.4289119999994
 23
615.31079699999987
 33
0.0
 14
-5999.4289119999994
 24
615.31079699999987
 34
0.0
  0
LINE
  5
71A
  8
LAYER01
  6
VERDECKT
 62
     7
 10
-5987.4289119999994
 20
107.31079699999999
 30
0.0
 11
-5987.4289119999994
 21
615.31079699999987
 31
0.0
  0
LINE
  5
71B
  8
LAYER01
  6
VERDECKT
 62
     7
 10
-5987.4289119999994
 20
107.31079699999999
 30
0.0
 11
-5011.4289119999994
 21
107.31079699999999
 31
0.0
  0
LINE
  5
71C
  8
LAYER01
  6
VERDECKT
 62
     7
 10
-5011.4289119999994
 20
107.31079699999999
 30
0.0
 11
-5011.4289119999994
 21
615.31079699999987
 31
0.0
  0
POLYLINE
  5
71D
  8
0
  6
CONTINUOUS
 62
     7
 66
     1
 10
0.0
 20
0.0
 30
0.0
 70
     1
  0
VERTEX
  5
D95
  8
0
  6
CONTINUOUS
 62
     7
 10
-5249.4749320000001
 20
1651.2665340000001
 30
0.0
  0
VERTEX
  5
D96
  8
0
  6
CONTINUOUS
 62
     7
 10
-5749.4749320000001
 20
1651.2665340000001
 30
0.0
  0
VERTEX
  5
D97
  8
0
  6
CONTINUOUS
 62
     7
 10
-5749.4749320000001
 20
1251.2665340000001
 30
0.0
  0
VERTEX
  5
D98
  8
0
  6
CONTINUOUS
 62
     7
 10
-5249.4749320000001
 20
1251.2665340000001
 30
0.0
  0
SEQEND
  5
D99
  8
0
  6
CONTINUOUS
 62
     7
  0
DIMENSION
  5
723
  8
LAYER01
 62
     7
  2
*D20
 10
-5749.4749320000001
 20
1122.9371619999999
 30
0.0
 11
-5499.4749320000001
 21
1152.9371619999999
 31
0.0
 13
-5249.4749320000001
 23
1251.2665340000001
 33
0.0
 14
-5749.4749320000001
 24
1251.2665340000001
 34
0.0
  0
LINE
  5
724
  8
0
  6
CONTINUOUS
 62
     7
 10
-5749.46976
 20
1626.2411589999999
 30
0.0
 11
-5249.4798840000003
 21
1626.2411589999999
 31
0.0
  0
LINE
  5
725
  8
LAYER01
  6
CONTINUOUS
 62
     7
 10
-5551.330035
 20
1700.0564870000001
 30
0.0
 11
-5442.483448
 21
1700.0564870000001
 31
0.0
  0
CIRCLE
  5
726
  8
0
  6
CONTINUOUS
 62
     7
 10
-5499.4289119999994
 20
1700.0564870000001
 30
0.0
 40
17.5
  0
POLYLINE
  5
727
  8
0
  6
CONTINUOUS
 62
     7
 66
     1
 10
0.0
 20
0.0
 30
0.0
 70
     1
  0
VERTEX
  5
D9A
  8
0
  6
CONTINUOUS
 62
     7
 10
-5484.3807519999991
 20
1632.187956
 30
0.0
 42
-0.4593930000000001
  0
VERTEX
  5
D9B
  8
0
  6
CONTINUOUS
 62
     7
 10
-5484.3618930000002
 20
1626.1757680000001
 30
0.0
  0
VERTEX
  5
D9C
  8
0
  6
CONTINUOUS
 62
     7
 10
-5514.3618930000002
 20
1626.1757680000001
 30
0.0
 42
-0.394721
  0
VERTEX
  5
D9D
  8
0
  6
CONTINUOUS
 62
     7
 10
-5514.380752
 20
1632.187956
 30
0.0
 42
-0.4
  0
SEQEND
  5
D9E
  8
0
  6
CONTINUOUS
 62
     7
  0
LINE
  5
72D
  8
LAYER01
  6
CONTINUOUS
 62
     7
 10
-5499.4289119999994
 20
1730.7964979999999
 30
0.0
 11
-5499.4289119999994
 21
1594.296994
 31
0.0
  0
DIMENSION
  5
72E
  8
LAYER01
 62
     7
  2
*D21
 10
-5899.4289120000003
 20
1903.7582070000001
 30
0.0
 11
-5499.4289119999994
 21
1933.7582070000001
 31
0.0
 13
-5099.4289120000003
 23
1792.416806
 33
0.0
 14
-5899.4289120000003
 24
1792.416806
 34
0.0
  0
DIMENSION
  5
72F
  8
LAYER01
 62
     7
  2
*D22
 10
-5499.4289119999994
 20
1829.196111
 30
0.0
 11
-5699.4289120000003
 21
1859.196111
 31
0.0
 13
-5899.4289120000003
 23
1792.416806
 33
0.0
 14
-5499.4289119999994
 24
1792.416806
 34
0.0
  0
DIMENSION
  5
730
  8
LAYER01
 62
     7
  2
*D23
 10
-5099.4289120000003
 20
1829.196111
 30
0.0
 11
-5299.4289119999994
 21
1859.196111
 31
0.0
 13
-5499.4289119999994
 23
1792.416806
 33
0.0
 14
-5099.4289120000003
 24
1792.416806
 34
0.0
  0
LINE
  5
731
  8
LAYER01
  6
CONTINUOUS
 62
     7
 10
-5099.4289120000003
 20
1065.6041729999999
 30
0.0
 11
-5099.4289120000003
 21
935.60417300000006
 31
0.0
  0
LINE
  5
732
  8
LAYER01
  6
CONTINUOUS
 62
     7
 10
-5099.4289120000003
 20
1250.3870959999999
 30
0.0
 11
-5099.4289120000003
 21
1770.3870959999999
 31
0.0
  0
DIMENSION
  5
733
  8
LAYER01
 62
     7
  2
*D24
 10
-6053.8439390000003
 20
1065.6041729999999
 30
0.0
 11
-6083.8439390000012
 21
1151.1041729999999
 31
0.0
 53
90.0
 13
-5899.4289120000003
 23
1035.6041729999999
 33
0.0
 14
-5899.4289120000003
 24
1065.6041729999999
 34
0.0
 50
90.0
  0
LINE
  5
734
  8
LAYER01
  6
CONTINUOUS
 62
     7
 10
-5899.4289120000003
 20
935.60417300000006
 30
0.0
 11
-5899.4289120000003
 21
1065.6041729999999
 31
0.0
  0
DIMENSION
  5
735
  8
LAYER01
 62
     7
  2
*D25
 10
-5958.4789770000007
 20
1035.6041729999999
 30
0.0
 11
-5988.4789769999998
 21
985.60417300000006
 31
0.0
 53
90.0
 13
-5899.4289120000003
 23
935.60417300000006
 33
0.0
 14
-5899.4289120000003
 24
1035.6041729999999
 34
0.0
 50
90.0
  0
DIMENSION
  5
736
  8
LAYER01
 62
     7
  2
*D26
 10
-6103.8327439999994
 20
1770.3870959999999
 30
0.0
 11
-6133.8327439999994
 21
1510.3870959999999
 31
0.0
 53
90.0
 13
-5899.4289120000003
 23
1250.3870959999999
 33
0.0
 14
-5899.4289120000003
 24
1770.3870959999999
 34
0.0
 50
90.0
  0
DIMENSION
  5
737
  8
LAYER01
 62
     7
  2
*D27
 10
-6017.2545959999998
 20
1650.3870959999999
 30
0.0
 11
-6047.2545959999998
 21
1450.3870959999999
 31
0.0
 53
90.0
 13
-5899.4289120000003
 23
1250.3870959999999
 33
0.0
 14
-5899.4289120000003
 24
1650.3870959999999
 34
0.0
 50
90.0
  0
LINE
  5
738
  8
LAYER01
  6
CONTINUOUS
 62
     7
 10
-5899.4289120000003
 20
1250.3870959999999
 30
0.0
 11
-5899.4289120000003
 21
1770.3870959999999
 31
0.0
  0
DIMENSION
  5
739
  8
LAYER01
 62
     7
  2
*D28
 10
-5969.0750839999992
 20
1770.3870959999999
 30
0.0
 11
-5999.075084000001
 21
1735.2217909999999
 31
0.0
 53
90.0
 13
-5899.4289120000003
 23
1700.0564870000001
 33
0.0
 14
-5899.4289120000003
 24
1770.3870959999999
 34
0.0
 50
90.0
  0
LINE
  5
73A
  8
LAYER01
  6
CONTINUOUS
 62
     7
 10
-5899.4289120000003
 20
1250.3870959999999
 30
0.0
 11
-5099.4289120000003
 21
1250.3870959999999
 31
0.0
  0
LINE
  5
73B
  8
LAYER01
  6
CONTINUOUS
 62
     7
 10
-5899.4289120000003
 20
1770.3870959999999
 30
0.0
 11
-5099.4289120000003
 21
1770.3870959999999
 31
0.0
  0
LINE
  5
73C
  8
LAYER01
  6
CONTINUOUS
 62
     7
 10
-5899.4289120000003
 20
1758.3870959999999
 30
0.0
 11
-5099.4289120000003
 21
1758.3870959999999
 31
0.0
  0
LINE
  5
73D
  8
LAYER01
  6
CONTINUOUS
 62
     7
 10
-5899.4289120000003
 20
1065.6041729999999
 30
0.0
 11
-5099.4289120000003
 21
1065.6041729999999
 31
0.0
  0
LINE
  5
73E
  8
LAYER01
  6
CONTINUOUS
 62
     7
 10
-5899.4289120000003
 20
1035.6041729999999
 30
0.0
 11
-5099.4289120000003
 21
1035.6041729999999
 31
0.0
  0
LINE
  5
73F
  8
LAYER01
  6
CONTINUOUS
 62
     7
 10
-5899.4289120000003
 20
935.60417300000006
 30
0.0
 11
-5099.4289120000003
 21
935.60417300000006
 31
0.0
  0
LINE
  5
740
  8
LAYER01
  6
VERDECKT
 62
     7
 10
-5887.4289119999994
 20
1262.3870959999999
 30
0.0
 11
-5887.4289119999994
 21
1770.3870959999999
 31
0.0
  0
LINE
  5
741
  8
LAYER01
  6
VERDECKT
 62
     7
 10
-5887.4289119999994
 20
1262.3870959999999
 30
0.0
 11
-5111.4289120000003
 21
1262.3870959999999
 31
0.0
  0
LINE
  5
742
  8
LAYER01
  6
VERDECKT
 62
     7
 10
-5111.4289120000003
 20
1262.3870959999999
 30
0.0
 11
-5111.4289120000003
 21
1770.3870959999999
 31
0.0
  0
INSERT
  5
8A6
  8
LAYER01
  2
TRIGO600-G1
 10
-8322.9885194625367
 20
-849.77869313313761
 30
0.0
  0
TEXT
  5
8A7
  8
LAYER01
  6
STRICHPUNKTIERT
 62
     7
 10
-4242.1704396745636
 20
-43.732609774078121
 30
0.0
 40
59.389200000000002
  1
http://www.varicor.org
  0
ENDSEC
  0
EOF
